osu file format v14

[General]
AudioFilename: 05.mp3
AudioLeadIn: 1500
PreviewTime: 54235
Countdown: 0
SampleSet: Soft
StackLeniency: 0.7
Mode: 0
LetterboxInBreaks: 0
WidescreenStoryboard: 0

[Editor]
Bookmarks: 107941,114654,215354
DistanceSpacing: 1.2
BeatDivisor: 4
GridSize: 4
TimelineZoom: 1.1

[Metadata]
Title:Yukitoke Realism
TitleUnicode:雪解けリアリズム
Artist:senya
ArtistUnicode:senya
Creator:wring
Version:Normal
Source:東方Project
Tags:thawing yuuhei satellite zun kirisame marisa oriental dark flight
BeatmapID:723290
BeatmapSetID:252385

[Difficulty]
HPDrainRate:4
CircleSize:3.5
OverallDifficulty:4
ApproachRate:5
SliderMultiplier:1.2
SliderTickRate:1

[Events]
//Background and Video events
0,0,"ay.jpg",0,0
//Break Periods
2,108141,113454
2,114854,120168
2,148421,157091
//Storyboard Layer 0 (Background)
//Storyboard Layer 1 (Fail)
//Storyboard Layer 2 (Pass)
//Storyboard Layer 3 (Foreground)
//Storyboard Sound Samples

[TimingPoints]
529,419.58041958042,4,2,1,40,1,0
13955,-100,4,2,2,40,0,0
14165,-100,4,2,1,50,0,0
27382,-100,4,2,2,50,0,0
27591,-100,4,2,1,50,0,0
40808,-100,4,2,2,50,0,0
41228,-100,4,2,1,50,0,0
47522,-100,4,2,2,50,0,0
47731,-100,4,2,1,50,0,0
52347,-100,4,2,1,60,0,0
53815,-100,4,2,1,40,0,0
54235,-100,4,1,2,70,0,1
67242,-100,4,1,2,65,0,1
67452,-100,4,1,2,60,0,1
79410,-100,4,1,1,60,0,1
81088,-100,4,1,2,70,0,0
81508,-100,4,1,2,55,0,0
87591,-100,4,1,1,55,0,0
87801,-100,4,1,2,55,0,0
90109,-100,4,1,1,55,0,0
90319,-100,4,1,2,55,0,0
90948,-100,4,1,1,55,0,0
91158,-100,4,1,2,55,0,0
92626,-100,4,1,1,55,0,0
94515,-100,4,1,2,55,0,0
107522,-100,4,1,1,55,0,0
107941,-100,4,1,2,55,0,0
114654,-100,4,1,2,65,0,0
121368,-100,4,1,2,70,0,1
145703,-100,4,1,1,70,0,1
146542,-100,4,1,2,70,0,1
147382,-100,4,1,1,70,0,1
148221,-100,4,1,2,70,0,0
158291,-100,4,1,2,40,0,0
159969,-100,4,1,2,50,0,0
160808,-100,4,1,2,55,0,0
161647,-100,4,1,2,60,0,0
162487,-100,4,2,1,50,0,0
168361,-100,4,2,2,50,0,0
168780,-100,4,2,1,50,0,0
171717,-100,4,2,2,50,0,0
171927,-100,4,2,1,50,0,0
175074,-100,4,1,2,70,0,1
199619,-100,4,1,1,70,0,1
199829,-100,4,1,2,70,0,1
200039,-100,4,1,1,70,0,1
200249,-100,4,1,2,70,0,1
201927,-100,4,1,2,60,0,0
212207,-100,4,1,1,60,0,0
212417,-100,4,1,2,60,0,0
212626,-100,4,1,1,60,0,0
212836,-100,4,1,2,60,0,0
213046,-100,4,1,1,60,0,0
213256,-100,4,1,2,60,0,0
213466,-100,4,1,1,60,0,0
213675,-100,4,1,2,60,0,0
215354,-100,4,1,1,55,0,0

[Colours]
Combo1 : 153,169,244
Combo2 : 154,240,250
Combo3 : 253,172,208
Combo4 : 251,242,166

[HitObjects]
120,256,529,6,0,P|180:268|232:240,1,120,4|2,0:3|0:0,0:0:0:0:
296,112,1368,2,0,B|316:168|316:168|380:176,1,120,0|2,0:0|0:0,0:0:0:0:
492,260,2207,2,0,B|420:252|420:252|388:264|388:264|316:256|316:256|336:320,1,240,0|0,0:0|0:0,0:0:0:0:
376,175,3466,1,2,0:0:0:0:
288,60,3885,6,0,P|228:52|168:72,1,120,0|2,0:0|0:0,0:0:0:0:
116,116,4515,1,0,0:0:0:0:
152,180,4724,2,0,P|156:208|160:264,1,60,0|0,0:0|0:0,0:0:0:0:
216,284,5144,2,0,P|216:312|220:348,1,60,2|2,0:0|0:0,0:0:0:0:
292,356,5563,2,0,P|352:348|408:372,1,120,0|2,0:0|0:0,0:0:0:0:
344,240,6403,2,0,P|332:180|348:120,1,120,0|2,0:0|0:0,0:0:0:0:
216,188,7242,6,0,B|160:164|160:164|100:176,1,120,0|2,0:0|0:0,0:0:0:0:
48,40,8081,2,0,B|124:24|124:24|184:52,1,120,0|2,0:0|0:0,0:0:0:0:
102,175,8920,2,0,B|156:200|156:200|160:260,2,120,0|2|0,0:0|0:0|0:0,0:0:0:0:
28,300,10179,1,2,0:0:0:0:
160,356,10598,6,0,P|192:364|224:360,1,60,0|0,0:0|0:0,0:0:0:0:
256,300,11018,2,0,P|288:304|320:296,1,60,2|0,0:0|0:0,0:0:0:0:
344,232,11438,2,0,P|404:228|456:192,1,120,2|2,0:0|0:0,0:0:0:0:
356,88,12277,2,0,B|364:16|364:16|296:32,1,120,0|2,0:0|0:0,0:0:0:0:
184,84,13116,2,0,B|112:104|112:104|64:64|64:64|40:88|40:132|56:168,1,240,0|4,0:0|0:0,0:0:0:0:
136,280,14375,5,0,1:0:0:0:
268,336,14794,2,0,P|280:276|263:213,1,120,0|2,1:0|0:0,0:0:0:0:
192,96,15633,1,0,1:0:0:0:
316,20,16053,2,0,L|456:12,2,120,0|0|2,1:0|1:0|0:0,0:0:0:0:
356,160,17312,2,0,L|224:156,1,120,0|2,1:0|0:0,0:0:0:0:
92,152,18151,5,0,1:0:0:0:
168,28,18570,1,2,0:0:0:0:
24,52,18990,2,0,P|24:84|36:128,1,60,0|0,1:0|0:0,0:0:0:0:
92,152,19410,2,0,P|104:208|88:272,1,120,2|0,0:0|1:0,0:0:0:0:
224,212,20249,1,0,0:0:0:0:
292,192,20459,1,0,0:0:0:0:
360,212,20668,1,0,1:0:0:0:
436,336,21088,6,0,B|404:328|404:328|360:340,1,60,2|0,0:0|0:0,0:0:0:0:
304,332,21508,2,0,P|292:272|308:216,1,120,0|2,1:0|0:0,0:0:0:0:
348,156,22137,1,0,0:0:0:0:
348,156,22347,2,0,L|344:80,1,60,0|0,1:0|0:0,0:0:0:0:
288,52,22766,2,0,P|256:48|228:36,1,60,2|0,0:0|0:0,0:0:0:0:
168,76,23186,2,0,P|112:80|60:124,1,120,0|0,1:0|0:0,0:0:0:0:
164,220,24025,1,0,1:0:0:0:
292,152,24445,6,0,B|352:188|352:188|404:180,1,120,0|0,1:0|1:0,0:0:0:0:
452,128,25074,2,0,P|432:184|436:248,1,120,2|0,0:0|0:0,0:0:0:0:
456,312,25703,1,0,1:0:0:0:
404,364,25913,1,0,0:0:0:0:
340,328,26123,2,0,L|260:332,1,60,2|0,0:0|0:0,0:0:0:0:
232,276,26542,2,0,P|176:260|116:276,1,120,0|0,1:0|0:0,0:0:0:0:
224,176,27382,6,0,P|244:116|224:64,1,120,4|2,0:0|0:0,0:0:0:0:
88,20,28221,2,0,L|16:32,1,60,0|0,1:0|0:0,0:0:0:0:
8,100,28640,2,0,L|54:156,1,60,2|0,0:0|0:0,0:0:0:0:
116,136,29060,2,0,B|138:80|138:80|180:124,1,120,0|0,1:0|1:0,0:0:0:0:
320,148,29899,1,0,1:0:0:0:
371,199,30109,1,0,0:0:0:0:
392,132,30319,1,0,0:0:0:0:
260,76,30738,6,0,B|224:128|224:128|240:208,1,120,0|0,1:0|0:0,0:0:0:0:
296,224,31368,1,2,0:0:0:0:
336,284,31577,2,0,B|396:288|396:288|456:248,1,120,0|2,1:0|0:0,0:0:0:0:
464,112,32417,2,0,P|448:88|412:56,1,60,0|0,1:0|1:0,0:0:0:0:
356,76,32836,2,0,P|328:64|288:56,1,60,0|0,0:0|0:0,0:0:0:0:
248,108,33256,2,0,P|188:108|132:132,1,120,0|2,1:0|0:0,0:0:0:0:
124,204,33885,1,0,0:0:0:0:
64,244,34095,1,0,1:0:0:0:
12,108,34515,6,0,P|40:96|72:96,1,60,0|0,1:0|0:0,0:0:0:0:
133,131,34934,2,0,P|172:168|184:232,1,120,0|2,1:0|0:0,0:0:0:0:
132,284,35563,1,0,1:0:0:0:
172,344,35773,1,0,0:0:0:0:
300,280,36193,2,0,P|332:268|376:264,1,60,2|0,0:0|0:0,0:0:0:0:
428,264,36612,1,0,1:0:0:0:
464,200,36822,2,0,B|480:104|480:104|436:124,1,120,2|0,0:0|0:0,0:0:0:0:
388,96,37452,1,0,1:0:0:0:
252,48,37871,6,0,P|240:104|260:164,1,120,2|0,0:0|1:0,0:0:0:0:
180,284,38710,1,2,0:0:0:0:
204,352,38920,1,2,0:0:0:0:
252,296,39130,2,0,P|256:264|248:232,1,60,0|0,0:0|0:0,0:0:0:0:
200,188,39549,2,0,P|192:152|196:120,1,60,0|0,1:0|1:0,0:0:0:0:
220,60,39969,2,0,P|272:40|336:52,1,120,0|2,1:0|0:0,0:0:0:0:
416,172,40808,6,0,B|445:227|445:227|392:267|322:232,1,180,4|0,0:0|0:0,0:0:0:0:
272,200,41647,2,0,P|216:176|152:184,1,120,0|2,0:0|0:0,0:0:0:0:
40,264,42487,1,2,0:0:0:0:
40,264,42696,2,0,P|12:208|20:148,1,120,0|2,0:0|0:0,0:0:0:0:
68,100,43326,2,0,B|108:100|108:100|148:116|148:116|184:116,1,120,2|2,0:0|0:0,0:0:0:0:
244,248,44165,5,2,0:0:0:0:
244,248,44375,2,0,B|284:248|284:248|324:264|324:264|360:264,1,120,0|2,0:0|0:0,0:0:0:0:
420,308,45004,2,0,P|432:256|392:200,1,120,2|2,0:0|0:0,0:0:0:0:
264,148,45843,5,2,0:0:0:0:
264,148,46053,2,0,P|230:100|241:42,1,120,0|2,0:0|0:0,0:0:0:0:
172,16,46682,2,0,B|148:20|148:20|136:32|136:32|52:44,1,120,2|2,0:0|0:0,0:0:0:0:
60,188,47522,5,4,0:0:0:0:
60,188,47731,2,0,B|137:199|137:199|149:211|149:211|173:215,1,120,2|0,0:0|0:0,0:0:0:0:
188,144,48361,2,0,P|212:124|240:116,1,60,2|0,0:0|0:0,0:0:0:0:
312,108,48780,2,0,P|344:112|372:128,1,60,2|0,0:0|0:0,0:0:0:0:
424,172,49200,5,2,0:0:0:0:
424,172,49410,2,0,B|444:212|440:244|440:244|452:256|452:256|448:296,1,120,2|2,0:0|0:0,0:0:0:0:
400,336,50039,2,0,L|268:328,1,120,2|2,0:0|0:0,0:0:0:0:
188,216,50878,2,0,L|316:208,1,120,0|2,0:0|0:0,0:0:0:0:
384,88,51717,2,0,L|256:80,1,120,2|2,0:0|0:0,0:0:0:0:
204,40,52347,1,2,0:0:0:0:
132,28,52556,6,0,P|100:28|68:36,1,60,0|2,0:0|0:0,0:0:0:0:
84,104,52976,2,0,L|44:172,1,60,0|2,0:0|0:0,0:0:0:0:
112,200,53396,2,0,P|124:232|124:268,1,60,2|0,0:0|1:0,0:0:0:0:
84,316,53815,1,8,0:3:0:0:
224,348,54235,6,0,P|276:324|340:332,1,120,4|2,0:0|0:0,0:0:0:0:
452,244,55074,2,0,P|420:248|376:236,1,60,0|0,0:0|0:0,0:0:0:0:
332,204,55494,2,0,P|312:172|308:136,1,60,2|0,0:0|0:0,0:0:0:0:
316,80,55913,2,0,B|280:52|280:52|192:68,1,120,0|2,0:0|0:0,0:0:0:0:
76,128,56752,1,0,0:0:0:0:
52,196,56962,1,0,0:0:0:0:
124,184,57172,2,0,L|200:168,1,60,8|0,0:2|0:0,0:0:0:0:
256,180,57591,6,0,P|256:244|224:288,1,120,0|2,0:0|0:0,0:0:0:0:
124,184,58431,2,0,B|124:112|124:112|156:68,1,120,0|2,0:0|0:0,0:0:0:0:
208,24,59060,1,0,0:0:0:0:
276,52,59270,2,0,P|336:60|392:32,2,120,0|2|0,0:0|0:0|0:0,0:0:0:0:
220,96,60319,1,0,0:0:0:0:
208,24,60529,2,0,L|132:32,1,60,8|0,0:2|0:0,0:0:0:0:
92,76,60948,6,0,P|80:132|104:188,1,120,0|2,0:0|0:0,0:0:0:0:
240,232,61787,2,0,P|288:208|352:216,1,120,0|2,0:0|0:0,0:0:0:0:
436,332,62626,2,0,L|364:324,1,60,0|0,0:0|0:0,0:0:0:0:
308,308,63046,2,0,P|280:324|236:328,1,60,2|0,0:0|0:0,0:0:0:0:
180,320,63466,1,0,0:0:0:0:
156,252,63675,1,0,0:0:0:0:
200,196,63885,2,0,P|140:208|88:184,1,120,8|0,0:2|0:0,0:0:0:0:
72,112,64515,6,0,L|64:40,2,60,0|2|0,0:0|0:0|0:0,0:0:0:0:
144,100,65144,2,0,P|172:92|204:88,1,60,0|0,0:0|0:0,0:0:0:0:
264,124,65563,2,0,L|252:200,1,60,2|0,0:0|0:0,0:0:0:0:
308,232,65983,2,0,B|312:264|296:296|296:296|344:264|408:292,1,180,0|0,0:0|0:0,0:0:0:0:
460,336,66822,2,0,P|440:276|448:220,1,120,0|0,0:0|0:0,0:0:0:0:
504,88,67661,6,0,L|384:96,1,120,4|8,0:2|0:2,0:0:0:0:
336,40,68291,1,0,0:0:0:0:
308,108,68501,2,0,B|264:88|264:88|200:128,1,120,2|8,0:0|0:2,0:0:0:0:
184,196,69130,1,0,0:0:0:0:
168,268,69340,2,0,L|196:348,2,60,2|0|8,0:0|0:0|0:2,0:0:0:0:
112,224,69969,1,0,0:0:0:0:
120,152,70179,2,0,B|32:152|32:152|40:192,1,120,2|8,0:0|0:2,0:0:0:0:
76,324,71018,6,0,P|136:312|192:328,1,120,2|8,0:0|0:2,0:0:0:0:
252,292,71647,1,0,0:0:0:0:
280,224,71857,2,0,P|288:188|280:144,1,60,0|0,0:0|0:0,0:0:0:0:
304,96,72277,2,0,L|376:100,1,60,8|0,0:2|0:0,0:0:0:0:
428,68,72696,2,0,P|412:124|428:192,1,120,2|8,0:0|0:2,0:0:0:0:
360,312,73535,2,0,B|320:300|320:300|280:308|280:308|236:296,1,120,2|8,0:0|0:2,0:0:0:0:
252,152,74375,5,2,0:0:0:0:
204,100,74584,1,0,0:0:0:0:
184,168,74794,2,0,L|212:240,1,60,8|0,0:2|0:0,0:0:0:0:
172,288,75214,2,0,B|120:276|120:276|40:304,1,120,0|8,0:0|0:2,0:0:0:0:
16,240,75843,1,0,0:0:0:0:
44,172,76053,2,0,B|20:104|20:104|76:112,1,120,2|8,0:0|0:2,0:0:0:0:
208,80,76892,2,0,B|280:92|280:92|296:84|296:84|344:92,1,120,2|8,0:0|0:2,0:0:0:0:
392,64,77522,1,0,0:0:0:0:
404,136,77731,6,0,L|416:216,1,60,0|0,0:0|0:0,0:0:0:0:
340,196,78151,2,0,L|352:276,1,60,8|0,0:2|0:0,0:0:0:0:
276,252,78570,2,0,L|288:332,2,60,0|0|8,0:0|0:0|0:2,0:0:0:0:
232,192,79200,1,0,0:0:0:0:
184,136,79410,6,0,B|152:148|152:148|104:136|104:136|56:152,3,120
20,284,81088,5,4,0:2:0:0:
152,340,81508,1,2,0:0:0:0:
276,264,81927,1,0,0:0:0:0:
408,320,82347,1,2,0:0:0:0:
384,176,82766,6,0,B|424:132|404:80|404:80|376:88,1,120,0|2,0:0|0:0,0:0:0:0:
244,100,83605,2,0,B|220:148|160:148|160:148|164:116,1,120,0|2,0:0|0:0,0:0:0:0:
96,96,84235,1,0,0:0:0:0:
48,40,84445,5,0,0:0:0:0:
188,16,84864,1,2,0:0:0:0:
324,68,85284,1,0,0:0:0:0:
464,44,85703,1,2,0:0:0:0:
412,180,86123,6,0,L|280:184,1,120,0|0,0:0|0:0,0:0:0:0:
360,312,86962,2,0,L|228:316,1,120,2|0,0:0|0:0,0:0:0:0:
172,288,87591,1,2,0:2:0:0:
120,340,87801,5,4,0:0:0:0:
96,196,88221,1,2,0:0:0:0:
232,240,88640,1,0,0:0:0:0:
212,96,89060,1,2,0:0:0:0:
348,144,89480,6,0,B|315:56|315:56|304:88,1,120,0|0,0:0|0:0,0:0:0:0:
268,144,90109,1,2,0:2:0:0:
268,144,90319,2,0,B|208:215|208:215|241:210,1,120,2|0,0:0|0:0,0:0:0:0:
308,216,90948,1,2,0:2:0:0:
308,216,91158,6,0,B|400:231|400:231|378:205,1,120,4|2,0:0|0:0,0:0:0:0:
264,292,91997,2,0,B|190:311|190:311|144:292,1,120,0|2,0:0|0:0,0:0:0:0:
96,244,92626,6,0,P|72:184|84:132,1,120,2|2,0:2|0:2,0:0:0:0:
176,20,93466,1,2,0:2:0:0:
312,60,93885,1,2,0:2:0:0:
312,60,94095,2,0,B|308:100|308:100|316:136|316:136|312:184,1,120,0|4,0:0|0:2,0:0:0:0:
312,178,94934,6,0,L|236:188,1,60,8|0,0:2|0:0,0:0:0:0:
180,184,95354,2,0,P|164:244|184:300,1,120,2|8,0:0|0:2,0:0:0:0:
316,348,96193,2,0,L|440:332,1,120,2|8,0:0|0:2,0:0:0:0:
476,272,96822,1,0,0:0:0:0:
436,212,97032,2,0,P|440:180|436:140,1,60,2|0,0:0|0:0,0:0:0:0:
372,124,97452,2,0,P|364:104|336:76,1,60,0|0,0:0|0:0,0:0:0:0:
272,104,97871,6,0,P|216:84|156:96,1,120,2|8,0:0|0:2,0:0:0:0:
24,40,98710,2,0,P|8:96|32:168,1,120,2|8,0:0|0:2,0:0:0:0:
64,216,99340,1,2,0:0:0:0:
136,224,99549,2,0,P|168:212|200:212,1,60,2|0,0:0|0:0,0:0:0:0:
224,276,99969,2,0,P|212:304|212:336,1,60,8|0,0:2|0:0,0:0:0:0:
276,368,100389,2,0,L|404:360,1,120,2|0,0:0|0:0,0:0:0:0:
396,216,101228,6,0,B|376:240|376:240|352:140,1,120,4|8,0:0|0:2,0:0:0:0:
336,84,101857,1,0,0:0:0:0:
396,44,102067,2,0,P|428:44|460:56,1,60,2|0,0:0|0:0,0:0:0:0:
464,124,102487,2,0,L|460:208,1,60,8|0,0:2|0:0,0:0:0:0:
396,216,102906,2,0,L|392:352,2,120,2|8|2,0:0|0:2|0:0,0:0:0:0:
356,156,103955,2,0,L|357:83,2,60,2|0|0,0:0|0:0|0:0,0:0:0:0:
300,200,104584,1,4,0:0:0:0:
172,264,105004,6,0,P|112:276|60:252,1,120,8|2,0:2|0:0,0:0:0:0:
32,188,105633,1,0,0:0:0:0:
68,124,105843,2,0,P|64:96|64:64,2,60,8|0|0,0:2|0:0|0:0,0:0:0:0:
140,140,106473,5,2,0:0:0:0:
260,64,106892,1,0,0:0:0:0:
388,128,107312,1,0,0:0:0:0:
384,200,107522,1,0,0:0:0:0:
324,240,107731,1,0,0:0:0:0:
336,312,107941,1,8,0:0:0:0:
256,192,114654,5,8,2:1:0:0:
408,112,121368,6,0,L|344:104,1,60,4|0,0:0|0:0,0:0:0:0:
280,132,121787,2,0,P|272:160|276:200,1,60,2|0,0:0|0:0,0:0:0:0:
276,264,122207,1,0,0:0:0:0:
340,296,122417,2,0,P|344:316|344:356,2,60,0|2|0,0:0|0:0|0:0,0:0:0:0:
276,264,123046,2,0,P|220:252|156:280,1,120,0|2,0:0|0:0,0:0:0:0:
28,328,123885,2,0,B|24:284|24:284|32:252|32:252|28:204,1,120,0|8,0:0|0:2,0:0:0:0:
12,68,124724,6,0,L|20:140,1,60,2|0,0:0|0:0,0:0:0:0:
76,172,125144,2,0,P|128:192|192:176,1,120,2|0,0:0|0:0,0:0:0:0:
244,132,125773,2,0,P|220:112|180:108,2,60,0|2|0,0:0|0:0|0:0,0:0:0:0:
260,204,126403,2,0,P|308:168|308:100,1,120,0|2,0:0|0:0,0:0:0:0:
448,60,127242,2,0,B|416:40|416:40|432:136,1,120,0|8,0:0|0:2,0:0:0:0:
468,184,127871,1,0,0:0:0:0:
428,244,128081,6,0,L|440:316,2,60,0|0|2,0:0|0:0|0:0,0:0:0:0:
356,236,128710,1,0,0:0:0:0:
332,168,128920,2,0,L|344:96,2,60,0|0|2,0:0|0:0|0:0,0:0:0:0:
260,160,129549,1,0,0:0:0:0:
220,220,129759,2,0,B|208:276|208:276|220:340,1,120,0|2,0:0|0:0,0:0:0:0:
124,228,130598,2,0,B|136:172|136:172|124:108,1,120,0|8,0:0|0:2,0:0:0:0:
40,228,131438,6,0,L|52:300,1,60,0|0,0:0|0:0,0:0:0:0:
64,360,131857,2,0,P|92:368|128:368,1,60,2|0,0:0|0:0,0:0:0:0:
188,332,132277,1,2,0:0:0:0:
232,276,132487,1,0,0:0:0:0:
300,256,132696,1,2,0:0:0:0:
372,268,132906,1,0,0:0:0:0:
428,312,133116,2,0,B|448:288|448:288|440:196,2,120,4|2|0,0:0|0:0|0:0,0:0:0:0:
152,232,134794,6,0,L|220:224,1,60,4|0,0:2|0:0,0:0:0:0:
224,152,135214,2,0,L|292:144,1,60,8|0,0:2|0:0,0:0:0:0:
296,72,135633,2,0,L|364:64,2,60,0|0|8,0:0|0:0|0:2,0:0:0:0:
232,36,136263,1,0,0:0:0:0:
160,28,136473,2,0,B|68:40|68:40|88:76,1,120,2|8,0:0|0:2,0:0:0:0:
180,168,137312,2,0,B|216:224|216:224|208:280,1,120,0|8,0:0|0:2,0:0:0:0:
256,332,137941,1,0,0:0:0:0:
328,336,138151,6,0,P|364:329|388:312,1,60,2|0,0:0|0:0,0:0:0:0:
428,260,138570,2,0,B|436:208|436:208|444:200|444:200|452:136,1,120,8|0,0:2|0:0,0:0:0:0:
420,80,139200,2,0,L|416:16,2,60,0|8|0,0:0|0:2|0:0,0:0:0:0:
380,140,139829,1,2,0:0:0:0:
312,112,140039,1,0,0:0:0:0:
276,176,140249,2,0,L|264:256,1,60,8|0,0:2|0:0,0:0:0:0:
320,284,140668,2,0,P|260:272|200:292,1,120,2|8,0:0|0:2,0:0:0:0:
176,148,141508,6,0,L|172:80,2,60,2|0|8,0:0|0:0|0:2,0:0:0:0:
136,208,142137,1,0,0:0:0:0:
68,236,142347,2,0,P|40:220|8:220,1,60,0|0,0:0|0:0,0:0:0:0:
20,292,142766,2,0,L|32:368,1,60,8|0,0:2|0:0,0:0:0:0:
100,372,143186,2,0,B|144:368|144:368|176:356|176:356|220:352,1,120,2|8,0:0|0:2,0:0:0:0:
288,336,143815,1,0,0:0:0:0:
344,292,144025,2,0,P|360:232|344:176,1,120,0|8,0:0|0:2,0:0:0:0:
292,128,144654,1,0,0:0:0:0:
232,88,144864,6,0,L|244:24,2,60,2|0|8,0:0|0:0|0:2,0:0:0:0:
168,124,145494,1,0,0:0:0:0:
124,68,145703,2,0,L|136:8,2,60,2|2|2,0:2|0:2|0:2,0:0:0:0:
52,76,146333,1,0,0:0:0:0:
16,140,146542,5,2,0:0:0:0:
32,208,146752,1,0,0:0:0:0:
104,216,146962,1,8,0:2:0:0:
128,284,147172,1,0,0:0:0:0:
200,300,147382,2,0,P|264:308|336:312,2,120,4|0|4,0:2|0:0|0:2,0:0:0:0:
256,192,158291,12,4,161647,0:3:0:0:
108,104,162487,6,0,P|164:84|224:96,1,120,8|0,0:0|0:0,0:0:0:0:
324,200,163326,2,0,B|328:287|328:287|312:328,1,120,8|2,0:3|0:0,0:0:0:0:
248,340,163955,1,0,0:0:0:0:
192,292,164165,2,0,P|132:304|56:312,1,120,8|0,0:0|0:0,0:0:0:0:
24,176,165004,6,0,B|12:128|12:128|48:148|100:144,1,120,8|2,0:3|0:0,0:0:0:0:
220,104,165843,2,0,P|272:76|340:80,1,120,8|2,0:0|0:0,0:0:0:0:
392,120,166473,1,0,0:0:0:0:
440,176,166682,2,0,B|468:164|468:164|448:264,1,120,8|2,0:3|0:0,0:0:0:0:
308,272,167522,5,8,0:0:0:0:
240,248,167731,1,0,0:0:0:0:
172,276,167941,1,2,0:0:0:0:
108,240,168151,1,0,0:0:0:0:
40,264,168361,6,0,B|56:212|56:212|44:136,1,120,8|0,0:1|1:0,0:0:0:0:
144,40,169200,2,0,P|180:28|228:32,1,60,8|0,0:0|0:0,0:0:0:0:
272,40,169619,2,0,P|304:52|324:76,1,60,2|2,0:0|0:0,0:0:0:0:
356,136,170039,6,0,B|328:152|328:152|272:152|272:152|240:168,1,120,8|2,0:3|0:0,0:0:0:0:
300,300,170878,2,0,B|272:316|272:316|216:316|216:316|184:332,1,120,8|0,0:0|1:0,0:0:0:0:
120,300,171508,1,0,0:0:0:0:
108,228,171717,6,0,B|72:220|72:220|44:136,1,120,2|0,0:1|1:0,0:0:0:0:
144,36,172556,2,0,B|204:52|204:52|260:36,1,120,8|0,0:0|0:0,0:0:0:0:
328,16,173186,5,2,0:0:0:0:
440,108,173605,1,2,0:0:0:0:
348,220,174025,1,2,0:0:0:0:
232,132,174445,1,2,0:0:0:0:
232,132,174654,1,2,1:2:0:0:
376,116,175074,6,0,L|304:124,1,60,4|0,0:2|0:0,0:0:0:0:
284,188,175494,2,0,P|276:216|280:256,1,60,2|0,0:0|0:0,0:0:0:0:
212,280,175913,2,0,P|200:224|224:148,1,120,2|8,0:0|0:2,0:0:0:0:
220,92,176542,1,0,0:0:0:0:
160,52,176752,2,0,B|124:24|124:24|108:96,1,120,2|2,0:0|0:0,0:0:0:0:
44,224,177591,2,0,B|37:269|37:269|108:247,1,120,2|8,0:0|0:2,0:0:0:0:
252,260,178431,6,0,L|320:240,1,60,2|0,0:0|0:0,0:0:0:0:
380,264,178850,2,0,P|396:208|380:148,1,120,2|2,0:0|0:0,0:0:0:0:
328,100,179480,1,0,0:0:0:0:
260,128,179689,2,0,P|260:160|240:192,1,60,8|0,0:2|0:0,0:0:0:0:
188,140,180109,2,0,B|100:112|100:112|144:88,1,120,4|2,0:0|0:0,0:0:0:0:
256,40,180948,2,0,P|300:12|372:20,1,120,2|8,0:0|0:2,0:0:0:0:
420,64,181577,1,0,0:0:0:0:
448,132,181787,6,0,L|524:124,2,60,2|0|2,0:0|0:0|0:0,0:0:0:0:
396,184,182417,1,0,0:0:0:0:
396,184,182626,2,0,L|320:176,2,60,2|0|8,0:0|0:0|0:2,0:0:0:0:
440,244,183256,1,0,0:0:0:0:
440,244,183466,2,0,B|476:240|476:240|460:284|468:324,1,120,2|2,0:0|0:0,0:0:0:0:
332,368,184305,2,0,B|344:332|344:332|240:352,1,120,2|8,0:0|0:2,0:0:0:0:
160,248,185144,6,0,L|80:268,1,60,2|0,0:0|0:0,0:0:0:0:
52,208,185563,2,0,L|74:128,1,60,2|0,0:0|0:0,0:0:0:0:
136,120,185983,1,2,0:0:0:0:
188,172,186193,1,0,0:0:0:0:
260,172,186403,1,8,0:2:0:0:
312,120,186612,1,0,0:0:0:0:
384,120,186822,6,0,B|424:168|424:168|424:228|424:228|424:228,3,120,2|2|2|2,0:0|0:0|0:0|0:0,0:0:0:0:
348,348,188501,6,0,L|348:284,1,60,4|0,0:2|0:0,0:0:0:0:
276,272,188920,2,0,P|244:280|208:280,1,60,8|0,0:2|0:0,0:0:0:0:
148,300,189340,2,0,P|92:276|28:288,1,120,2|8,0:0|0:2,0:0:0:0:
24,212,189969,1,0,0:0:0:0:
24,212,190179,2,0,P|16:148|44:96,1,120,2|8,0:0|0:2,0:0:0:0:
160,20,191018,2,0,P|224:12|276:40,1,120,2|8,0:0|0:2,0:0:0:0:
316,92,191647,1,0,0:0:0:0:
260,140,191857,6,0,P|228:152|188:180,1,60,2|0,0:0|0:0,0:0:0:0:
232,232,192277,2,0,P|216:264|208:304,1,60,8|0,0:2|0:0,0:0:0:0:
272,324,192696,2,0,P|276:356|292:384,2,60,2|0|8,0:0|0:0|0:2,0:0:0:0:
304,260,193326,1,0,0:0:0:0:
376,260,193535,2,0,P|432:240|464:192,1,120,2|8,0:0|0:2,0:0:0:0:
504,52,194375,2,0,B|464:32|464:32|380:40,1,120,2|8,0:0|0:2,0:0:0:0:
316,28,195004,1,0,0:0:0:0:
252,64,195214,6,0,L|184:56,1,60,2|0,0:0|0:0,0:0:0:0:
160,120,195633,2,0,P|200:164|260:164,1,120,8|2,0:2|0:0,0:0:0:0:
324,132,196263,1,0,0:0:0:0:
360,196,196473,2,0,L|356:276,1,60,8|0,0:2|0:0,0:0:0:0:
292,284,196892,1,2,0:0:0:0:
236,236,197102,1,0,0:0:0:0:
176,276,197312,2,0,P|180:308|172:344,1,60,8|0,0:2|0:0,0:0:0:0:
108,356,197731,2,0,P|56:332|40:272,1,120,2|8,0:0|0:2,0:0:0:0:
60,204,198361,1,0,0:0:0:0:
96,140,198570,6,0,L|88:68,2,60,2|0|8,0:0|0:0|0:2,0:0:0:0:
168,144,199200,1,0,0:0:0:0:
204,80,199410,2,0,L|196:8,2,60,2|2|8,0:0|0:2|0:2,0:0:0:0:
276,96,200039,1,0,0:0:0:0:
344,68,200249,5,0,0:0:0:0:
388,124,200459,1,0,0:0:0:0:
348,184,200668,1,8,0:2:0:0:
280,164,200878,1,0,0:0:0:0:
244,228,201088,2,0,B|284:272|284:272|344:256,1,120,2|0,0:0|0:0,0:0:0:0:
468,328,201927,6,0,L|396:352,1,60,4|0,0:0|0:0,0:0:0:0:
340,340,202347,2,0,L|224:368,1,120,8|2,0:0|0:0,0:0:0:0:
172,320,202976,1,0,0:0:0:0:
120,272,203186,2,0,B|76:284|76:284|16:220,1,120,8|2,0:0|0:0,0:0:0:0:
68,92,204025,2,0,B|52:136|52:136|104:192,1,120,8|2,0:2|0:0,0:0:0:0:
168,156,204654,1,0,0:0:0:0:
232,120,204864,2,0,P|264:124|292:116,1,60,8|0,0:0|0:0,0:0:0:0:
340,64,205284,6,0,P|324:116|344:188,1,120,4|8,0:0|0:2,0:0:0:0:
472,232,206123,2,0,P|488:284|468:356,1,120,2|8,0:0|0:0,0:0:0:0:
408,376,206752,1,0,0:0:0:0:
348,332,206962,2,0,L|272:328,1,60,2|0,0:0|0:0,0:0:0:0:
232,280,207382,2,0,L|156:276,1,60,8|0,0:2|0:0,0:0:0:0:
140,212,207801,2,0,P|120:152|132:96,1,120,0|8,0:0|0:0,0:0:0:0:
272,64,208640,6,0,B|256:44|256:44|352:60,1,120,4|8,0:0|0:2,0:0:0:0:
440,172,209480,2,0,B|465:168|465:168|403:243,1,120,2|8,0:0|0:2,0:0:0:0:
356,296,210109,1,0,0:0:0:0:
300,252,210319,2,0,P|272:252|232:244,1,60,2|0,0:0|0:0,0:0:0:0:
168,236,210738,2,0,L|180:324,1,60,8|0,0:0|0:0,0:0:0:0:
132,352,211158,2,0,P|76:348|0:364,1,120,2|8,0:0|0:2,0:0:0:0:
72,228,211997,6,0,B|32:208|40:144|40:144|64:156,1,120,2|8,0:0|0:2,0:0:0:0:
128,180,212626,1,2,0:2:0:0:
196,208,212836,2,0,B|217:218|217:218|225:154|185:134,1,120,2|8,0:0|0:2,0:0:0:0:
288,32,213675,6,0,P|308:52|328:88,1,60,2|0,0:0|0:0,0:0:0:0:
348,148,214095,2,0,P|356:180|352:216,1,60,2|0,0:0|0:0,0:0:0:0:
336,276,214515,2,0,P|304:320|240:340,2,120,0|0|4,0:2|0:2|0:2,0:0:0:0:
