osu file format v14

[General]
AudioFilename: 05.mp3
AudioLeadIn: 1500
PreviewTime: 54235
Countdown: 0
SampleSet: Soft
StackLeniency: 0.7
Mode: 0
LetterboxInBreaks: 0
WidescreenStoryboard: 0

[Editor]
Bookmarks: 107941,114654,215354
DistanceSpacing: 0.6
BeatDivisor: 4
GridSize: 4
TimelineZoom: 1.3

[Metadata]
Title:Yukitoke Realism
TitleUnicode:雪解けリアリズム
Artist:senya
ArtistUnicode:senya
Creator:wring
Version:Hard
Source:東方Project
Tags:thawing yuuhei satellite zun kirisame marisa oriental dark flight
BeatmapID:579749
BeatmapSetID:252385

[Difficulty]
HPDrainRate:5
CircleSize:4
OverallDifficulty:6
ApproachRate:7
SliderMultiplier:1.4
SliderTickRate:1

[Events]
//Background and Video events
0,0,"ay.jpg",0,0
//Break Periods
2,108141,113754
2,148421,157391
//Storyboard Layer 0 (Background)
//Storyboard Layer 1 (Fail)
//Storyboard Layer 2 (Pass)
//Storyboard Layer 3 (Foreground)
//Storyboard Sound Samples

[TimingPoints]
529,419.58041958042,4,2,1,40,1,0
13535,-100,4,2,1,20,0,0
13955,-100,4,2,2,40,0,0
14165,-100,4,2,1,50,0,0
27382,-100,4,2,2,50,0,0
27591,-100,4,2,1,50,0,0
40808,-100,4,2,2,50,0,0
41228,-100,4,2,1,50,0,0
47522,-100,4,2,2,50,0,0
47731,-100,4,2,1,50,0,0
52347,-100,4,2,1,60,0,0
53815,-100,4,2,1,40,0,0
54235,-100,4,1,2,70,0,1
67242,-100,4,1,2,65,0,1
67452,-100,4,1,2,60,0,1
79410,-100,4,1,1,60,0,1
81088,-100,4,1,2,70,0,0
81508,-100,4,1,2,55,0,0
86752,-100,4,1,1,55,0,0
86962,-100,4,1,2,55,0,0
87591,-100,4,1,1,55,0,0
87801,-100,4,1,2,55,0,0
90109,-100,4,1,1,55,0,0
90319,-100,4,1,2,55,0,0
90948,-100,4,1,1,55,0,0
91158,-100,4,1,2,55,0,0
92626,-100,4,1,1,55,0,0
94515,-100,4,1,2,55,0,0
107522,-100,4,1,1,55,0,0
107941,-100,4,1,2,55,0,0
114654,-100,4,1,2,65,0,0
114864,-100,4,2,1,60,0,0
117906,-100,4,2,1,50,0,0
121368,-100,4,1,2,70,0,1
145703,-100,4,1,1,70,0,1
146542,-100,4,1,2,70,0,1
147382,-100,4,1,1,70,0,1
148221,-100,4,1,2,70,0,0
158291,-100,4,1,2,40,0,0
159969,-100,4,1,2,50,0,0
160808,-100,4,1,2,55,0,0
161647,-100,4,1,2,60,0,0
162487,-100,4,2,1,50,0,0
168361,-100,4,2,2,50,0,0
168780,-100,4,2,1,50,0,0
171717,-100,4,2,2,50,0,0
171927,-100,4,2,1,50,0,0
175074,-100,4,1,2,70,0,1
199619,-100,4,1,1,70,0,1
199829,-100,4,1,2,70,0,1
200039,-100,4,1,1,70,0,1
200249,-100,4,1,2,70,0,1
201927,-100,4,1,2,60,0,0
212207,-100,4,1,1,60,0,0
212417,-100,4,1,2,60,0,0
212626,-100,4,1,1,60,0,0
212836,-100,4,1,2,60,0,0
213046,-100,4,1,1,60,0,0
213256,-100,4,1,2,60,0,0
213466,-100,4,1,1,60,0,0
213675,-100,4,1,2,60,0,0
215354,-100,4,1,1,55,0,0

[Colours]
Combo1 : 153,169,244
Combo2 : 154,240,250
Combo3 : 253,172,208
Combo4 : 251,242,166

[HitObjects]
128,152,529,6,0,P|168:152|196:144,1,70,4|0,0:3|0:0,0:0:0:0:
248,76,948,2,0,P|228:144|260:204,1,140,2|0,0:0|0:0,0:0:0:0:
324,256,1577,1,0,0:0:0:0:
408,264,1787,2,0,L|420:348,1,70,2|0,0:0|0:0,0:0:0:0:
488,216,2207,6,0,P|432:172|352:188,1,140,0|2,0:0|0:0,0:0:0:0:
240,288,3046,2,0,P|168:296|112:252,1,140,0|2,0:0|0:0,0:0:0:0:
112,248,3885,6,0,L|120:176,1,70
76,108,4305,2,0,L|4:116,1,70,2|0,0:0|0:0,0:0:0:0:
156,104,4724,2,0,P|212:72|280:92,1,140,0|2,0:0|0:0,0:0:0:0:
280,92,5354,1,2,0:0:0:0:
368,172,5563,6,0,L|228:184,1,140,0|2,0:0|0:0,0:0:0:0:
108,288,6403,2,0,L|248:276,1,140,0|2,0:0|0:0,0:0:0:0:
112,112,7242,6,0,L|212:104,1,70
248,52,7661,2,0,P|204:104|216:176,1,140,2|0,0:0|0:0,0:0:0:0:
204,256,8291,1,0,0:0:0:0:
276,300,8501,2,0,L|416:288,1,140,2|0,0:0|0:0,0:0:0:0:
480,232,9130,5,0,0:0:0:0:
424,168,9340,2,0,P|400:104|424:36,2,140,2|0|2,0:0|0:0|0:0,0:0:0:0:
264,116,10598,6,0,L|180:100,1,70
196,188,11018,2,0,L|280:204,1,70,2|0,0:0|0:0,0:0:0:0:
328,256,11438,2,0,L|336:340,1,70,2|0,0:0|0:0,0:0:0:0:
416,312,11857,2,0,L|408:228,1,70,2|0,0:0|0:0,0:0:0:0:
436,160,12277,6,0,P|404:96|340:76,1,140,0|2,0:0|0:0,0:0:0:0:
264,108,12906,1,2,0:0:0:0:
188,144,13116,2,0,L|36:152,1,140,0|2,0:0|0:0,0:0:0:0:
40,144,13955,5,4,0:0:0:0:
140,280,14375,2,0,P|180:284|216:276,1,70,0|0,1:0|0:0,0:0:0:0:
280,232,14794,2,0,L|320:164,1,70,0|0,1:0|0:0,0:0:0:0:
400,164,15214,2,0,P|448:216|444:284,1,140,2|0,0:0|1:0,0:0:0:0:
368,312,15843,6,0,P|332:308|284:320,1,70,0|0,0:0|1:0,0:0:0:0:
280,232,16263,1,0,0:0:0:0:
196,216,16473,2,0,P|156:152|168:88,1,140,0|2,1:0|0:0,0:0:0:0:
228,32,17102,1,0,0:0:0:0:
228,32,17207,1,0,0:0:0:0:
228,32,17312,6,0,P|156:40|56:40,1,140,0|2,1:0|0:0,0:0:0:0:
28,100,17941,1,0,0:0:0:0:
64,176,18151,2,0,P|104:172|156:172,2,70,0|0|2,1:0|0:0|0:0,0:0:0:0:
200,224,18780,1,0,0:0:0:0:
284,240,18990,6,0,P|264:164|204:140,1,140,0|2,1:0|0:0,0:0:0:0:
134,172,19619,2,0,P|116:208|116:240,1,70,0|0,0:0|1:0,0:0:0:0:
168,304,20039,2,0,B|200:316|232:304|232:304|300:344,1,140
372,380,20668,1,0,1:0:0:0:
460,236,21088,6,0,P|472:200|472:164,1,70,2|0,0:0|0:0,0:0:0:0:
432,92,21508,1,0,1:0:0:0:
348,76,21717,2,0,L|272:84,2,70,0|2|0,0:0|0:0|0:0,0:0:0:0:
196,64,22347,6,0,P|172:128|196:196,1,140,0|2,1:0|0:0,0:0:0:0:
265,297,22976,2,0,L|272:228,1,70,0|0,0:0|1:0,0:0:0:0:
348,288,23396,2,0,L|360:128,1,140,2|0,0:0|0:0,0:0:0:0:
308,80,24025,6,0,L|232:88,1,70,0|0,1:0|0:0,0:0:0:0:
92,136,24445,2,0,L|168:128,1,70,0|0,1:0|0:0,0:0:0:0:
232,172,24864,1,0,1:0:0:0:
204,252,25074,2,0,B|235:267|272:251|272:251|344:264,1,140,2|0,0:0|0:0,0:0:0:0:
412,216,25703,1,0,1:0:0:0:
360,148,25913,6,0,L|280:132,1,70,0|2,0:0|0:0,0:0:0:0:
232,76,26333,2,0,P|196:64|164:68,1,70,0|0,0:0|1:0,0:0:0:0:
96,116,26752,2,0,P|72:176|92:248,1,140,2|2,0:0|0:0,0:0:0:0:
156,304,27382,1,4,0:0:0:0:
156,304,27801,5,2,0:0:0:0:
192,228,28011,1,0,0:0:0:0:
240,296,28221,1,0,1:0:0:0:
276,220,28431,1,0,0:0:0:0:
276,220,28535,1,0,0:0:0:0:
276,220,28640,2,0,L|348:212,1,70,2|0,0:0|0:0,0:0:0:0:
408,268,29060,1,0,1:0:0:0:
348,328,29270,6,0,L|276:336,1,70,2|0,0:0|1:0,0:0:0:0:
200,308,29689,2,0,L|128:300,1,70,0|0,0:0|1:0,0:0:0:0:
48,308,30109,2,0,P|28:244|48:176,1,140,0|2,0:0|0:0,0:0:0:0:
100,108,30738,1,0,1:0:0:0:
164,52,30948,6,0,P|182:47|200:44,2,35,0|0|0,0:0|0:0|0:0,0:0:0:0:
100,108,31368,2,0,P|64:96|32:96,2,70,2|0|0,0:0|1:0|0:0,0:0:0:0:
164,164,31997,2,0,P|196:172|232:172,1,70,2|0,0:0|0:0,0:0:0:0:
304,124,32417,1,0,1:0:0:0:
380,164,32626,6,0,P|424:216|408:284,1,140,0|0,1:0|0:0,0:0:0:0:
340,332,33256,1,0,1:0:0:0:
340,332,33466,2,0,L|336:380,2,35,0|0|2,0:0|0:0|0:0,0:0:0:0:
292,264,33885,1,0,0:0:0:0:
248,192,34095,6,0,L|244:96,1,70,0|0,1:0|0:0,0:0:0:0:
168,24,34515,2,0,L|172:120,1,70,0|0,1:0|0:0,0:0:0:0:
124,164,34934,5,0,1:0:0:0:
44,192,35144,1,0,0:0:0:0:
48,276,35354,1,2,0:0:0:0:
132,284,35563,6,0,P|200:272|260:304,1,140,0|0,1:0|0:0,0:0:0:0:
312,372,36193,1,2,0:0:0:0:
380,320,36403,2,0,P|416:320|448:308,1,70,0|0,0:0|1:0,0:0:0:0:
476,228,36822,2,0,P|428:180|356:176,1,140,2|0,0:0|0:0,0:0:0:0:
288,220,37452,1,0,1:0:0:0:
128,172,37871,6,0,L|116:96,1,70,2|0,0:0|0:0,0:0:0:0:
200,128,38291,2,0,P|232:140|268:140,1,70,0|0,1:0|0:0,0:0:0:0:
340,96,38710,1,2,0:0:0:0:
424,92,38920,1,2,0:0:0:0:
248,48,39340,5,0,0:0:0:0:
248,48,39549,1,0,1:0:0:0:
148,48,39759,1,0,1:0:0:0:
148,48,39969,1,0,1:0:0:0:
108,140,40179,1,0,0:0:0:0:
108,140,40389,1,2,0:0:0:0:
108,140,40598,1,2,0:0:0:0:
172,216,40808,6,0,L|312:208,1,140,4|2,0:0|0:0,0:0:0:0:
320,200,41647,6,0,P|308:236|312:280,1,70,0|2,0:0|0:0,0:0:0:0:
392,244,42067,1,2,0:0:0:0:
400,160,42277,1,0,0:0:0:0:
328,116,42487,2,0,P|288:120|256:144,1,70,2|0,0:0|0:0,0:0:0:0:
212,296,43116,1,2,0:0:0:0:
212,296,43326,6,0,L|200:216,1,70,2|0,0:0|0:0,0:0:0:0:
188,144,43745,1,2,0:0:0:0:
124,200,43955,1,0,0:0:0:0:
201,226,44165,2,0,L|280:252,1,70,2|0,0:0|0:0,0:0:0:0:
428,296,44794,1,2,0:0:0:0:
428,296,45004,6,0,P|396:288|368:260,1,70,2|2,0:0|0:0,0:0:0:0:
344,184,45424,1,2,0:0:0:0:
264,156,45633,1,0,0:0:0:0:
344,184,45843,2,0,L|352:104,1,70,2|0,0:0|0:0,0:0:0:0:
328,332,46473,1,2,0:0:0:0:
328,332,46682,6,0,L|244:340,1,70,2|0,0:0|0:0,0:0:0:0:
180,304,47102,1,2,0:0:0:0:
180,304,47312,1,0,0:0:0:0:
104,264,47522,2,0,P|68:272|36:292,1,70,4|2,0:0|0:0,0:0:0:0:
116,100,48151,1,0,0:0:0:0:
116,100,48361,6,0,P|148:112|192:112,1,70,2|0,0:0|0:0,0:0:0:0:
264,84,48780,2,0,L|256:160,1,70,2|0,0:0|0:0,0:0:0:0:
316,216,49200,2,0,L|400:212,1,70,2|2,0:0|0:0,0:0:0:0:
232,320,49829,1,2,0:0:0:0:
232,320,50039,6,0,L|148:324,1,70,2|0,0:0|0:0,0:0:0:0:
116,252,50459,2,0,P|108:216|112:184,1,70,2|0,0:0|0:0,0:0:0:0:
160,116,50878,1,0,0:0:0:0:
124,40,51088,5,2,0:0:0:0:
124,40,51298,1,2,0:0:0:0:
208,44,51508,2,0,L|212:116,1,70,0|2,0:0|0:0,0:0:0:0:
296,132,51927,2,0,L|288:216,1,70,0|2,0:0|0:0,0:0:0:0:
384,112,52347,6,0,L|376:196,1,70,2|0,0:0|0:0,0:0:0:0:
432,244,52766,2,0,L|436:316,1,70,2|0,0:0|0:0,0:0:0:0:
352,264,53186,2,0,P|324:284|280:288,1,70,2|2,0:0|0:0,0:0:0:0:
216,244,53605,1,0,1:0:0:0:
216,244,53815,1,8,0:3:0:0:
120,64,54235,6,0,L|192:60,1,70,4|0,0:0|0:0,0:0:0:0:
324,112,54654,2,0,L|252:116,1,70,2|0,0:0|0:0,0:0:0:0:
176,144,55074,1,0,0:0:0:0:
160,228,55284,1,0,0:0:0:0:
212,296,55494,2,0,P|252:264|304:260,1,105,2|0,0:0|0:0,0:0:0:0:
344,276,55913,6,0,L|372:348,1,70
424,248,56333,2,0,L|396:176,1,70,2|0,0:0|0:0,0:0:0:0:
316,168,56752,2,0,P|248:180|184:148,1,140,0|8,0:0|0:2,0:0:0:0:
168,68,57382,1,0,0:0:0:0:
232,12,57591,6,0,L|308:28,1,70
412,116,58011,2,0,L|336:100,1,70,2|0,0:0|0:0,0:0:0:0:
260,100,58431,1,0,0:0:0:0:
192,152,58640,1,0,0:0:0:0:
108,136,58850,1,2,0:0:0:0:
48,196,59060,1,0,0:0:0:0:
80,276,59270,6,0,P|136:244|212:248,1,140,0|2,0:0|0:0,0:0:0:0:
252,320,59899,1,0,0:0:0:0:
252,320,60109,2,0,P|316:344|388:328,1,140,0|8,0:0|0:2,0:0:0:0:
392,172,60948,6,0,L|308:184,1,70
288,104,61368,2,0,L|372:92,1,70,2|0,0:0|0:0,0:0:0:0:
208,140,61787,2,0,L|200:56,1,70
124,108,62207,2,0,L|132:192,1,70,2|0,0:0|0:0,0:0:0:0:
188,252,62626,5,0,0:0:0:0:
144,324,62836,1,0,0:0:0:0:
144,324,62941,1,0,0:0:0:0:
144,324,63046,2,0,L|52:336,1,70,2|0,0:0|0:0,0:0:0:0:
224,328,63466,2,0,P|264:288|264:228,1,105
252,204,63885,2,0,L|324:196,1,70,8|0,0:2|0:0,0:0:0:0:
200,136,64305,6,0,L|128:144,1,70
48,152,64724,2,0,P|40:188|48:228,1,70,2|0,0:0|0:0,0:0:0:0:
45,220,65144,1,0,0:0:0:0:
80,76,65354,2,0,P|88:40|80:0,2,70,0|2|0,0:0|0:0|0:0,0:0:0:0:
4,36,65983,5,0,0:0:0:0:
80,76,66193,1,0,0:0:0:0:
164,64,66403,1,2,0:0:0:0:
248,52,66612,1,0,0:0:0:0:
324,88,66822,2,0,P|356:96|392:96,1,70
468,60,67242,2,0,P|476:80|476:104,3,35,0|0|0|0,0:0|3:0|0:0|3:0,0:0:0:0:
468,136,67661,6,0,L|476:212,1,70,4|0,0:2|0:0,0:0:0:0:
392,180,68081,2,0,L|400:256,1,70,8|0,0:2|0:0,0:0:0:0:
488,212,68501,2,0,L|496:288,1,70,2|0,0:0|0:0,0:0:0:0:
412,256,68921,2,0,L|420:332,1,70,8|0,0:2|0:0,0:0:0:0:
336,304,69340,5,2,0:0:0:0:
264,348,69549,1,0,0:0:0:0:
264,348,69654,1,0,0:0:0:0:
264,348,69759,2,0,P|228:352|188:348,1,70,8|0,0:2|0:0,0:0:0:0:
128,296,70179,2,0,B|116:248|116:248|88:220|88:220|72:152,1,140,2|8,0:0|0:2,0:0:0:0:
52,88,70808,1,0,0:0:0:0:
136,104,71018,6,0,P|172:104|212:88,1,70,2|0,0:0|0:0,0:0:0:0:
276,140,71438,2,0,P|312:120|332:88,1,70,8|0,0:2|0:0,0:0:0:0:
412,92,71857,2,0,P|432:60|432:20,2,70,0|0|8,0:0|0:0|0:2,0:0:0:0:
372,168,72487,1,0,0:0:0:0:
336,244,72696,6,0,P|332:316|372:372,1,140,2|8,0:0|0:2,0:0:0:0:
252,344,73326,1,0,0:0:0:0:
252,344,73431,1,0,0:0:0:0:
252,344,73535,2,0,B|204:332|204:332|160:352|160:352|92:332,1,140,2|8,0:0|0:2,0:0:0:0:
108,340,74375,6,0,L|100:264,1,70,2|0,0:0|0:0,0:0:0:0:
168,216,74794,2,0,P|236:220|292:176,1,140,8|0,0:2|0:0,0:0:0:0:
312,96,75424,1,0,0:0:0:0:
312,96,75633,2,0,L|400:104,1,70,8|0,0:2|0:0,0:0:0:0:
236,60,76053,6,0,B|188:64|188:64|156:36|156:36|104:40,1,140,2|8,0:0|0:2,0:0:0:0:
124,124,76682,1,0,0:0:0:0:
52,172,76892,2,0,P|39:136|40:104,2,70,2|0|8,0:0|0:0|0:2,0:0:0:0:
128,208,77522,1,0,0:0:0:0:
128,208,77626,1,0,0:0:0:0:
128,208,77731,6,0,L|132:288,1,70
48,256,78151,2,0,L|52:336,1,70,8|0,0:2|0:0,0:0:0:0:
192,340,78570,2,0,L|264:332,1,70
220,256,78990,2,0,L|292:248,1,70,8|0,0:2|0:0,0:0:0:0:
316,168,79410,5,0,0:0:0:0:
376,228,79619,1,2,0:2:0:0:
400,148,79829,1,0,0:0:0:0:
424,68,80039,1,2,0:2:0:0:
483,130,80249,2,0,B|462:191|462:191|401:149|401:149|339:107|339:107|315:171,1,280,0|4,0:0|0:2,0:0:0:0:
176,48,81508,5,2,0:0:0:0:
12,76,81927,1,0,0:0:0:0:
44,240,82347,1,2,0:0:0:0:
176,48,82766,1,0,0:0:0:0:
208,212,83186,1,2,0:0:0:0:
108,144,83605,5,0,0:0:0:0:
304,80,84025,1,2,0:0:0:0:
376,272,84445,1,0,0:0:0:0:
308,172,84864,5,2,0:0:0:0:
472,200,85283,1,0,0:0:0:0:
440,364,85703,1,2,0:0:0:0:
276,336,86123,1,0,0:0:0:0:
276,336,86333,6,0,P|208:324|148:356,1,140,0|2,0:0|0:2,0:0:0:0:
72,316,86962,1,2,0:0:0:0:
92,232,87172,2,0,P|52:168|64:100,1,140,0|2,0:0|0:2,0:0:0:0:
120,44,87801,1,4,0:0:0:0:
260,220,88221,5,2,0:0:0:0:
428,196,88640,1,0,0:0:0:0:
396,32,89060,1,2,0:0:0:0:
228,56,89480,1,0,0:0:0:0:
228,56,89689,6,0,P|296:56|344:104,1,140,0|2,0:0|0:2,0:0:0:0:
340,188,90319,1,2,0:0:0:0:
260,220,90529,2,0,P|228:276|240:348,1,140,0|2,0:0|0:2,0:0:0:0:
320,376,91158,1,4,0:0:0:0:
120,320,91577,6,0,P|84:324|52:340,2,70,2|0|0,0:0|0:0|0:0,0:0:0:0:
152,240,92207,1,0,0:0:0:0:
76,204,92417,1,2,0:0:0:0:
76,204,92626,5,2,0:2:0:0:
60,36,93046,1,2,0:2:0:0:
228,20,93466,1,2,0:2:0:0:
244,188,93885,2,0,P|288:236|360:244,1,140,2|2,0:2|0:2,0:0:0:0:
440,220,94515,1,4,0:2:0:0:
332,92,94934,6,0,L|252:96,1,70,8|0,0:2|0:0,0:0:0:0:
180,84,95354,2,0,P|184:120|176:156,1,70,2|0,0:0|0:0,0:0:0:0:
96,240,95773,2,0,P|92:204|100:168,1,70,8|0,0:2|0:0,0:0:0:0:
96,88,96193,5,2,0:0:0:0:
96,88,96403,2,0,L|8:96,2,70,0|8|0,0:0|0:2|0:0,0:0:0:0:
180,84,97032,1,2,0:0:0:0:
252,40,97242,2,0,P|320:28|380:60,1,140
380,60,97871,6,0,L|372:140,1,70,2|0,0:0|0:0,0:0:0:0:
436,188,98291,2,0,L|520:176,1,70,8|0,0:2|0:0,0:0:0:0:
456,272,98710,2,0,L|372:284,1,70,2|0,0:0|0:0,0:0:0:0:
308,248,99130,1,8,0:2:0:0:
252,312,99340,2,0,P|248:344|256:384,1,70,2|2,0:0|0:0,0:0:0:0:
168,316,99759,2,0,P|172:284|164:244,1,70,0|8,0:0|0:2,0:0:0:0:
88,280,100179,5,0,0:0:0:0:
165,247,100389,1,2,0:0:0:0:
96,196,100598,2,0,P|152:160|220:180,1,140,2|0,0:0|0:0,0:0:0:0:
218,178,101228,1,4,0:0:0:0:
368,100,101647,6,0,L|452:104,2,70,8|0|2,0:2|0:0|0:0,0:0:0:0:
368,100,102277,1,0,0:0:0:0:
292,64,102487,1,8,0:2:0:0:
216,24,102696,6,0,P|208:56|220:104,1,70,0|2,0:0|0:0,0:0:0:0:
136,120,103116,2,0,L|60:124,1,70,0|8,0:0|0:2,0:0:0:0:
28,200,103535,2,0,P|32:240|24:272,1,70,0|2,0:0|0:0,0:0:0:0:
56,348,103955,6,0,P|116:320|192:336,1,140,2|0,0:0|0:0,0:0:0:0:
260,372,104584,1,4,0:0:0:0:
416,308,105004,5,8,0:2:0:0:
416,308,105214,2,0,P|384:320|348:320,2,70,0|2|0,0:0|0:0|0:0,0:0:0:0:
460,236,105843,2,0,L|456:160,1,70,8|0,0:2|0:0,0:0:0:0:
384,120,106263,1,2,0:0:0:0:
360,40,106473,2,0,P|288:28|228:56,1,140,2|0,0:0|0:0,0:0:0:0:
144,48,107102,5,0,0:0:0:0:
128,132,107312,1,0,0:0:0:0:
212,140,107522,1,0,0:0:0:0:
228,156,107627,1,2,0:2:0:0:
240,176,107732,1,0,0:0:0:0:
244,196,107837,1,2,0:2:0:0:
240,216,107941,1,8,0:0:0:0:
248,180,114654,5,8,2:1:0:0:
248,180,114864,1,0,0:0:0:0:
292,288,115074,2,0,L|340:284,3,35,2|0|2|0,0:0|0:0|0:0|0:0,0:0:0:0:
364,268,115494,2,0,P|396:280|432:280,1,70,2|0,0:0|0:0,0:0:0:0:
420,176,115913,2,0,P|440:144|448:108,1,70,2|0,0:0|0:0,0:0:0:0:
264,112,116333,5,2,0:0:0:0:
264,112,116542,1,2,0:0:0:0:
320,176,116752,1,2,0:0:0:0:
320,176,116857,1,2,0:3:0:0:
320,176,116962,1,2,0:3:0:0:
276,248,117172,1,2,0:0:0:0:
276,248,117382,1,2,0:0:0:0:
196,228,117591,1,2,0:0:0:0:
196,228,117696,1,2,0:3:0:0:
196,228,117801,1,2,0:3:0:0:
188,144,118011,5,2,0:0:0:0:
188,144,118221,2,0,L|180:56,2,70,0|2|2,0:0|0:0|0:0,0:0:0:0:
348,245,119060,5,2,0:0:0:0:
130,191,119480,1,2,0:0:0:0:
339,105,119899,1,2,0:0:0:0:
220,298,120319,1,2,0:0:0:0:
202,74,120738,1,2,0:0:0:0:
202,74,120948,1,8,0:3:0:0:
360,176,121368,6,0,L|280:184,1,70,4|0,0:0|0:0,0:0:0:0:
212,156,121787,2,0,P|176:152|144:132,1,70,2|0,0:0|0:0,0:0:0:0:
120,56,122207,1,0,0:0:0:0:
120,56,122417,1,0,0:0:0:0:
64,124,122626,2,0,P|60:176|80:224,1,105,2|0,0:0|0:0,0:0:0:0:
108,256,123046,6,0,L|24:272,1,70
88,340,123466,2,0,L|172:324,1,70,2|0,0:0|0:0,0:0:0:0:
240,304,123885,2,0,P|244:340|236:372,1,70
312,256,124305,2,0,P|308:220|316:188,1,70,8|0,0:2|0:0,0:0:0:0:
392,228,124724,5,2,0:0:0:0:
456,172,124934,1,0,0:0:0:0:
432,92,125144,2,0,L|352:96,1,70,2|0,0:0|0:0,0:0:0:0:
300,36,125563,2,0,L|220:32,2,70,0|0|2,0:0|0:0|0:0,0:0:0:0:
362,95,126193,1,0,0:0:0:0:
280,120,126403,6,0,P|272:152|276:192,1,70
216,248,126822,2,0,P|224:284|220:320,1,70,2|0,0:0|0:0,0:0:0:0:
140,204,127242,1,0,0:0:0:0:
140,204,127452,2,0,L|64:208,2,70,0|8|0,0:0|0:2|0:0,0:0:0:0:
68,56,128081,6,0,L|144:60,1,70
216,92,128501,2,0,P|212:124|216:164,1,70,2|0,0:0|0:0,0:0:0:0:
296,88,128920,2,0,P|300:56|296:16,1,70,0|0,0:0|0:0,0:0:0:0:
448,104,129340,2,0,L|372:108,1,70,2|0,0:0|0:0,0:0:0:0:
388,192,129759,5,0,0:0:0:0:
312,224,129969,1,0,0:0:0:0:
388,192,130179,2,0,P|384:264|332:304,1,140,2|0,0:0|0:0,0:0:0:0:
252,284,130808,1,0,0:0:0:0:
172,256,131018,2,0,P|120:248|72:272,1,105,8|0,0:2|0:0,0:0:0:0:
32,256,131438,6,0,L|40:336,1,70
24,172,131857,2,0,L|16:92,1,70,2|0,0:0|0:0,0:0:0:0:
80,44,132277,1,2,0:0:0:0:
80,44,132487,1,0,0:0:0:0:
156,76,132696,1,2,0:0:0:0:
156,76,132906,1,0,0:0:0:0:
144,160,133116,6,0,P|140:196|144:232,1,70,4|0,0:0|0:0,0:0:0:0:
200,292,133535,1,2,0:0:0:0:
200,292,133745,2,0,L|280:296,1,70
328,232,134165,1,0,0:0:0:0:
408,260,134375,2,0,P|436:212|432:160,1,105,2|0,0:3|0:0,0:0:0:0:
404,132,134794,6,0,L|324:136,1,70,4|0,0:2|0:0,0:0:0:0:
332,52,135214,2,0,L|252:56,1,70,8|0,0:2|0:0,0:0:0:0:
324,148,135633,2,0,L|244:152,1,70
252,68,136053,2,0,L|172:72,1,70,8|0,0:2|0:0,0:0:0:0:
104,100,136473,5,2,0:0:0:0:
104,100,136682,1,0,0:0:0:0:
104,100,136892,2,0,P|108:136|104:176,1,70,8|0,0:2|0:0,0:0:0:0:
52,236,137312,2,0,P|156:220|193:249,1,140,0|8,0:0|0:2,0:0:0:0:
204,316,137941,1,0,0:0:0:0:
244,330,138046,1,0,0:0:0:0:
284,344,138151,6,0,L|366:348,1,70,2|0,0:0|0:0,0:0:0:0:
204,316,138570,2,0,L|129:320,2,70,8|0|0,0:2|0:0|0:0,0:0:0:0:
268,260,139200,1,0,0:0:0:0:
240,180,139410,2,0,P|232:144|236:112,1,70,8|0,0:2|0:0,0:0:0:0:
320,100,139829,6,0,B|372:104|372:104|404:88|404:88|456:92,1,140,2|8,0:0|0:2,0:0:0:0:
352,20,140459,1,0,0:0:0:0:
268,32,140668,2,0,P|200:32|156:84,1,140,2|8,0:0|0:2,0:0:0:0:
72,92,141298,1,0,0:0:0:0:
52,172,141508,6,0,P|53:210|56:260,1,70,2|0,0:0|0:0,0:0:0:0:
136,184,141927,2,0,P|138:223|139:269,1,70,8|0,0:2|0:0,0:0:0:0:
216,168,142347,2,0,P|218:203|220:240,1,70
300,184,142766,2,0,P|302:221|304:256,1,70,8|0,0:2|0:0,0:0:0:0:
364,316,143186,5,2,0:0:0:0:
432,268,143396,1,0,0:0:0:0:
496,216,143605,2,0,P|500:172|492:140,2,70,8|0|0,0:2|0:0|0:0,0:0:0:0:
416,184,144235,2,0,P|408:140|412:108,2,70,0|8|0,0:0|0:2|0:0,0:0:0:0:
432,268,144864,6,0,P|448:304|444:340,1,70,2|0,0:0|0:0,0:0:0:0:
364,316,145284,2,0,P|348:280|352:244,1,70,8|0,0:2|0:0,0:0:0:0:
332,168,145703,5,2,0:2:0:0:
256,204,145913,1,2,0:2:0:0:
184,160,146123,1,2,0:2:0:0:
196,76,146333,1,2,0:2:0:0:
276,52,146542,6,0,L|264:128,1,70,2|0,0:0|0:0,0:0:0:0:
265,121,146857,1,0,0:0:0:0:
265,121,146962,2,0,L|336:88,1,70,8|0,0:2|0:0,0:0:0:0:
184,160,147382,2,0,P|140:204|152:280,1,140,4|0,0:2|0:0,0:0:0:0:
160,292,147906,1,2,0:2:0:0:
176,304,148011,1,0,0:0:0:0:
196,312,148116,1,2,0:2:0:0:
216,316,148221,1,4,0:2:0:0:
256,192,158291,12,4,161647,0:3:0:0:
288,212,162487,6,0,L|280:136,2,70,8|0|0,0:0|0:0|0:0,0:0:0:0:
260,292,163116,1,0,0:0:0:0:
344,276,163326,2,0,P|416:272|476:312,1,140,8|2,0:3|0:0,0:0:0:0:
456,128,164165,6,0,L|464:52,2,70,8|0|0,0:0|0:0|0:0,0:0:0:0:
392,184,164794,1,2,0:0:0:0:
376,100,165004,2,0,P|320:60|248:60,1,140,8|2,0:3|0:0,0:0:0:0:
72,112,165843,6,0,L|140:128,1,70,8|0,0:0|0:0,0:0:0:0:
88,196,166263,2,0,L|156:212,1,70,2|0,0:0|0:0,0:0:0:0:
240,196,166682,2,0,P|196:236|184:312,1,140,8|2,0:3|0:0,0:0:0:0:
364,360,167522,6,0,L|272:372,1,70,8|0,0:0|0:0,0:0:0:0:
300,284,167941,2,0,L|392:272,1,70,2|0,0:0|0:0,0:0:0:0:
444,232,168361,2,0,P|464:164|440:96,1,140,8|0,0:1|1:0,0:0:0:0:
300,12,169200,6,0,L|216:16,1,70,8|0,0:0|0:0,0:0:0:0:
204,96,169619,1,2,0:0:0:0:
240,172,169829,1,2,0:0:0:0:
216,252,170039,2,0,P|144:272|88:240,1,140,8|2,0:3|0:0,0:0:0:0:
124,60,170878,5,8,0:0:0:0:
132,144,171088,1,0,1:0:0:0:
204,96,171298,1,0,1:0:0:0:
276,48,171508,2,0,P|312:40|348:48,1,70,0|2,0:0|0:1,0:0:0:0:
312,124,171927,1,0,0:0:0:0:
396,116,172137,2,0,L|384:188,2,70,0|0|8,1:0|0:0|0:0,0:0:0:0:
312,124,172766,5,2,0:0:0:0:
168,296,173186,1,2,0:0:0:0:
384,244,173605,1,2,0:0:0:0:
176,160,174025,1,2,0:0:0:0:
292,352,174445,1,2,0:0:0:0:
292,352,174654,1,2,1:2:0:0:
312,124,175074,6,0,L|236:132,1,70,4|0,0:2|0:0,0:0:0:0:
284,204,175494,2,0,L|208:212,1,70,2|0,0:0|0:0,0:0:0:0:
132,196,175913,1,2,0:0:0:0:
160,116,176123,1,0,0:0:0:0:
88,72,176333,2,0,P|80:136|104:176,1,105,8|0,0:2|0:0,0:0:0:0:
132,196,176752,6,0,L|120:284,1,70,2|0,0:0|0:0,0:0:0:0:
200,296,177172,2,0,L|188:384,1,70,2|0,0:0|0:0,0:0:0:0:
272,248,177591,1,2,0:0:0:0:
272,248,177801,2,0,P|312:244|352:256,2,70,0|8|0,0:0|0:2|0:0,0:0:0:0:
236,172,178431,6,0,L|248:84,1,70,2|0,0:0|0:0,0:0:0:0:
328,96,178850,2,0,L|404:88,1,70,2|0,0:0|0:0,0:0:0:0:
280,24,179270,2,0,P|243:17|205:28,2,70,2|0|8,0:0|0:0|0:2,0:0:0:0:
245,102,179899,1,0,0:0:0:0:
160,96,180109,6,0,P|84:83|28:120,1,140,4|2,0:0|0:0,0:0:0:0:
22,197,180738,1,0,0:0:0:0:
104,176,180948,2,0,B|120:224|96:248|72:272|88:320,1,140,2|8,0:0|0:2,0:0:0:0:
168,296,181577,1,0,0:0:0:0:
154,336,181682,1,0,0:0:0:0:
140,376,181787,6,0,P|176:380|216:368,1,70,2|0,0:0|0:0,0:0:0:0:
252,300,182207,2,0,P|248:264|220:232,1,70,2|0,0:0|0:0,0:0:0:0:
200,156,182626,2,0,P|196:120|208:84,1,70,2|0,0:0|0:0,0:0:0:0:
276,44,183046,2,0,P|308:48|340:72,1,70,8|0,0:2|0:0,0:0:0:0:
384,140,183466,6,0,L|424:204,1,70,2|0,0:0|0:0,0:0:0:0:
316,188,183885,1,2,0:0:0:0:
316,188,184095,2,0,L|276:124,2,70,0|2|0,0:0|0:0|0:0,0:0:0:0:
360,260,184724,2,0,P|308:272|256:248,1,105,8|0,0:2|0:0,0:0:0:0:
236,220,185144,6,0,L|160:224,1,70,2|0,0:0|0:0,0:0:0:0:
84,240,185563,2,0,P|48:176|56:112,1,140,2|2,0:0|0:0,0:0:0:0:
136,84,186193,1,0,0:0:0:0:
76,28,186403,1,8,0:2:0:0:
136,84,186612,1,0,0:0:0:0:
216,60,186822,6,0,L|288:64,1,70,2|0,0:0|0:0,0:0:0:0:
276,148,187242,2,0,B|324:152|324:152|356:124|356:124|416:128,1,140,2|2,0:0|0:0,0:0:0:0:
405,127,187871,1,0,0:0:0:0:
456,192,188081,2,0,P|460:228|448:268,1,70,2|0,0:0|0:0,0:0:0:0:
372,284,188501,6,0,L|384:356,1,70,4|0,0:2|0:0,0:0:0:0:
284,256,188920,2,0,L|296:328,1,70,8|0,0:2|0:0,0:0:0:0:
368,200,189340,2,0,L|380:272,1,70,2|0,0:0|0:0,0:0:0:0:
280,172,189759,2,0,L|292:244,1,70,8|0,0:2|0:0,0:0:0:0:
212,268,190179,5,2,0:0:0:0:
136,236,190389,1,0,0:0:0:0:
64,280,190598,2,0,P|56:308|64:352,1,70,8|0,0:2|0:0,0:0:0:0:
140,316,191018,2,0,P|140:244|76:196,1,140,2|8,0:0|0:2,0:0:0:0:
44,40,191857,6,0,L|48:120,1,70,2|0,0:0|0:0,0:0:0:0:
132,92,192277,2,0,L|128:12,1,70,8|0,0:2|0:0,0:0:0:0:
212,40,192696,2,0,L|216:120,1,70,2|0,0:0|0:0,0:0:0:0:
300,92,193116,2,0,L|296:12,1,70,8|0,0:2|0:0,0:0:0:0:
272,172,193535,5,2,0:0:0:0:
356,160,193745,2,0,P|396:164|424:176,1,70,0|8,0:0|0:2,0:0:0:0:
472,244,194165,2,0,L|476:324,2,70,0|2|0,0:0|0:0|0:0,0:0:0:0:
490,206,194689,1,0,0:0:0:0:
508,168,194794,2,0,L|504:88,1,70,8|0,0:2|0:0,0:0:0:0:
456,28,195214,5,2,0:0:0:0:
372,12,195424,1,0,0:0:0:0:
456,28,195633,2,0,P|424:68|424:120,1,105,8|0,0:2|0:0,0:0:0:0:
440,160,196053,2,0,L|520:176,1,70,2|0,0:0|0:0,0:0:0:0:
356,160,196473,2,0,P|344:128|344:80,1,70,8|0,0:2|0:0,0:0:0:0:
272,48,196892,5,2,0:0:0:0:
272,48,197102,1,0,0:0:0:0:
188,32,197312,1,8,0:2:0:0:
112,64,197522,1,0,0:0:0:0:
72,140,197731,2,0,L|0:156,1,70,2|0,0:0|0:0,0:0:0:0:
80,220,198151,2,0,L|152:204,1,70,8|0,0:2|0:0,0:0:0:0:
232,140,198570,6,0,P|228:176|232:212,1,70,2|0,0:0|0:0,0:0:0:0:
300,260,198990,2,0,P|364:256|392:192,1,140,8|2,0:2|0:0,0:0:0:0:
372,112,199619,1,2,0:2:0:0:
292,84,199829,1,8,0:2:0:0:
372,112,200039,1,2,0:2:0:0:
292,84,200249,2,0,P|256:88|212:80,1,70
148,40,200668,2,0,P|112:36|68:44,2,70,8|0|2,0:2|0:0|0:0,0:0:0:0:
156,48,201508,6,0,L|148:96,3,35,0|0|0|0,0:0|0:0|0:0|0:0,0:0:0:0:
160,124,201927,2,0,L|144:204,1,70,4|0,0:0|0:0,0:0:0:0:
128,276,202347,1,8,0:0:0:0:
216,108,202766,6,0,L|200:188,1,70,2|0,0:0|0:0,0:0:0:0:
184,260,203186,1,8,0:0:0:0:
272,92,203605,6,0,L|256:172,1,70,2|0,0:0|0:0,0:0:0:0:
240,244,204025,2,0,P|232:280|240:320,1,70,8|0,0:2|0:0,0:0:0:0:
237,312,204340,1,0,0:0:0:0:
237,312,204445,1,2,0:0:0:0:
320,220,204654,2,0,P|356:228|396:224,1,70,0|8,0:0|0:0,0:0:0:0:
400,220,205284,6,0,P|448:272|432:336,1,140,4|8,0:0|0:2,0:0:0:0:
352,344,205913,1,0,0:0:0:0:
352,344,206018,1,0,0:0:0:0:
352,344,206123,2,0,B|300:332|300:332|264:340|264:340|212:328,1,140,2|8,0:0|0:0,0:0:0:0:
148,276,206752,1,0,0:0:0:0:
188,200,206962,6,0,P|216:220|252:228,1,70,2|0,0:0|0:0,0:0:0:0:
240,132,207382,2,0,P|272:116|292:88,1,70,8|0,0:2|0:0,0:0:0:0:
156,120,207801,2,0,P|92:108|64:40,2,140,0|8|4,0:0|0:0|0:0,0:0:0:0:
208,52,208850,1,0,0:0:0:0:
240,132,209060,6,0,L|232:208,1,70,8|0,0:2|0:0,0:0:0:0:
284,332,209480,1,2,0:0:0:0:
284,332,209689,2,0,L|292:256,1,70,0|8,0:0|0:2,0:0:0:0:
232,201,210109,1,0,0:0:0:0:
312,180,210319,6,0,P|376:168|440:208,2,140,2|8|2,0:0|0:0|0:0,0:0:0:0:
291,262,211368,1,0,0:0:0:0:
212,288,211577,2,0,P|176:300|144:300,1,70,8|0,0:2|0:0,0:0:0:0:
52,212,211997,6,0,L|56:132,1,70,2|2,0:0|0:2,0:0:0:0:
144,180,212417,2,0,L|148:104,1,70,8|2,0:2|0:2,0:0:0:0:
232,208,212836,2,0,L|236:128,1,70,2|2,0:0|0:2,0:0:0:0:
324,176,213256,2,0,L|328:100,1,70,8|2,0:2|0:2,0:0:0:0:
435,215,213675,6,0,L|467:203,2,35,2|0|0,0:0|0:0|0:0,0:0:0:0:
379,279,214095,2,0,L|372:320,2,35,2|0|0,0:0|0:0|0:0,0:0:0:0:
350,198,214515,6,0,L|317:171,8,35,0|0|0|0|0|0|0|0|4,0:2|0:2|0:2|0:2|0:2|0:2|0:2|0:2|0:2,0:2:0:0:
