osu file format v14

[General]
AudioFilename: 05.mp3
AudioLeadIn: 1500
PreviewTime: 54235
Countdown: 0
SampleSet: Soft
StackLeniency: 0.7
Mode: 0
LetterboxInBreaks: 0
WidescreenStoryboard: 0

[Editor]
Bookmarks: 107941,114654,215354
DistanceSpacing: 1
BeatDivisor: 2
GridSize: 4
TimelineZoom: 1.1

[Metadata]
Title:Yukitoke Realism
TitleUnicode:雪解けリアリズム
Artist:senya
ArtistUnicode:senya
Creator:wring
Version:Easy
Source:東方Project
Tags:thawing yuuhei satellite zun kirisame marisa oriental dark flight
BeatmapID:579753
BeatmapSetID:252385

[Difficulty]
HPDrainRate:3
CircleSize:3
OverallDifficulty:3
ApproachRate:4
SliderMultiplier:1
SliderTickRate:1

[Events]
//Background and Video events
0,0,"ay.jpg",0,0
//Break Periods
2,108141,113334
2,114854,120048
2,148421,161167
//Storyboard Layer 0 (Background)
//Storyboard Layer 1 (Fail)
//Storyboard Layer 2 (Pass)
//Storyboard Layer 3 (Foreground)
//Storyboard Sound Samples

[TimingPoints]
529,419.58041958042,4,2,1,40,1,0
13955,-100,4,2,2,40,0,0
14375,-100,4,2,1,50,0,0
27382,-100,4,2,2,50,0,0
27801,-100,4,2,1,50,0,0
40808,-100,4,2,2,50,0,0
42067,-100,4,2,1,50,0,0
47522,-100,4,2,2,50,0,0
47941,-100,4,2,1,50,0,0
50878,-100,4,2,1,60,0,0
53815,-100,4,2,1,25,0,0
54235,-100,4,1,2,70,0,1
81088,-100,4,1,2,50,0,0
97452,-100,4,2,3,40,0,0
97661,-100,4,1,2,50,0,0
105004,-100,4,2,3,40,0,0
105214,-100,4,1,2,50,0,0
106682,-100,4,2,3,40,0,0
106892,-100,4,1,2,50,0,0
114654,-100,4,2,2,60,0,0
121368,-100,4,1,2,70,0,1
148221,-100,4,1,1,70,0,0
162487,-100,4,2,1,60,0,0
173396,-100,4,2,1,50,0,0
175074,-100,4,1,2,70,0,1
201927,-100,4,1,1,70,0,0
202766,-100,4,1,2,70,0,0
215354,-100,4,1,2,30,0,0

[Colours]
Combo1 : 153,169,244
Combo2 : 154,240,250
Combo3 : 253,172,208
Combo4 : 251,242,166

[HitObjects]
180,280,529,6,0,P|132:276|84:300,2,100,4|0|0,0:3|0:0|0:0,0:0:0:0:
276,308,1787,1,2,0:0:0:0:
356,248,2207,2,0,L|464:252,1,100,0|0,0:0|0:0,0:0:0:0:
496,160,3046,2,0,P|504:112|488:60,1,100,0|2,0:0|0:0,0:0:0:0:
392,72,3885,6,0,P|348:48|296:52,1,100
224,116,4724,2,0,P|172:120|128:96,1,100,0|2,0:0|0:0,0:0:0:0:
40,56,5563,2,0,L|44:172,1,100,2|0,0:0|0:0,0:0:0:0:
108,232,6403,1,0,0:0:0:0:
84,328,6822,1,2,0:0:0:0:
180,360,7242,6,0,P|232:368|288:352,1,100,2|0,0:0|0:0,0:0:0:0:
344,280,8081,2,0,L|348:180,1,100,0|2,0:0|0:0,0:0:0:0:
256,136,8920,1,2,0:0:0:0:
164,180,9340,2,0,L|168:280,1,100
256,328,10179,1,2,0:0:0:0:
344,280,10598,6,0,L|408:284,2,50,0|2|2,0:0|0:0|0:0,0:0:0:0:
276,204,11438,2,0,P|224:200|176:216,1,100,0|2,0:0|0:0,0:0:0:0:
92,268,12277,2,0,L|84:372,2,100,0|2|0,0:0|0:0|0:0,0:0:0:0:
44,180,13535,2,0,P|32:128|40:80,1,100,2|4,0:0|0:0,0:0:0:0:
116,20,14375,6,0,L|216:36,1,100,0|0,1:0|1:0,0:0:0:0:
272,120,15214,1,2,0:0:0:0:
372,116,15633,2,0,P|404:76|408:12,2,100,0|0|0,0:0|0:0|1:0,0:0:0:0:
324,204,16892,2,0,P|348:248|392:272,1,100,2|0,0:0|1:0,0:0:0:0:
488,248,17731,6,0,L|476:364,1,100,0|0,0:0|1:0,0:0:0:0:
384,376,18570,1,2,0:0:0:0:
300,324,18990,1,0,1:0:0:0:
204,352,19410,2,0,P|160:378|112:382,2,100,0|0|2,0:0|1:0|0:0,0:0:0:0:
224,256,20669,1,0,1:0:0:0:
146,193,21088,6,0,P|125:238|128:288,1,100,0|0,0:0|1:0,0:0:0:0:
224,256,21927,1,2,0:0:0:0:
320,232,22347,2,0,L|424:248,1,100,0|0,0:0|1:0,0:0:0:0:
500,188,23186,2,0,P|460:96|368:68,1,200,0|0,1:0|1:0,0:0:0:0:
296,132,24445,5,0,0:0:0:0:
200,152,24864,2,0,P|152:156|104:136,1,100,0|2,1:0|0:0,0:0:0:0:
69,42,25703,1,0,0:0:0:0:
167,57,26123,1,2,0:0:0:0:
104,136,26542,2,0,P|48:216|72:312,1,200,0|4,1:0|0:0,0:0:0:0:
172,308,27801,6,0,L|200:184,1,100,2|0,0:0|1:0,0:0:0:0:
288,176,28640,2,0,L|312:68,1,100,2|0,0:0|0:0,0:0:0:0:
396,28,29480,1,0,0:0:0:0:
472,92,29899,1,0,1:0:0:0:
432,184,30319,1,2,0:0:0:0:
496,260,30738,6,0,P|456:348|356:368,1,200,0|0,0:0|1:0,0:0:0:0:
296,292,31997,1,2,0:0:0:0:
324,196,32417,2,0,P|368:180|424:180,1,100,0|0,1:0|0:0,0:0:0:0:
392,276,33256,2,0,P|348:292|292:292,1,100,0|2,1:0|0:0,0:0:0:0:
200,260,34095,6,0,L|212:364,2,100,0|0|0,1:0|1:0|1:0,0:0:0:0:
136,184,35354,1,2,0:0:0:0:
220,132,35773,2,0,P|268:116|324:128,1,100,0|0,1:0|0:0,0:0:0:0:
380,204,36612,2,0,P|476:172|500:80,1,200,0|0,1:0|1:0,0:0:0:0:
424,20,37871,6,0,P|376:16|312:32,1,100,2|0,0:0|1:0,0:0:0:0:
244,84,38710,1,2,0:0:0:0:
280,176,39130,2,0,P|284:228|268:272,1,100,0|0,1:0|0:0,0:0:0:0:
208,352,39969,2,0,L|320:364,1,100,0|2,1:0|0:0,0:0:0:0:
368,284,40808,6,0,P|252:212|112:296,1,300,4|0,0:0|0:0,0:0:0:0:
32,328,42487,2,0,B|-12:232|92:220|52:128,1,200,2|0,0:0|0:0,0:0:0:0:
24,44,43745,1,0,0:0:0:0:
124,56,44165,6,0,B|232:96|308:16|420:72,1,300,2|0,0:0|0:0,0:0:0:0:
352,148,45843,2,0,P|312:236|336:340,1,200,2|0,0:0|0:0,0:0:0:0:
428,360,47102,1,0,0:0:0:0:
332,336,47522,6,0,L|200:344,1,100,4|0,0:0|0:0,0:0:0:0:
160,272,48361,2,0,L|28:280,1,100
60,176,49200,2,0,L|159:182,1,100,2|0,0:0|0:0,0:0:0:0:
232,112,50039,2,0,L|331:118,1,100,2|0,0:0|0:0,0:0:0:0:
432,124,50878,5,2,0:0:0:0:
500,200,51298,1,0,0:0:0:0:
468,296,51717,1,2,0:0:0:0:
368,312,52137,1,0,0:0:0:0:
300,240,52556,1,2,0:0:0:0:
328,144,52976,2,0,L|408:228,2,100,0|2|8,0:0|0:0|0:3,0:0:0:0:
244,92,54235,6,0,P|196:84|140:100,1,100,4|2,0:0|0:0,0:0:0:0:
72,164,55074,2,0,P|56:256|120:340,1,200,2|0,0:0|0:2,0:0:0:0:
196,276,56333,2,0,P|244:264|296:276,1,100,2|0,0:0|0:0,0:0:0:0:
368,336,57172,1,8,0:2:0:0:
448,276,57591,6,0,P|452:220|472:180,1,100,0|2,0:0|0:0,0:0:0:0:
484,80,58431,2,0,L|512:28,2,50,0|2|2,0:0|0:0|0:0,0:0:0:0:
396,124,59270,2,0,P|292:116|228:184,1,200,0|2,0:0|0:0,0:0:0:0:
284,264,60529,1,8,0:2:0:0:
208,328,60948,6,0,P|160:344|104:336,1,100,0|2,0:0|0:0,0:0:0:0:
148,248,61787,2,0,P|96:236|64:200,1,100,0|2,0:0|0:0,0:0:0:0:
148,148,62626,2,0,P|152:56|244:20,1,200,0|2,0:0|0:0,0:0:0:0:
284,112,63885,1,8,0:2:0:0:
376,148,64305,6,0,L|484:136,1,100,0|2,0:0|0:0,0:0:0:0:
444,40,65144,1,0,0:0:0:0:
344,28,65563,1,2,0:0:0:0:
284,112,65983,2,0,P|264:196|328:288,1,200,0|4,0:0|0:0,0:0:0:0:
323,285,67661,6,0,L|424:292,1,100,4|8,0:2|0:0,0:0:0:0:
468,200,68501,2,0,L|367:193,1,100,0|8,0:0|0:0,0:0:0:0:
268,200,69340,2,0,P|192:272|92:268,1,200,0|8,0:0|0:0,0:0:0:0:
64,180,70598,1,8,0:2:0:0:
4,260,71018,6,0,L|16:368,1,100,0|8,0:0|0:0,0:0:0:0:
116,372,71857,2,0,L|104:264,1,100,0|8,0:0|0:0,0:0:0:0:
64,180,72696,2,0,P|48:80|112:12,1,200,0|8,0:0|0:0,0:0:0:0:
208,32,73955,1,8,0:2:0:0:
176,128,74375,6,0,P|160:172|168:228,1,100,0|8,0:0|0:0,0:0:0:0:
260,184,75214,2,0,P|272:236|308:268,1,100,0|8,0:0|0:0,0:0:0:0:
364,184,76053,2,0,P|408:208|460:208,1,100,0|8,0:0|0:0,0:0:0:0:
432,112,76892,2,0,P|484:100|516:68,1,100,0|8,0:0|0:2,0:0:0:0:
432,12,77731,6,0,P|380:24|348:56,2,100,0|8|0,0:0|0:0|0:0,0:0:0:0:
432,112,78990,1,8,0:0:0:0:
512,176,79410,2,0,B|480:216|424:216|424:216|400:264|424:324,1,200,0|2,0:0|0:0,0:0:0:0:
224,284,81088,5,4,0:0:0:0:
196,188,81508,1,8,0:0:0:0:
292,212,81927,1,0,0:0:0:0:
360,140,82347,1,8,0:0:0:0:
388,236,82766,2,0,P|460:160|432:68,1,200,0|8,0:0|0:0,0:0:0:0:
344,44,84025,2,0,B|268:36|268:36|224:68|224:68|136:56,1,200,2|8,0:0|0:0,0:0:0:0:
56,48,85284,1,0,0:0:0:0:
4,132,85703,1,8,0:0:0:0:
60,216,86123,6,0,P|144:172|244:192,1,200,0|8,0:0|0:0,0:0:0:0:
280,284,87382,2,0,P|376:304|463:259,1,200,2|8,0:0|0:0,0:0:0:0:
496,164,88640,1,0,0:0:0:0:
412,108,89060,1,8,0:0:0:0:
332,168,89480,6,0,P|236:192|144:156,1,200,0|8,0:0|0:0,0:0:0:0:
54,199,90738,2,0,B|45:146|35:101|35:101|68:66|101:26,1,200,2|8,0:0|0:0,0:0:0:0:
200,12,91997,2,0,L|304:24,1,100,0|8,0:0|0:0,0:0:0:0:
368,96,92836,2,0,P|324:116|292:160,1,100,0|8,0:0|0:0,0:0:0:0:
272,256,93675,2,0,L|280:368,1,100,0|8,0:0|0:0,0:0:0:0:
184,324,94515,5,4,0:2:0:0:
172,224,94934,1,8,0:2:0:0:
248,160,95354,2,0,P|296:176|344:172,1,100,0|8,0:0|0:2,0:0:0:0:
404,92,96193,2,0,P|356:76|308:80,1,100,0|8,0:0|0:2,0:0:0:0:
208,68,97032,2,0,P|108:48|32:100,1,200,0|8,0:0|0:0,0:0:0:0:
88,184,98291,5,8,0:2:0:0:
184,160,98710,1,0,0:0:0:0:
251,233,99130,2,0,P|205:257|155:254,2,100,8|0|8,0:2|0:0|0:2,0:0:0:0:
348,212,100389,2,0,P|396:192|452:200,2,100,0|8|0,0:0|0:2|0:0,0:0:0:0:
280,136,101647,6,0,P|264:88|272:40,1,100,8|0,0:2|0:0,0:0:0:0:
368,12,102487,1,8,0:2:0:0:
436,84,102906,2,0,L|424:192,1,100,8|8,0:0|0:2,0:0:0:0:
496,252,103745,2,0,L|484:360,1,100,0|8,0:0|0:2,0:0:0:0:
396,304,104584,6,0,P|296:288|212:336,1,200,8|0,0:0|0:0,0:0:0:0:
116,316,105843,1,8,0:2:0:0:
180,240,106263,2,0,B|160:176|160:176|184:116|184:116|164:48,1,200
64,36,107522,1,8,0:2:0:0:
20,124,107941,1,4,0:0:0:0:
256,192,114654,5,8,2:1:0:0:
480,80,121368,6,0,L|352:96,1,100,4|2,0:0|0:0,0:0:0:0:
284,72,122207,2,0,P|276:116|288:180,1,100,0|2,0:0|0:0,0:0:0:0:
348,248,123046,2,0,P|256:228|168:280,1,200,0|2,0:0|0:0,0:0:0:0:
140,376,124305,1,8,0:2:0:0:
48,336,124724,6,0,L|52:236,1,100,0|2,0:0|0:0,0:0:0:0:
88,144,125563,2,0,P|88:96|60:48,2,100,0|2|0,0:0|0:0|0:0,0:0:0:0:
180,100,126822,2,0,P|224:80|276:84,1,100,0|2,0:2|0:0,0:0:0:0:
364,128,127661,1,8,0:2:0:0:
344,228,128081,6,0,L|244:216,1,100,0|2,0:0|0:0,0:0:0:0:
172,288,128920,2,0,P|204:320|220:376,1,100,0|2,0:0|0:0,0:0:0:0:
316,340,129759,2,0,P|416:352|492:296,1,200,0|2,0:0|0:0,0:0:0:0:
472,196,131018,1,8,0:2:0:0:
448,100,131438,6,0,L|340:104,1,100,0|2,0:0|0:0,0:0:0:0:
264,48,132277,2,0,L|156:44,1,100,0|2,0:0|0:0,0:0:0:0:
64,52,133116,1,0,0:0:0:0:
76,152,133535,1,2,0:0:0:0:
176,152,133955,2,0,P|180:208|168:264,1,100,0|0,0:0|2:0,0:0:0:0:
104,324,134794,6,0,L|4:332,2,100,4|8|0,0:2|0:0|0:0,0:0:0:0:
200,348,136053,2,0,L|300:356,2,100,8|0|8,0:0|0:0|0:0,0:0:0:0:
172,252,137312,2,0,P|164:204|176:152,1,100,0|8,0:0|0:2,0:0:0:0:
232,72,138151,2,0,B|300:68|300:68|360:92|360:92|432:88,1,200,8|0,0:0|0:0,0:0:0:0:
496,160,139410,1,8,0:0:0:0:
460,252,139829,6,0,P|416:268|360:260,1,100,0|8,0:0|0:0,0:0:0:0:
304,181,140668,2,0,P|252:173|200:193,1,100,0|8,0:0|0:2,0:0:0:0:
120,240,141508,2,0,L|128:348,1,100,0|8,0:0|0:0,0:0:0:0:
28,320,142347,2,0,L|20:212,1,100,0|8,0:0|0:0,0:0:0:0:
84,140,143186,2,0,P|128:160|180:156,2,100,0|8|0,0:0|0:0|0:0,0:0:0:0:
48,44,144445,1,8,0:2:0:0:
148,60,144864,6,0,B|208:76|208:76|284:60|284:60|348:76,1,200,4|0,0:0|0:0,0:0:0:0:
416,144,146123,1,8,0:0:0:0:
320,172,146542,2,0,L|320:288,1,100,0|8,0:0|0:0,0:0:0:0:
235,326,147382,2,0,P|195:304|140:308,1,100,0|8,0:0|0:0,0:0:0:0:
70,377,148221,1,4,0:0:0:0:
76,92,162487,6,0,P|160:44|260:60,1,200,8|0,1:2|0:0,0:0:0:0:
336,124,163745,1,2,0:0:0:0:
380,216,164165,2,0,P|296:164|192:188,1,200,8|0,1:2|0:0,0:0:0:0:
132,256,165424,1,2,0:0:0:0:
88,344,165843,6,0,P|96:240|48:156,1,200,8|0,1:2|0:0,0:0:0:0:
64,60,167102,1,2,0:0:0:0:
156,100,167522,2,0,B|212:116|212:116|352:80|352:80,1,200,8|4,0:0|0:3,0:0:0:0:
436,28,168780,1,2,0:0:0:0:
484,116,169200,6,0,P|496:168|492:216,1,100,8|2,1:2|0:0,0:0:0:0:
400,176,170039,2,0,P|392:228|368:276,1,100,0|2,0:0|0:0,0:0:0:0:
280,312,170878,2,0,L|160:316,1,100,8|2,0:0|0:0,0:0:0:0:
144,220,171717,6,0,L|264:216,1,100,0|2,3:0|3:2,0:0:0:0:
204,124,172556,2,0,P|200:68|220:24,1,100,8|2,0:0|0:0,0:0:0:0:
300,88,173396,1,0,1:0:0:0:
392,48,173815,1,0,0:0:0:0:
456,128,174235,1,8,1:2:0:0:
400,212,174654,1,2,0:0:0:0:
304,184,175074,6,4,P|252:192|196:188,1,100,0|2,0:0|0:0,0:0:0:0:
144,108,175913,2,0,P|72:168|80:272,1,200,2|0,0:0|0:0,0:0:0:0:
140,344,177172,2,0,L|244:336,1,100,2|0,0:0|0:0,0:0:0:0:
324,280,178011,1,8,0:2:0:0:
296,184,178431,6,0,L|192:192,1,100,0|2,0:0|0:0,0:0:0:0:
152,100,179270,2,0,P|220:48|328:84,1,200,2|0,0:0|0:0,0:0:0:0:
404,136,180529,2,0,L|388:240,1,100,2|0,0:0|0:0,0:0:0:0:
396,336,181368,1,8,0:2:0:0:
304,292,181787,6,0,P|256:288|204:304,1,100,0|2,0:0|0:0,0:0:0:0:
108,324,182626,2,0,P|64:296|44:252,1,100,0|2,0:0|0:0,0:0:0:0:
52,152,183466,2,0,P|152:136|204:56,1,200
292,100,184724,1,8,0:2:0:0:
248,192,185144,6,0,L|256:296,1,100,0|2,0:0|0:0,0:0:0:0:
332,356,185983,2,0,P|384:360|428:344,1,100,0|2,0:0|0:0,0:0:0:0:
468,252,186822,2,0,P|416:248|372:212,2,100,0|2|4,0:0|0:0|0:0,0:0:0:0:
424,56,188501,6,0,P|384:28|332:24,1,100,4|8,0:0|0:0,0:0:0:0:
252,84,189340,2,0,P|268:176|192:244,1,200,8|0,0:0|0:0,0:0:0:0:
104,204,190598,1,8,0:0:0:0:
24,144,191018,2,0,P|20:84|40:40,1,100,0|8,0:0|0:2,0:0:0:0:
116,108,191857,6,0,P|120:168|100:212,1,100,0|8,0:0|0:0,0:0:0:0:
36,276,192696,2,0,P|140:272|220:336,1,200,8|0,0:0|0:0,0:0:0:0:
292,264,193955,1,8,0:0:0:0:
376,316,194375,1,0,0:0:0:0:
468,276,194794,1,8,0:2:0:0:
436,180,195214,6,0,L|328:172,1,100,0|8,0:0|0:0,0:0:0:0:
268,100,196053,2,0,P|212:76|140:92,1,100,0|8,0:0|0:0,0:0:0:0:
96,144,196892,2,0,P|44:148|4:176,2,100,0|8|0,0:0|0:0|0:0,0:0:0:0:
80,244,198151,1,8,0:2:0:0:
176,212,198570,6,0,L|172:320,1,100,0|8,0:0|0:0,0:0:0:0:
256,368,199410,1,0,0:0:0:0:
339,311,199829,2,0,L|336:212,1,100,8|0,0:0|0:0,0:0:0:0:
256,148,200668,1,8,0:0:0:0:
220,56,201088,2,0,P|176:36|108:52,1,100,0|8,0:0|0:2,0:0:0:0:
160,136,201927,6,0,P|256:164|352:136,1,200,4|8,0:0|0:0,0:0:0:0:
436,88,203186,1,8,0:2:0:0:
347,42,203605,2,0,P|335:86|351:142,1,100,0|8,0:0|0:0,0:0:0:0:
408,220,204445,2,0,P|312:196|240:280,1,200,8|2,0:0|0:0,0:0:0:0:
340,292,205703,5,8,0:0:0:0:
264,360,206123,2,0,L|152:352,1,100,0|8,0:0|0:2,0:0:0:0:
76,304,206962,1,0,0:0:0:0:
124,216,207382,2,0,L|236:208,1,100,8|0,0:2|0:0,0:0:0:0:
196,112,208221,5,8,0:2:0:0:
288,68,208640,2,0,P|392:72|456:144,1,200,4|8,0:0|0:0,0:0:0:0:
484,236,209899,1,8,0:2:0:0:
392,280,210319,2,0,P|288:276|224:204,1,200,0|8,0:0|0:0,0:0:0:0:
196,112,211577,6,0,P|192:60|212:16,2,100,8|0|8,0:2|0:0|0:2,0:0:0:0:
128,188,212836,2,0,P|84:217|36:222,2,100,0|8|2,0:0|0:2|0:0,0:0:0:0:
228,208,214095,2,0,P|275:230|303:269,2,100,8|0|8,0:2|0:0|0:2,0:0:0:0:
208,308,215354,5,2,3:0:0:0:
