osu file format v13

[General]
AudioFilename: Yozakura ni Kimi wo Kakushite.mp3
AudioLeadIn: 0
PreviewTime: 55256
Countdown: 0
SampleSet: Normal
StackLeniency: 0.7
Mode: 1
LetterboxInBreaks: 0
WidescreenStoryboard: 0

[Editor]
DistanceSpacing: 1.2
BeatDivisor: 4
GridSize: 32
TimelineZoom: 2.2

[Metadata]
Title:Yozakura ni Kimi o Kakushite
TitleUnicode:夜桜に君を隠して
Artist:senya
ArtistUnicode:senya
Creator:Dainesl
Version:Muzukashii
Source:Touhou
Tags:Cirno Memories of Phantasm Fantasy Kaleidoscope Yuuhei Satellite 幽閉サテライト ZUN Daiyousei Lunate Elf EoSD Embodiment of Scarlet Devil 東方プロジェクト Project かませ虎 Kamase Tora Iceon 音霊 Ontama
BeatmapID:477126
BeatmapSetID:201524

[Difficulty]
HPDrainRate:5.5
CircleSize:5
OverallDifficulty:5
ApproachRate:5
SliderMultiplier:1.4
SliderTickRate:1

[Events]
//Background and Video events
0,0,"baka daiyousei.jpg",0,80
//Break Periods
//Storyboard Layer 0 (Background)
//Storyboard Layer 1 (Fail)
//Storyboard Layer 2 (Pass)
//Storyboard Layer 3 (Foreground)
//Storyboard Sound Samples
//Background Colour Transformations
3,100,163,162,255

[TimingPoints]
2343,472.44094488189,4,1,0,45,1,0
9665,-100,4,1,0,65,0,0
17461,-100,4,1,0,50,0,0
21122,-100,4,1,0,40,0,0
35768,-100,4,1,0,65,0,0
54311,-100,4,1,0,70,0,0
54783,-100,4,1,0,75,0,0
55256,-100,4,1,0,80,0,1
85492,-100,4,1,0,50,0,0

[HitObjects]
256,192,2343,5,8,0:0:0:0:
256,192,2815,1,0,0:0:0:0:
256,192,3051,1,8,0:0:0:0:
256,192,3524,1,0,0:0:0:0:
256,192,3760,1,8,0:0:0:0:
256,192,4232,1,8,0:0:0:0:
256,192,4941,1,8,0:0:0:0:
256,192,5413,1,0,0:0:0:0:
256,192,5650,1,8,0:0:0:0:
256,192,6122,1,8,0:0:0:0:
256,192,6594,1,0,0:0:0:0:
256,192,6831,1,8,0:0:0:0:
256,192,7303,1,0,0:0:0:0:
256,192,7539,1,8,0:0:0:0:
256,192,8012,1,0,0:0:0:0:
256,192,8484,1,8,0:0:0:0:
256,192,8720,1,0,0:0:0:0:
256,192,8957,1,0,0:0:0:0:
256,192,9075,1,0,0:0:0:0:
256,192,9193,1,0,0:0:0:0:
256,192,9429,1,8,0:0:0:0:
256,192,9902,1,4,0:0:0:0:
256,192,10138,1,0,0:0:0:0:
256,192,10374,1,8,0:0:0:0:
256,192,10610,1,8,0:0:0:0:
256,192,10728,1,8,0:0:0:0:
256,192,10846,1,8,0:0:0:0:
256,192,11319,1,8,0:0:0:0:
256,192,11791,1,0,0:0:0:0:
256,192,12028,1,0,0:0:0:0:
256,192,12264,1,8,0:0:0:0:
256,192,12500,1,0,0:0:0:0:
256,192,12618,1,0,0:0:0:0:
256,192,12736,1,0,0:0:0:0:
256,192,13209,1,8,0:0:0:0:
256,192,13681,1,4,0:0:0:0:
256,192,14154,1,8,0:0:0:0:
256,192,14390,1,0,0:0:0:0:
256,192,14508,1,0,0:0:0:0:
256,192,14626,1,0,0:0:0:0:
256,192,14862,1,0,0:0:0:0:
256,192,15098,1,8,0:0:0:0:
256,192,15571,1,4,0:0:0:0:
256,192,16043,1,8,0:0:0:0:
256,192,16280,1,0,0:0:0:0:
256,192,16398,1,0,0:0:0:0:
256,192,16516,1,8,0:0:0:0:
256,192,16752,1,0,0:0:0:0:
256,192,16988,1,0,0:0:0:0:
256,192,17461,1,4,0:0:0:0:
256,192,17933,1,8,0:0:0:0:
256,192,18405,1,0,0:0:0:0:
256,192,18878,1,8,0:0:0:0:
256,192,19350,1,0,0:0:0:0:
256,192,19587,1,0,0:0:0:0:
256,192,19823,1,8,0:0:0:0:
256,192,20059,1,8,0:0:0:0:
256,192,20295,1,0,0:0:0:0:
256,192,20768,1,8,0:0:0:0:
256,192,20886,1,8,0:0:0:0:
256,192,21004,1,8,0:0:0:0:
256,192,21240,1,0,0:0:0:0:
256,192,22185,1,0,0:0:0:0:
256,192,22539,1,0,0:0:0:0:
256,192,22894,1,8,0:0:0:0:
256,192,23130,1,0,0:0:0:0:
256,192,23484,1,0,0:0:0:0:
256,192,23839,1,8,0:0:0:0:
256,192,24075,1,0,0:0:0:0:
256,192,24547,1,8,0:0:0:0:
256,192,25020,1,0,0:0:0:0:
256,192,25965,1,8,0:0:0:0:
256,192,26319,1,0,0:0:0:0:
256,192,26673,1,8,0:0:0:0:
256,192,26909,1,0,0:0:0:0:
256,192,27264,1,0,0:0:0:0:
256,192,27618,1,0,0:0:0:0:
256,192,27854,1,8,0:0:0:0:
256,192,28327,1,0,0:0:0:0:
256,192,28799,1,8,0:0:0:0:
256,192,29744,1,8,0:0:0:0:
256,192,30098,1,0,0:0:0:0:
256,192,30453,1,8,0:0:0:0:
256,192,30689,1,0,0:0:0:0:
256,192,31043,1,8,0:0:0:0:
256,192,31398,1,0,0:0:0:0:
256,192,31634,1,8,0:0:0:0:
256,192,32106,1,0,0:0:0:0:
256,192,32579,1,8,0:0:0:0:
256,192,33524,1,8,0:0:0:0:
256,192,33878,1,0,0:0:0:0:
256,192,34232,1,8,0:0:0:0:
256,192,34468,1,0,0:0:0:0:
256,192,34823,1,8,0:0:0:0:
256,192,35177,1,0,0:0:0:0:
256,192,35413,1,8,0:0:0:0:
256,192,35531,1,8,0:0:0:0:
256,192,35650,1,8,0:0:0:0:
256,192,35886,1,0,0:0:0:0:
256,192,36358,1,4,0:0:0:0:
256,192,36594,1,0,0:0:0:0:
256,192,36831,1,8,0:0:0:0:
256,192,37303,1,0,0:0:0:0:
256,192,37539,1,8,0:0:0:0:
256,192,37776,1,8,0:0:0:0:
256,192,37894,1,8,0:0:0:0:
256,192,38012,1,8,0:0:0:0:
256,192,38248,1,0,0:0:0:0:
256,192,38720,1,8,0:0:0:0:
256,192,39193,1,0,0:0:0:0:
256,192,39429,1,0,0:0:0:0:
256,192,39665,1,8,0:0:0:0:
256,192,39902,1,8,0:0:0:0:
256,192,40374,1,0,0:0:0:0:
256,192,40610,1,8,0:0:0:0:
256,192,41083,1,0,0:0:0:0:
256,192,41319,1,0,0:0:0:0:
256,192,41555,1,8,0:0:0:0:
256,192,41791,1,0,0:0:0:0:
256,192,42028,1,0,0:0:0:0:
256,192,42500,1,8,0:0:0:0:
256,192,42972,1,0,0:0:0:0:
256,192,43209,1,0,0:0:0:0:
256,192,43445,1,8,0:0:0:0:
256,192,43917,1,0,0:0:0:0:
256,192,44154,1,8,0:0:0:0:
256,192,44390,1,0,0:0:0:0:
256,192,44626,1,0,0:0:0:0:
256,192,44862,1,8,0:0:0:0:
256,192,45335,1,8,0:0:0:0:
256,192,45453,1,8,0:0:0:0:
256,192,45571,1,8,0:0:0:0:
256,192,45807,1,0,0:0:0:0:
256,192,46280,1,8,0:0:0:0:
256,192,46752,1,0,0:0:0:0:
256,192,46988,1,8,0:0:0:0:
256,192,47224,1,8,0:0:0:0:
256,192,47461,1,8,0:0:0:0:
256,192,47933,1,0,0:0:0:0:
256,192,48169,1,8,0:0:0:0:
256,192,48405,1,8,0:0:0:0:
256,192,48642,1,0,0:0:0:0:
256,192,49114,1,8,0:0:0:0:
256,192,49350,1,0,0:0:0:0:
256,192,49587,1,8,0:0:0:0:
256,192,50059,1,0,0:0:0:0:
256,192,50295,1,0,0:0:0:0:
256,192,50531,1,8,0:0:0:0:
256,192,51004,1,8,0:0:0:0:
256,192,51476,1,4,0:0:0:0:
256,192,51949,1,8,0:0:0:0:
256,192,52421,1,0,0:0:0:0:
256,192,52657,1,0,0:0:0:0:
256,192,52894,1,8,0:0:0:0:
256,192,53366,1,0,0:0:0:0:
256,192,53602,1,8,0:0:0:0:
256,192,53839,1,8,0:0:0:0:
256,192,54311,1,0,0:0:0:0:
256,192,54547,1,8,0:0:0:0:
256,192,54783,1,8,0:0:0:0:
256,192,54902,1,8,0:0:0:0:
256,192,55020,1,8,0:0:0:0:
256,192,55256,1,4,0:0:0:0:
256,192,55728,1,0,0:0:0:0:
256,192,55965,1,8,0:0:0:0:
256,192,56437,1,0,0:0:0:0:
256,192,56673,1,8,0:0:0:0:
256,192,57146,1,0,0:0:0:0:
256,192,57382,1,8,0:0:0:0:
256,192,57500,1,8,0:0:0:0:
256,192,57618,1,8,0:0:0:0:
256,192,57854,1,8,0:0:0:0:
256,192,58327,1,0,0:0:0:0:
256,192,58563,1,8,0:0:0:0:
256,192,59035,1,0,0:0:0:0:
256,192,59272,1,0,0:0:0:0:
256,192,59390,1,0,0:0:0:0:
256,192,59508,1,0,0:0:0:0:
256,192,59744,1,8,0:0:0:0:
256,192,60217,1,0,0:0:0:0:
256,192,60453,1,8,0:0:0:0:
256,192,60925,1,0,0:0:0:0:
256,192,61161,1,8,0:0:0:0:
256,192,61280,1,8,0:0:0:0:
256,192,61398,1,8,0:0:0:0:
256,192,61634,1,8,0:0:0:0:
256,192,62106,1,0,0:0:0:0:
256,192,62343,1,8,0:0:0:0:
256,192,62815,1,0,0:0:0:0:
256,192,63051,1,0,0:0:0:0:
256,192,63169,1,0,0:0:0:0:
256,192,63287,1,0,0:0:0:0:
256,192,63524,1,8,0:0:0:0:
256,192,63996,1,0,0:0:0:0:
256,192,64232,1,8,0:0:0:0:
256,192,64705,1,0,0:0:0:0:
256,192,65177,1,0,0:0:0:0:
256,192,65413,1,8,0:0:0:0:
256,192,65531,1,8,0:0:0:0:
256,192,65650,1,0,0:0:0:0:
256,192,65886,1,0,0:0:0:0:
256,192,66122,1,8,0:0:0:0:
256,192,66594,1,0,0:0:0:0:
256,192,66831,1,8,0:0:0:0:
256,192,67067,1,0,0:0:0:0:
256,192,67539,1,8,0:0:0:0:
256,192,67776,1,0,0:0:0:0:
256,192,68012,1,8,0:0:0:0:
256,192,68248,1,8,0:0:0:0:
256,192,68366,1,8,0:0:0:0:
256,192,68484,1,8,0:0:0:0:
256,192,68957,1,8,0:0:0:0:
256,192,69429,1,0,0:0:0:0:
256,192,69902,1,8,0:0:0:0:
256,192,70138,1,8,0:0:0:0:
256,192,70374,1,4,0:0:0:0:
256,192,70846,1,0,0:0:0:0:
256,192,71083,1,8,0:0:0:0:
256,192,71555,1,0,0:0:0:0:
256,192,71791,1,8,0:0:0:0:
256,192,72264,1,0,0:0:0:0:
256,192,72500,1,0,0:0:0:0:
256,192,72618,1,0,0:0:0:0:
256,192,72736,1,0,0:0:0:0:
256,192,72972,1,8,0:0:0:0:
256,192,73445,1,0,0:0:0:0:
256,192,73681,1,8,0:0:0:0:
256,192,74154,1,0,0:0:0:0:
256,192,74390,1,0,0:0:0:0:
256,192,74508,1,0,0:0:0:0:
256,192,74626,1,0,0:0:0:0:
256,192,74862,1,8,0:0:0:0:
256,192,75335,1,0,0:0:0:0:
256,192,75571,1,8,0:0:0:0:
256,192,76043,1,0,0:0:0:0:
256,192,76280,1,0,0:0:0:0:
256,192,76398,1,0,0:0:0:0:
256,192,76516,1,0,0:0:0:0:
256,192,76752,1,8,0:0:0:0:
256,192,76988,1,0,0:0:0:0:
256,192,77224,1,0,0:0:0:0:
256,192,77461,1,8,0:0:0:0:
256,192,77933,1,4,0:0:0:0:
256,192,78169,1,0,0:0:0:0:
256,192,78287,1,0,0:0:0:0:
256,192,78405,1,0,0:0:0:0:
256,192,78642,1,8,0:0:0:0:
256,192,78878,1,0,0:0:0:0:
256,192,79350,1,8,0:0:0:0:
256,192,79823,1,0,0:0:0:0:
256,192,80059,1,8,0:0:0:0:
256,192,80295,1,0,0:0:0:0:
256,192,80531,1,8,0:0:0:0:
256,192,80650,1,8,0:0:0:0:
256,192,80768,1,8,0:0:0:0:
256,192,81004,1,0,0:0:0:0:
256,192,81240,1,8,0:0:0:0:
256,192,81713,1,4,0:0:0:0:
256,192,82185,1,0,0:0:0:0:
256,192,82421,1,0,0:0:0:0:
256,192,82539,1,0,0:0:0:0:
256,192,82657,1,8,0:0:0:0:
256,192,82894,1,0,0:0:0:0:
256,192,83130,1,8,0:0:0:0:
256,192,83366,1,8,0:0:0:0:
256,192,83602,1,4,0:0:0:0:
256,192,84075,1,8,0:0:0:0:
256,192,84311,1,0,0:0:0:0:
256,192,84429,1,0,0:0:0:0:
256,192,84547,1,8,0:0:0:0:
256,192,84783,1,0,0:0:0:0:
256,192,85020,1,8,0:0:0:0:
256,192,85256,1,0,0:0:0:0:
256,192,85492,1,0,0:0:0:0:
256,192,85965,1,0,0:0:0:0:
256,192,86201,1,8,0:0:0:0:
256,192,86673,1,0,0:0:0:0:
256,192,86909,1,8,0:0:0:0:
256,192,87382,1,8,0:0:0:0:
256,192,87854,1,0,0:0:0:0:
256,192,88091,1,8,0:0:0:0:
256,192,88563,1,0,0:0:0:0:
256,192,88799,1,0,0:0:0:0:
256,192,89272,1,8,0:0:0:0:
256,192,89744,1,0,0:0:0:0:
256,192,89980,1,8,0:0:0:0:
256,192,90453,1,0,0:0:0:0:
256,192,90689,1,8,0:0:0:0:
256,192,91161,1,0,0:0:0:0:
