osu file format v13

[General]
AudioFilename: Yozakura ni Kimi wo Kakushite.mp3
AudioLeadIn: 0
PreviewTime: 55256
Countdown: 0
SampleSet: Normal
StackLeniency: 0.7
Mode: 1
LetterboxInBreaks: 0
WidescreenStoryboard: 0

[Editor]
DistanceSpacing: 1.2
BeatDivisor: 2
GridSize: 32
TimelineZoom: 1

[Metadata]
Title:Yozakura ni Kimi o Kakushite
TitleUnicode:夜桜に君を隠して
Artist:senya
ArtistUnicode:senya
Creator:Dainesl
Version:Kantan
Source:Touhou
Tags:Cirno Memories of Phantasm Fantasy Kaleidoscope Yuuhei Satellite 幽閉サテライト ZUN Daiyousei Lunate Elf EoSD Embodiment of Scarlet Devil 東方プロジェクト Project かませ虎 Kamase Tora Iceon 音霊 Ontama
BeatmapID:477125
BeatmapSetID:201524

[Difficulty]
HPDrainRate:5
CircleSize:5
OverallDifficulty:4
ApproachRate:5
SliderMultiplier:1.4
SliderTickRate:1

[Events]
//Background and Video events
0,0,"baka daiyousei.jpg",0,80
//Break Periods
//Storyboard Layer 0 (Background)
//Storyboard Layer 1 (Fail)
//Storyboard Layer 2 (Pass)
//Storyboard Layer 3 (Foreground)
//Storyboard Sound Samples
//Background Colour Transformations
3,100,163,162,255

[TimingPoints]
2343,472.44094488189,4,1,0,45,1,0
9665,-100,4,1,0,65,0,0
17461,-100,4,1,0,50,0,0
21122,-100,4,1,0,40,0,0
35768,-100,4,1,0,65,0,0
54311,-100,4,1,0,70,0,0
54783,-100,4,1,0,75,0,0
55256,-100,4,1,0,80,0,1
85492,-100,4,1,0,50,0,0

[HitObjects]
256,192,2343,5,0,0:0:0:0:
256,192,3051,1,8,0:0:0:0:
256,192,3760,1,0,0:0:0:0:
256,192,4232,1,0,0:0:0:0:
256,192,4941,1,8,0:0:0:0:
256,192,6122,1,0,0:0:0:0:
256,192,6831,1,8,0:0:0:0:
256,192,7539,1,8,0:0:0:0:
256,192,8012,1,0,0:0:0:0:
256,192,8720,1,8,0:0:0:0:
256,192,9902,1,4,0:0:0:0:
256,192,10610,1,8,0:0:0:0:
256,192,11319,1,8,0:0:0:0:
256,192,11791,1,0,0:0:0:0:
256,192,12500,1,8,0:0:0:0:
256,192,13209,1,8,0:0:0:0:
256,192,13681,1,4,0:0:0:0:
256,192,15571,1,4,0:0:0:0:
256,192,16516,1,8,0:0:0:0:
256,192,16988,1,0,0:0:0:0:
256,192,17461,1,8,0:0:0:0:
256,192,19350,1,8,0:0:0:0:
256,192,20295,1,8,0:0:0:0:
256,192,20768,1,8,0:0:0:0:
256,192,21240,1,0,0:0:0:0:
256,192,23130,1,8,0:0:0:0:
256,192,24075,1,0,0:0:0:0:
256,192,25020,1,0,0:0:0:0:
256,192,26909,1,0,0:0:0:0:
256,192,27854,1,0,0:0:0:0:
256,192,28799,1,8,0:0:0:0:
256,192,30689,1,8,0:0:0:0:
256,192,31634,1,0,0:0:0:0:
256,192,32579,1,8,0:0:0:0:
256,192,34468,1,0,0:0:0:0:
256,192,35413,1,0,0:0:0:0:
256,192,36358,1,4,0:0:0:0:
256,192,37303,1,8,0:0:0:0:
256,192,37776,1,8,0:0:0:0:
256,192,38248,1,0,0:0:0:0:
256,192,39193,1,8,0:0:0:0:
256,192,40138,1,0,0:0:0:0:
256,192,41083,1,0,0:0:0:0:
256,192,41555,1,0,0:0:0:0:
256,192,42028,1,0,0:0:0:0:
256,192,42972,1,8,0:0:0:0:
256,192,43917,1,0,0:0:0:0:
256,192,44862,1,0,0:0:0:0:
256,192,45335,1,8,0:0:0:0:
256,192,45807,1,0,0:0:0:0:
256,192,46752,1,8,0:0:0:0:
256,192,47697,1,0,0:0:0:0:
256,192,48642,1,0,0:0:0:0:
256,192,49114,1,8,0:0:0:0:
256,192,49587,1,8,0:0:0:0:
256,192,50531,1,8,0:0:0:0:
256,192,51476,1,0,0:0:0:0:
256,192,52185,1,0,0:0:0:0:
256,192,52894,1,0,0:0:0:0:
256,192,53366,1,8,0:0:0:0:
256,192,54311,1,8,0:0:0:0:
256,192,54783,1,8,0:0:0:0:
256,192,55256,1,4,0:0:0:0:
256,192,55965,1,8,0:0:0:0:
256,192,56673,1,8,0:0:0:0:
256,192,57146,1,0,0:0:0:0:
256,192,58091,1,8,0:0:0:0:
256,192,59035,1,0,0:0:0:0:
256,192,59744,1,8,0:0:0:0:
256,192,60453,1,8,0:0:0:0:
256,192,60925,1,0,0:0:0:0:
256,192,61870,1,8,0:0:0:0:
256,192,62815,1,0,0:0:0:0:
256,192,63524,1,0,0:0:0:0:
256,192,64232,1,8,0:0:0:0:
256,192,64705,1,0,0:0:0:0:
256,192,65650,1,8,0:0:0:0:
256,192,66594,1,0,0:0:0:0:
256,192,67539,1,8,0:0:0:0:
256,192,68012,1,8,0:0:0:0:
256,192,68484,1,0,0:0:0:0:
256,192,69429,1,0,0:0:0:0:
256,192,70374,1,4,0:0:0:0:
256,192,71083,1,8,0:0:0:0:
256,192,71791,1,8,0:0:0:0:
256,192,72264,1,0,0:0:0:0:
256,192,73209,1,8,0:0:0:0:
256,192,74154,1,0,0:0:0:0:
256,192,74862,1,8,0:0:0:0:
256,192,75571,1,0,0:0:0:0:
256,192,76043,1,8,0:0:0:0:
256,192,76988,1,0,0:0:0:0:
256,192,77933,1,4,0:0:0:0:
256,192,78642,1,0,0:0:0:0:
256,192,79350,1,8,0:0:0:0:
256,192,79823,1,0,0:0:0:0:
256,192,80768,1,8,0:0:0:0:
256,192,81713,1,4,0:0:0:0:
256,192,83602,1,4,0:0:0:0:
256,192,84547,1,8,0:0:0:0:
256,192,85256,1,8,0:0:0:0:
256,192,85492,1,8,0:0:0:0:
256,192,86201,1,0,0:0:0:0:
256,192,87382,1,0,0:0:0:0:
256,192,88091,1,8,0:0:0:0:
256,192,89272,1,8,0:0:0:0:
256,192,89980,1,0,0:0:0:0:
256,192,90689,1,8,0:0:0:0:
256,192,91161,1,0,0:0:0:0:
