osu file format v12

[General]
AudioFilename: Yozakura ni Kimi wo Kakushite.mp3
AudioLeadIn: 0
PreviewTime: 55251
Countdown: 0
SampleSet: Soft
StackLeniency: 0.7
Mode: 0
LetterboxInBreaks: 0
WidescreenStoryboard: 0

[Editor]
DistanceSpacing: 1
BeatDivisor: 4
GridSize: 4
TimelineZoom: 1

[Metadata]
Title:Yozakura ni Kimi o Kakushite
TitleUnicode:夜桜に君を隠して
Artist:senya
ArtistUnicode:senya
Creator:BeatofIke
Version:Easy
Source:Touhou
Tags:ending short version daiyousei c85 dai smallboat kodora dagger-gazel yuuhei satellite lunate elf iceon zun kamasetora fantasy kaleidoscope memories of phantasm mayumi morinaga hiding you in the evening cherry trees
BeatmapID:361656
BeatmapSetID:145885

[Difficulty]
HPDrainRate:2
CircleSize:3
OverallDifficulty:2
ApproachRate:3
SliderMultiplier:0.8
SliderTickRate:1

[Events]
//Background and Video events
0,0,"BG.jpg",0,0
//Break Periods
2,17651,19790
//Storyboard Layer 0 (Background)
//Storyboard Layer 1 (Fail)
//Storyboard Layer 2 (Pass)
//Storyboard Layer 3 (Foreground)
//Storyboard Sound Samples
//Background Colour Transformations
3,100,163,162,255

[TimingPoints]
2333,472.44094488189,4,2,1,50,1,0
9892,-100,4,2,1,65,0,0
21230,-100,4,2,1,50,0,0
36348,-100,4,2,2,65,0,0
52411,-100,4,2,3,65,0,0
52884,-100,4,2,2,65,0,0
53356,-100,4,2,4,65,0,0
53829,-100,4,2,2,65,0,0
55246,-100,4,2,2,80,0,1
59970,-100,4,2,3,80,0,1
60443,-100,4,2,2,80,0,1
61860,-100,4,2,3,80,0,1
62333,-100,4,2,2,80,0,1
71309,-100,4,2,3,80,0,1
71781,-100,4,2,2,80,0,1
73199,-100,4,2,3,80,0,1
73671,-100,4,2,2,80,0,1
75088,-100,4,2,3,80,0,1
75561,-100,4,2,2,80,0,1
76978,-100,4,2,3,80,0,1
77451,-100,4,2,2,80,0,1
85482,-100,4,2,1,50,0,0
91151,-100,4,2,1,5,0,0

[Colours]
Combo1 : 236,185,51
Combo2 : 20,222,71
Combo3 : 82,82,239
Combo4 : 240,114,87

[HitObjects]
296,68,2333,6,0,P|350:46|404:68,2,120,2|2|2,0:0|0:0|0:0,0:0:0:0:
216,68,4222,2,0,P|162:46|108:68,2,120,2|2|2,0:0|0:0|0:0,0:0:0:0:
216,148,6112,6,0,P|162:170|108:148,2,120,2|2|2,0:0|0:0|0:0,0:0:0:0:
296,148,8002,2,0,P|350:170|404:148,2,120,2|2|2,0:0|0:0|0:0,0:0:0:0:
256,216,9892,5,4,0:0:0:0:
192,264,10364,1,8,0:0:0:0:
216,340,10836,1,0,0:0:0:0:
296,340,11309,1,8,0:0:0:0:
320,264,11781,1,0,0:0:0:0:
256,216,12254,2,0,L|256:136,2,80,8|0|8,0:0|0:0|0:0,0:0:0:0:
256,192,13671,12,4,17451,0:0:0:0:
48,292,21230,6,0,P|124:313|200:292,1,160,2|2,0:0|0:0,0:0:0:0:
256,232,22647,1,0,0:0:0:0:
311,291,23120,2,0,P|387:312|464:292,1,160,2|2,0:0|0:0,0:0:0:0:
484,216,24537,1,2,0:0:0:0:
504,140,25010,6,0,P|432:156|408:232,2,160,2|2|2,0:0|0:0|0:0,0:0:0:0:
484,216,27372,1,0,0:0:0:0:
408,231,27844,2,0,L|329:248,1,80,2|0,0:0|0:0,0:0:0:0:
252,264,28789,6,0,B|244:212|276:184|304:172|304:172|296:128,1,160,2|2,0:0|0:0,0:0:0:0:
280,48,30207,1,2,0:0:0:0:
360,36,30679,2,0,L|376:116,2,80,2|0|2,0:0|0:0|0:0,0:0:0:0:
280,48,32096,1,2,0:0:0:0:
295,127,32569,6,0,P|340:188|420:184,2,160,2|2|2,0:0|0:0|0:0,0:0:0:0:
375,114,34931,1,0,0:0:0:0:
418,185,35403,2,0,L|465:252,1,80,2|0,0:0|0:0,0:0:0:0:
477,332,36348,6,0,B|421:336|393:292|393:292|337:320,1,160,4|0,0:0|0:0,0:0:0:0:
256,324,37766,1,8,0:0:0:0:
175,320,38238,2,0,B|119:292|119:292|91:336|35:332,1,160
48,250,39655,1,8,0:0:0:0:
56,168,40128,6,0,L|64:88,1,80,0|8,0:0|0:0,0:0:0:0:
132,44,41073,2,0,P|172:40|208:56,1,80,0|8,0:0|0:0,0:0:0:0:
236,132,42018,2,0,P|196:136|160:120,2,80,0|8|0,0:0|0:0|0:0,0:0:0:0:
264,208,43435,1,8,0:0:0:0:
204,264,43907,5,4,0:0:0:0:
264,320,44380,1,8,0:0:0:0:
324,264,44852,2,0,L|404:264,2,80,0|8|0,0:0|0:0|0:0,0:0:0:0:
264,208,46270,1,8,0:0:0:0:
204,264,46742,2,0,L|124:264,1,80,0|8,0:0|0:0,0:0:0:0:
64,320,47687,6,0,P|44:244|96:188,1,160,4|0,0:0|0:0,0:0:0:0:
126,114,49104,2,0,P|86:106|46:122,2,80,8|4|8,0:0|0:0|0:0,0:0:0:0:
156,40,50521,1,4,0:0:0:0:
236,40,50994,1,8,0:0:0:0:
312,16,51466,6,0,B|328:76|284:124|224:120|224:120|256:192|288:264|288:264|228:260|184:308|200:368,1,480,4|4,0:0|0:0,0:0:0:0:
276,344,54773,1,8,0:0:0:0:
352,316,55246,6,0,B|380:276|360:228|360:228|332:164,1,160,4|0,0:0|0:0,0:0:0:0:
256,140,56663,1,8,0:0:0:0:
179,166,57136,2,0,B|152:228|152:228|132:276|160:316,1,160
92,360,58553,1,8,0:0:0:0:
64,284,59025,6,0,B|60:224|92:168|92:168|48:148|32:104|48:64,1,240,0|8,0:0|0:0,0:0:0:0:
124,92,60915,2,0,B|244:76|244:76|248:124|292:152|332:148,1,240,0|8,0:0|0:0,0:0:0:0:
324,68,62805,6,0,P|396:112|396:184,1,160
372,256,64222,1,8,0:0:0:0:
332,324,64695,2,0,B|292:332|256:308|256:308|220:332|180:324,1,160
140,256,66112,1,8,0:0:0:0:
114,180,66584,6,0,P|120:104|188:68,1,160,0|2,0:0|0:0,0:0:0:0:
256,112,68002,1,10,0:0:0:0:
324,68,68474,2,0,P|391:104|397:180,1,160,6|4,0:0|0:0,0:0:0:0:
372,256,69892,1,8,0:0:0:0:
296,280,70364,6,0,P|328:324|392:332,2,120,4|0|8,0:0|0:0|0:0,0:0:0:0:
216,280,72254,2,0,P|184:324|120:332,2,120,0|0|8,0:0|0:0|0:0,0:0:0:0:
216,200,74144,6,0,P|184:156|120:148,2,120,0|0|8,0:0|0:0|0:0,0:0:0:0:
296,200,76033,2,0,P|328:156|392:148,2,120,0|0|8,0:0|0:0|0:0,0:0:0:0:
372,224,77923,6,0,P|452:196|466:127,1,160,4|0,0:0|0:0,0:0:0:0:
412,72,79340,1,8,0:0:0:0:
332,60,79813,2,0,P|256:39|180:60,1,160
100,72,81230,1,8,0:0:0:0:
43,129,81703,6,0,P|66:202|140:224,1,160,4|2,0:0|0:0,0:0:0:0:
192,284,83120,1,10,0:0:0:0:
256,332,83592,1,2,0:0:0:0:
320,284,84065,1,10,0:0:0:0:
256,236,84537,2,0,L|256:152,1,80,2|10,0:0|0:0,0:0:0:0:
296,88,85482,6,0,L|399:28,2,120,2|2|2,0:0|0:0|0:0,0:0:0:0:
216,88,87372,2,0,L|112:28,2,120,2|2|2,0:0|0:0|0:0,0:0:0:0:
256,156,89262,2,0,L|256:276,2,120,2|2|2,0:0|0:0|0:0,0:0:0:0:
256,192,91151,12,0,93041,0:0:0:0:
