osu file format v14

[General]
AudioFilename: youmu1.mp3
AudioLeadIn: 0
PreviewTime: 36435
Countdown: 0
SampleSet: None
StackLeniency: 0.7
Mode: 3
LetterboxInBreaks: 0
SpecialStyle: 0
WidescreenStoryboard: 0

[Editor]
DistanceSpacing: 1
BeatDivisor: 4
GridSize: 4
TimelineZoom: 1.999999

[Metadata]
Title:Youyoumu no Gotoku
TitleUnicode:漸う夢の如く
Artist:senya
ArtistUnicode:senya
Creator:pporse
Version:Lunatic
Source:Touhou
Tags:
BeatmapID:690226
BeatmapSetID:308655

[Difficulty]
HPDrainRate:7
CircleSize:7
OverallDifficulty:7
ApproachRate:5
SliderMultiplier:1.4
SliderTickRate:1

[Events]
//Background and Video events
0,0,"background.jpg",0,0
//Break Periods
//Storyboard Layer 0 (Background)
//Storyboard Layer 1 (Fail)
//Storyboard Layer 2 (Pass)
//Storyboard Layer 3 (Foreground)
//Storyboard Sound Samples

[TimingPoints]
529,375,4,1,1,20,1,0
35029,-333.333333333333,4,1,1,20,0,0
36341,-111.111111111111,4,1,1,20,0,0
36529,-100,4,2,1,20,0,0
39529,-100,4,3,1,30,0,0
42529,-100,4,2,1,20,0,0
45529,-100,4,3,1,30,0,0
48529,-100,4,2,1,20,0,0
51529,-100,4,3,1,30,0,0
54529,-100,4,2,1,20,0,0
57529,-100,4,3,1,30,0,0
60529,-100,4,1,1,20,0,0
95029,37.5,4,1,1,20,1,0
95029,-1000,4,1,1,20,0,0
95179,-500,4,1,1,20,0,0
95329,-333.333333333333,4,1,1,20,0,0
95479,-250,4,1,1,20,0,0
95629,-200,4,1,1,20,0,0
95779,-166.666666666667,4,1,1,20,0,0
95929,-142.857142857143,4,1,1,20,0,0
96079,-125,4,1,1,20,0,0
96229,-111.111111111111,4,1,1,20,0,0
96379,-100,4,1,1,20,0,0
96552,375,4,1,1,20,1,0
96552,-333.333333333333,4,1,1,20,0,0
97114,-111.111111111111,4,1,1,20,0,0
97302,375,4,2,1,20,1,0
100302,-100,4,3,1,30,0,0
103302,-100,4,2,1,20,0,0
106302,-100,4,3,1,30,0,0
109302,-100,4,2,1,20,0,0
112302,-100,4,3,1,30,0,0
115302,-100,4,2,1,20,0,0
118302,-100,4,3,1,30,0,0
121302,-100,4,1,1,20,0,0
157302,-100,4,2,1,20,0,0
160302,-100,4,3,1,30,0,0
163302,-100,4,2,1,20,0,0
166302,-100,4,3,1,30,0,0
169302,-100,4,3,2,15,0,0
180927,-90.9090909090909,4,3,2,15,0,0
181302,37.5,4,1,1,20,1,0
181302,-666.666666666667,4,1,1,20,0,0
181995,375,4,1,1,20,1,0
182052,-200,4,1,1,20,0,0
182159,375,4,1,1,20,1,0
182159,-200,4,1,1,20,0,0

[HitObjects]
36,192,529,5,0,0:0:0:0:
256,192,529,1,0,0:0:0:0:
402,192,529,1,0,0:0:0:0:
109,192,716,1,0,0:0:0:0:
182,192,904,1,0,0:0:0:0:
256,192,1091,1,0,0:0:0:0:
329,192,1279,1,0,0:0:0:0:
402,192,1279,1,0,0:0:0:0:
109,192,1279,1,0,0:0:0:0:
182,192,1466,1,0,0:0:0:0:
36,192,1654,1,0,0:0:0:0:
256,192,1654,1,0,0:0:0:0:
109,192,1654,1,0,0:0:0:0:
402,192,1841,1,0,0:0:0:0:
182,192,2029,1,0,0:0:0:0:
329,192,2029,1,0,0:0:0:0:
475,192,2029,1,0,0:0:0:0:
36,192,2216,1,0,0:0:0:0:
109,192,2404,1,0,0:0:0:0:
182,192,2591,1,0,0:0:0:0:
256,192,2779,1,0,0:0:0:0:
475,192,3529,1,0,0:0:0:0:
36,192,3529,1,0,0:0:0:0:
182,192,3529,1,0,0:0:0:0:
256,192,3716,1,0,0:0:0:0:
329,192,3904,1,0,0:0:0:0:
402,192,4091,1,0,0:0:0:0:
109,192,4279,1,0,0:0:0:0:
256,192,4279,1,0,0:0:0:0:
329,192,4279,1,0,0:0:0:0:
182,192,4466,1,0,0:0:0:0:
256,192,4654,1,0,0:0:0:0:
329,192,4841,1,0,0:0:0:0:
36,192,5029,1,0,0:0:0:0:
182,192,5029,1,0,0:0:0:0:
402,192,5029,1,0,0:0:0:0:
475,192,5029,1,0,0:0:0:0:
256,192,5216,1,0,0:0:0:0:
329,192,5404,1,0,0:0:0:0:
402,192,5404,1,0,0:0:0:0:
182,192,5591,1,0,0:0:0:0:
256,192,5779,1,0,0:0:0:0:
329,192,5779,1,0,0:0:0:0:
109,192,5966,1,0,0:0:0:0:
182,192,6154,1,0,0:0:0:0:
256,192,6154,1,0,0:0:0:0:
36,192,6341,1,0,0:0:0:0:
329,192,6529,1,0,0:0:0:0:
36,192,6529,1,0,0:0:0:0:
402,192,6529,1,0,0:0:0:0:
109,192,6716,1,0,0:0:0:0:
182,192,6904,1,0,0:0:0:0:
256,192,7091,1,0,0:0:0:0:
109,192,7279,1,0,0:0:0:0:
329,192,7279,1,0,0:0:0:0:
475,192,7279,1,0,0:0:0:0:
182,192,7466,1,0,0:0:0:0:
256,192,7654,1,0,0:0:0:0:
329,192,7841,1,0,0:0:0:0:
36,192,8029,1,0,0:0:0:0:
182,192,8029,1,0,0:0:0:0:
402,192,8029,1,0,0:0:0:0:
256,192,8216,1,0,0:0:0:0:
329,192,8404,1,0,0:0:0:0:
109,192,8404,1,0,0:0:0:0:
402,192,8404,1,0,0:0:0:0:
182,192,8591,1,0,0:0:0:0:
475,192,8779,1,0,0:0:0:0:
256,192,8779,1,0,0:0:0:0:
36,192,8779,1,0,0:0:0:0:
402,192,8779,1,0,0:0:0:0:
329,192,8966,1,0,0:0:0:0:
182,192,9154,1,0,0:0:0:0:
402,192,9341,1,0,0:0:0:0:
256,192,9529,1,0,0:0:0:0:
36,192,9529,1,0,0:0:0:0:
475,192,9529,1,0,0:0:0:0:
109,192,9716,1,0,0:0:0:0:
182,192,9904,1,0,0:0:0:0:
256,192,10091,1,0,0:0:0:0:
329,192,10279,1,0,0:0:0:0:
475,192,10279,1,0,0:0:0:0:
109,192,10279,1,0,0:0:0:0:
182,192,10466,1,0,0:0:0:0:
256,192,10654,1,0,0:0:0:0:
329,192,10841,1,0,0:0:0:0:
36,192,11029,1,0,0:0:0:0:
256,192,11029,1,0,0:0:0:0:
475,192,11029,1,0,0:0:0:0:
182,192,11216,1,0,0:0:0:0:
329,192,11404,1,0,0:0:0:0:
475,192,11591,1,0,0:0:0:0:
402,192,11779,1,0,0:0:0:0:
256,192,11966,1,0,0:0:0:0:
109,192,12154,1,0,0:0:0:0:
329,192,12341,1,0,0:0:0:0:
36,192,12529,1,0,0:0:0:0:
182,192,12529,1,0,0:0:0:0:
402,192,12529,1,0,0:0:0:0:
475,192,12529,1,0,0:0:0:0:
329,192,12622,1,0,0:0:0:0:
475,192,12716,1,0,0:0:0:0:
109,192,12716,1,0,0:0:0:0:
256,192,12904,1,0,0:0:0:0:
36,192,12904,1,0,0:0:0:0:
402,192,12904,1,0,0:0:0:0:
109,192,13091,1,0,0:0:0:0:
329,192,13091,1,0,0:0:0:0:
182,192,13279,1,0,0:0:0:0:
36,192,13279,1,0,0:0:0:0:
329,192,13372,1,0,0:0:0:0:
475,192,13466,1,0,0:0:0:0:
109,192,13466,1,0,0:0:0:0:
256,192,13654,1,0,0:0:0:0:
402,192,13654,1,0,0:0:0:0:
36,192,13654,1,0,0:0:0:0:
109,192,13841,1,0,0:0:0:0:
329,192,13841,1,0,0:0:0:0:
36,192,14029,1,0,0:0:0:0:
182,192,14029,1,0,0:0:0:0:
256,192,14122,1,0,0:0:0:0:
109,192,14216,1,0,0:0:0:0:
329,192,14216,1,0,0:0:0:0:
36,192,14404,1,0,0:0:0:0:
475,192,14404,1,0,0:0:0:0:
256,192,14404,1,0,0:0:0:0:
109,192,14591,1,0,0:0:0:0:
402,192,14591,1,0,0:0:0:0:
182,192,14779,1,0,0:0:0:0:
36,192,14779,1,0,0:0:0:0:
329,192,14872,1,0,0:0:0:0:
402,192,14966,1,0,0:0:0:0:
182,192,14966,1,0,0:0:0:0:
256,192,15154,1,0,0:0:0:0:
36,192,15154,1,0,0:0:0:0:
402,192,15154,1,0,0:0:0:0:
109,192,15341,1,0,0:0:0:0:
329,192,15341,1,0,0:0:0:0:
329,192,15529,1,0,0:0:0:0:
36,192,15529,1,0,0:0:0:0:
475,192,15622,1,0,0:0:0:0:
182,192,15716,1,0,0:0:0:0:
256,192,15716,1,0,0:0:0:0:
402,192,15904,1,0,0:0:0:0:
329,192,15904,1,0,0:0:0:0:
109,192,15904,1,0,0:0:0:0:
182,192,16091,1,0,0:0:0:0:
402,192,16091,1,0,0:0:0:0:
36,192,16279,1,0,0:0:0:0:
475,192,16279,1,0,0:0:0:0:
402,192,16372,1,0,0:0:0:0:
182,192,16466,1,0,0:0:0:0:
329,192,16466,1,0,0:0:0:0:
256,192,16654,1,0,0:0:0:0:
475,192,16654,1,0,0:0:0:0:
109,192,16654,1,0,0:0:0:0:
329,192,16841,1,0,0:0:0:0:
182,192,16841,1,0,0:0:0:0:
36,192,17029,1,0,0:0:0:0:
402,192,17029,1,0,0:0:0:0:
475,192,17029,1,0,0:0:0:0:
329,192,17029,1,0,0:0:0:0:
256,192,17122,1,0,0:0:0:0:
109,192,17216,1,0,0:0:0:0:
182,192,17216,1,0,0:0:0:0:
109,192,17404,1,0,0:0:0:0:
36,192,17404,1,0,0:0:0:0:
329,192,17404,1,0,0:0:0:0:
402,192,17404,1,0,0:0:0:0:
256,192,17404,1,0,0:0:0:0:
402,192,17591,1,0,0:0:0:0:
475,192,17591,1,0,0:0:0:0:
402,192,17779,1,0,0:0:0:0:
36,192,17779,1,0,0:0:0:0:
256,192,17779,1,0,0:0:0:0:
182,192,17779,1,0,0:0:0:0:
329,192,17872,1,0,0:0:0:0:
402,192,17966,1,0,0:0:0:0:
109,192,17966,1,0,0:0:0:0:
109,192,18154,1,0,0:0:0:0:
475,192,18154,1,0,0:0:0:0:
182,192,18154,1,0,0:0:0:0:
329,192,18154,1,0,0:0:0:0:
402,192,18341,1,0,0:0:0:0:
256,192,18341,1,0,0:0:0:0:
329,192,18529,1,0,0:0:0:0:
36,192,18529,1,0,0:0:0:0:
475,192,18529,1,0,0:0:0:0:
182,192,18529,1,0,0:0:0:0:
256,192,18622,1,0,0:0:0:0:
182,192,18716,1,0,0:0:0:0:
402,192,18716,1,0,0:0:0:0:
402,192,18904,1,0,0:0:0:0:
36,192,18904,1,0,0:0:0:0:
329,192,18904,1,0,0:0:0:0:
182,192,19091,1,0,0:0:0:0:
109,192,19091,1,0,0:0:0:0:
36,192,19279,1,0,0:0:0:0:
475,192,19279,1,0,0:0:0:0:
256,192,19279,1,0,0:0:0:0:
402,192,19372,1,0,0:0:0:0:
182,192,19466,1,0,0:0:0:0:
329,192,19466,1,0,0:0:0:0:
402,192,19654,1,0,0:0:0:0:
256,192,19654,1,0,0:0:0:0:
475,192,19654,1,0,0:0:0:0:
109,192,19841,1,0,0:0:0:0:
182,192,19841,1,0,0:0:0:0:
36,192,20029,1,0,0:0:0:0:
402,192,20029,1,0,0:0:0:0:
256,192,20029,1,0,0:0:0:0:
475,192,20122,1,0,0:0:0:0:
329,192,20216,1,0,0:0:0:0:
182,192,20216,1,0,0:0:0:0:
109,192,20404,1,0,0:0:0:0:
256,192,20404,1,0,0:0:0:0:
36,192,20404,1,0,0:0:0:0:
475,192,20591,1,0,0:0:0:0:
329,192,20591,1,0,0:0:0:0:
402,192,20779,1,0,0:0:0:0:
36,192,20779,1,0,0:0:0:0:
109,192,20779,1,0,0:0:0:0:
329,192,20872,1,0,0:0:0:0:
256,192,20966,1,0,0:0:0:0:
182,192,20966,1,0,0:0:0:0:
329,192,21154,1,0,0:0:0:0:
109,192,21154,1,0,0:0:0:0:
402,192,21154,1,0,0:0:0:0:
256,192,21341,1,0,0:0:0:0:
475,192,21341,1,0,0:0:0:0:
402,192,21529,1,0,0:0:0:0:
36,192,21529,1,0,0:0:0:0:
182,192,21529,1,0,0:0:0:0:
256,192,21622,1,0,0:0:0:0:
182,192,21716,1,0,0:0:0:0:
329,192,21716,1,0,0:0:0:0:
402,192,21904,1,0,0:0:0:0:
36,192,21904,1,0,0:0:0:0:
109,192,21904,1,0,0:0:0:0:
182,192,22091,1,0,0:0:0:0:
329,192,22091,1,0,0:0:0:0:
36,192,22279,1,0,0:0:0:0:
475,192,22279,1,0,0:0:0:0:
256,192,22279,1,0,0:0:0:0:
109,192,22372,1,0,0:0:0:0:
182,192,22466,1,0,0:0:0:0:
329,192,22466,1,0,0:0:0:0:
402,192,22654,1,0,0:0:0:0:
256,192,22654,1,0,0:0:0:0:
475,192,22654,1,0,0:0:0:0:
329,192,22841,1,0,0:0:0:0:
182,192,22841,1,0,0:0:0:0:
36,192,23029,1,0,0:0:0:20:soft-hitclap.wav
402,192,23029,1,0,0:0:0:0:
256,192,23029,1,0,0:0:0:0:
182,192,23075,1,0,0:0:0:20:soft-hitclap.wav
329,192,23122,1,0,0:0:0:20:soft-hitclap.wav
109,192,23169,1,0,0:0:0:20:soft-hitclap.wav
475,192,23216,1,0,0:0:0:20:soft-hitclap.wav
329,192,23263,1,0,0:0:0:20:soft-hitclap.wav
182,192,23310,1,0,0:0:0:20:soft-hitclap.wav
402,192,23357,1,0,0:0:0:20:soft-hitclap.wav
36,192,23404,1,0,0:0:0:30:soft-hitclap.wav
475,192,23450,1,0,0:0:0:30:soft-hitclap.wav
109,192,23497,1,0,0:0:0:30:soft-hitclap.wav
256,192,23544,1,0,0:0:0:30:soft-hitclap.wav
329,192,23591,1,0,0:0:0:30:soft-hitclap.wav
402,192,23638,1,0,0:0:0:30:soft-hitclap.wav
182,192,23685,1,0,0:0:0:30:soft-hitclap.wav
256,192,23732,1,0,0:0:0:30:soft-hitclap.wav
36,192,23779,1,0,0:0:0:0:
109,192,23779,1,0,0:0:0:0:
475,192,23779,1,0,0:0:0:40:soft-hitclap.wav
402,192,23825,1,0,0:0:0:40:soft-hitclap.wav
182,192,23872,1,0,0:0:0:0:
329,192,23872,1,0,0:0:0:40:soft-hitclap.wav
256,192,23919,1,0,0:0:0:40:soft-hitclap.wav
36,192,23966,1,0,0:0:0:0:
109,192,23966,1,0,0:0:0:0:
475,192,23966,1,0,0:0:0:40:soft-hitclap.wav
402,192,24013,1,0,0:0:0:40:soft-hitclap.wav
182,192,24060,1,0,0:0:0:0:
329,192,24060,1,0,0:0:0:40:soft-hitclap.wav
256,192,24107,1,0,0:0:0:40:soft-hitclap.wav
475,192,24154,1,0,0:0:0:40:soft-hitclap.wav
109,192,24154,1,0,0:0:0:0:
36,192,24154,1,0,0:0:0:0:
402,192,24200,1,0,0:0:0:40:soft-hitclap.wav
329,192,24247,1,0,0:0:0:40:soft-hitclap.wav
182,192,24247,1,0,0:0:0:0:
256,192,24294,1,0,0:0:0:40:soft-hitclap.wav
475,192,24341,1,0,0:0:0:40:soft-hitclap.wav
36,192,24341,1,0,0:0:0:0:
109,192,24341,1,0,0:0:0:0:
402,192,24388,1,0,0:0:0:40:soft-hitclap.wav
329,192,24435,1,0,0:0:0:40:soft-hitclap.wav
182,192,24435,1,0,0:0:0:0:
256,192,24482,1,0,0:0:0:40:soft-hitclap.wav
475,192,24529,1,0,0:0:0:0:
109,192,24529,1,0,0:0:0:0:
402,192,24529,1,0,0:0:0:0:
36,192,24529,1,0,0:0:0:0:
329,192,24622,1,0,0:0:0:0:
256,192,24716,1,0,0:0:0:0:
36,192,24904,1,0,0:0:0:0:
109,192,24904,1,0,0:0:0:0:
475,192,24904,1,0,0:0:0:0:
256,192,24997,1,0,0:0:0:0:
402,192,25091,1,0,0:0:0:0:
36,192,25279,1,0,0:0:0:0:
475,192,25279,1,0,0:0:0:0:
182,192,25279,1,0,0:0:0:0:
329,192,25372,1,0,0:0:0:0:
182,192,25466,1,0,0:0:0:0:
36,192,25654,1,0,0:0:0:0:
109,192,25654,1,0,0:0:0:0:
475,192,25654,1,0,0:0:0:0:
256,192,25747,1,0,0:0:0:0:
402,192,25841,1,0,0:0:0:0:
36,192,26029,1,0,0:0:0:0:
475,192,26029,1,0,0:0:0:0:
182,192,26029,1,0,0:0:0:0:
329,192,26122,1,0,0:0:0:0:
475,192,26216,1,0,0:0:0:0:
36,192,26404,1,0,0:0:0:0:
109,192,26404,1,0,0:0:0:0:
256,192,26404,1,0,0:0:0:0:
329,192,26497,1,0,0:0:0:0:
402,192,26591,1,0,0:0:0:0:
36,192,26779,1,0,0:0:0:0:
329,192,26779,1,0,0:0:0:0:
182,192,26779,1,0,0:0:0:0:
256,192,26872,1,0,0:0:0:0:
402,192,26966,1,0,0:0:0:0:
36,192,27154,1,0,0:0:0:0:
109,192,27154,1,0,0:0:0:0:
475,192,27154,1,0,0:0:0:0:
329,192,27247,1,0,0:0:0:0:
182,192,27341,1,0,0:0:0:0:
36,192,27529,1,0,0:0:0:0:
475,192,27529,1,0,0:0:0:0:
182,192,27529,1,0,0:0:0:0:
256,192,27529,1,0,0:0:0:0:
329,192,27622,1,0,0:0:0:0:
475,192,27716,1,0,0:0:0:0:
36,192,27904,1,0,0:0:0:0:
109,192,27904,1,0,0:0:0:0:
256,192,27904,1,0,0:0:0:0:
329,192,27997,1,0,0:0:0:0:
402,192,28091,1,0,0:0:0:0:
256,192,28091,1,0,0:0:0:0:
36,192,28279,1,0,0:0:0:0:
475,192,28279,1,0,0:0:0:0:
182,192,28279,1,0,0:0:0:0:
329,192,28372,1,0,0:0:0:0:
475,192,28466,1,0,0:0:0:0:
36,192,28654,1,0,0:0:0:0:
109,192,28654,1,0,0:0:0:0:
256,192,28654,1,0,0:0:0:0:
475,192,28654,1,0,0:0:0:0:
329,192,28747,1,0,0:0:0:0:
402,192,28841,1,0,0:0:0:0:
182,192,29029,1,0,0:0:0:0:
256,192,29029,1,0,0:0:0:0:
475,192,29029,1,0,0:0:0:0:
402,192,29029,1,0,0:0:0:0:
182,192,29310,1,0,0:0:0:0:
109,192,29310,1,0,0:0:0:0:
329,192,29310,1,0,0:0:0:0:
402,192,29310,1,0,0:0:0:0:
36,192,29591,1,0,0:0:0:0:
109,192,29591,1,0,0:0:0:0:
256,192,29591,1,0,0:0:0:0:
329,192,29591,1,0,0:0:0:0:
36,192,29966,1,0,0:0:0:0:
109,192,29966,1,0,0:0:0:0:
256,192,30154,1,0,0:0:0:0:
329,192,30341,1,0,0:0:0:0:
36,192,30529,1,0,0:0:0:0:
109,192,30529,1,0,0:0:0:0:
402,192,30529,1,0,0:0:0:0:
475,192,30529,1,0,0:0:0:0:
256,192,30529,1,0,0:0:0:0:
182,192,30904,1,0,0:0:0:0:
329,192,30904,1,0,0:0:0:0:
109,192,30904,1,0,0:0:0:0:
402,192,30904,1,0,0:0:0:0:
256,192,31091,1,0,0:0:0:0:
36,192,31279,1,0,0:0:0:0:
109,192,31279,1,0,0:0:0:0:
402,192,31279,1,0,0:0:0:0:
475,192,31279,1,0,0:0:0:0:
182,192,31654,1,0,0:0:0:0:
329,192,31654,1,0,0:0:0:0:
402,192,31654,1,0,0:0:0:0:
109,192,31654,1,0,0:0:0:0:
256,192,31841,1,0,0:0:0:0:
36,192,32029,1,0,0:0:0:0:
109,192,32029,1,0,0:0:0:0:
402,192,32029,1,0,0:0:0:0:
475,192,32029,1,0,0:0:0:0:
182,192,32404,1,0,0:0:0:0:
329,192,32404,1,0,0:0:0:0:
109,192,32404,1,0,0:0:0:0:
402,192,32404,1,0,0:0:0:0:
256,192,32591,1,0,0:0:0:0:
402,192,32779,1,0,0:0:0:0:
109,192,32779,1,0,0:0:0:0:
36,192,32779,1,0,0:0:0:0:
475,192,32779,1,0,0:0:0:0:
329,192,33060,1,0,0:0:0:0:
402,192,33060,1,0,0:0:0:0:
182,192,33154,1,0,0:0:0:0:
109,192,33154,1,0,0:0:0:0:
256,192,33341,1,0,0:0:0:0:
329,192,33341,1,0,0:0:0:0:
475,192,33529,1,0,0:0:0:0:
329,192,33529,1,0,0:0:0:0:
182,192,33529,1,0,0:0:0:0:
36,192,33529,1,0,0:0:0:0:
109,192,33716,1,0,0:0:0:0:
182,192,33716,1,0,0:0:0:0:
329,192,33716,1,0,0:0:0:0:
402,192,33716,1,0,0:0:0:0:
36,192,33904,1,0,0:0:0:0:
182,192,33904,1,0,0:0:0:0:
329,192,33904,1,0,0:0:0:0:
475,192,33904,1,0,0:0:0:0:
475,192,34091,1,0,0:0:0:0:
402,192,34091,1,0,0:0:0:0:
109,192,34091,1,0,0:0:0:0:
36,192,34091,1,0,0:0:0:0:
36,192,34279,1,0,0:0:0:0:
182,192,34279,1,0,0:0:0:0:
329,192,34279,1,0,0:0:0:0:
475,192,34279,1,0,0:0:0:0:
109,192,34466,1,0,0:0:0:0:
182,192,34466,1,0,0:0:0:0:
329,192,34466,1,0,0:0:0:0:
402,192,34466,1,0,0:0:0:0:
36,192,34654,1,0,0:0:0:0:
182,192,34654,1,0,0:0:0:0:
329,192,34654,1,0,0:0:0:0:
475,192,34654,1,0,0:0:0:0:
402,192,34841,1,0,0:0:0:0:
475,192,34841,1,0,0:0:0:0:
109,192,34841,1,0,0:0:0:0:
36,192,34841,1,0,0:0:0:0:
36,192,35029,1,0,0:0:0:0:
182,192,35029,1,0,0:0:0:0:
329,192,35029,1,0,0:0:0:0:
475,192,35029,1,0,0:0:0:0:
256,192,35029,1,0,0:0:0:0:
256,192,36529,1,0,0:0:0:0:
402,192,36529,1,0,0:0:0:0:
36,192,36529,1,0,0:0:0:0:
475,192,36529,1,0,0:0:0:0:
109,192,36622,1,0,0:0:0:0:
182,192,36716,1,0,0:0:0:0:
329,192,36810,1,0,0:0:0:0:
402,192,36810,1,0,0:0:0:0:
256,192,36904,1,0,0:0:0:0:
109,192,36904,1,0,0:0:0:0:
256,192,37091,1,0,0:0:0:0:
329,192,37091,1,0,0:0:0:0:
36,192,37091,1,0,0:0:0:0:
475,192,37279,1,0,0:0:0:0:
402,192,37279,1,0,0:0:0:0:
182,192,37279,1,0,0:0:0:0:
109,192,37372,1,0,0:0:0:0:
256,192,37466,1,0,0:0:0:0:
329,192,37560,1,0,0:0:0:0:
402,192,37560,1,0,0:0:0:0:
36,192,37654,1,0,0:0:0:0:
182,192,37654,1,0,0:0:0:0:
256,192,37841,1,0,0:0:0:0:
329,192,37841,1,0,0:0:0:0:
109,192,37841,1,0,0:0:0:0:
402,192,38029,1,0,0:0:0:0:
475,192,38029,1,0,0:0:0:0:
182,192,38029,1,0,0:0:0:0:
109,192,38122,1,0,0:0:0:0:
256,192,38216,1,0,0:0:0:0:
402,192,38310,1,0,0:0:0:0:
329,192,38310,1,0,0:0:0:0:
36,192,38404,1,0,0:0:0:0:
182,192,38404,1,0,0:0:0:0:
256,192,38591,1,0,0:0:0:0:
329,192,38591,1,0,0:0:0:0:
109,192,38591,1,0,0:0:0:0:
475,192,38779,1,0,0:0:0:0:
402,192,38779,1,0,0:0:0:0:
182,192,38779,1,0,0:0:0:0:
256,192,38872,1,0,0:0:0:0:
329,192,38966,1,0,0:0:0:0:
402,192,38966,1,0,0:0:0:0:
109,192,38966,1,0,0:0:0:0:
475,192,39154,1,0,0:0:0:0:
402,192,39154,1,0,0:0:0:0:
182,192,39154,1,0,0:0:0:0:
36,192,39154,1,0,0:0:0:0:
256,192,39247,1,0,0:0:0:0:
329,192,39341,1,0,0:0:0:0:
402,192,39341,1,0,0:0:0:0:
109,192,39341,1,0,0:0:0:0:
256,192,39529,1,0,0:0:0:0:
109,192,39529,1,0,0:0:0:0:
475,192,39529,1,0,0:0:0:0:
36,192,39529,1,0,0:0:0:0:
402,192,39622,1,0,0:0:0:0:
329,192,39716,1,0,0:0:0:0:
182,192,39810,1,0,0:0:0:0:
109,192,39810,1,0,0:0:0:0:
402,192,39904,1,0,0:0:0:0:
256,192,39904,1,0,0:0:0:0:
475,192,40091,1,0,0:0:0:0:
182,192,40091,1,0,0:0:0:0:
256,192,40091,1,0,0:0:0:0:
329,192,40279,1,0,0:0:0:0:
36,192,40279,1,0,0:0:0:0:
109,192,40279,1,0,0:0:0:0:
402,192,40372,1,0,0:0:0:0:
256,192,40466,1,0,0:0:0:0:
182,192,40560,1,0,0:0:0:0:
109,192,40560,1,0,0:0:0:0:
475,192,40654,1,0,0:0:0:0:
329,192,40654,1,0,0:0:0:0:
402,192,40841,1,0,0:0:0:0:
182,192,40841,1,0,0:0:0:0:
256,192,40841,1,0,0:0:0:0:
36,192,41029,1,0,0:0:0:0:
329,192,41029,1,0,0:0:0:0:
109,192,41029,1,0,0:0:0:0:
402,192,41122,1,0,0:0:0:0:
256,192,41216,1,0,0:0:0:0:
109,192,41310,1,0,0:0:0:0:
182,192,41310,1,0,0:0:0:0:
329,192,41404,1,0,0:0:0:0:
475,192,41404,1,0,0:0:0:0:
256,192,41591,1,0,0:0:0:0:
402,192,41591,1,0,0:0:0:0:
182,192,41591,1,0,0:0:0:0:
182,192,41779,1,0,0:0:0:0:
329,192,41779,1,0,0:0:0:0:
36,192,41779,1,0,0:0:0:0:
109,192,41872,1,0,0:0:0:0:
256,192,41872,1,0,0:0:0:0:
402,192,41872,1,0,0:0:0:0:
182,192,41966,1,0,0:0:0:0:
329,192,41966,1,0,0:0:0:0:
475,192,41966,1,0,0:0:0:0:
256,192,42060,1,0,0:0:0:0:
402,192,42060,1,0,0:0:0:0:
36,192,42060,1,0,0:0:0:0:
329,192,42154,1,0,0:0:0:0:
475,192,42154,1,0,0:0:0:0:
182,192,42154,1,0,0:0:0:0:
402,192,42247,1,0,0:0:0:0:
109,192,42247,1,0,0:0:0:0:
256,192,42247,1,0,0:0:0:0:
182,192,42341,1,0,0:0:0:0:
329,192,42341,1,0,0:0:0:0:
256,192,42435,1,0,0:0:0:0:
109,192,42435,1,0,0:0:0:0:
402,192,42435,1,0,0:0:0:0:
36,192,42529,1,0,0:0:0:0:
182,192,42529,1,0,0:0:0:0:
329,192,42529,1,0,0:0:0:0:
475,192,42529,1,0,0:0:0:0:
109,192,42622,1,0,0:0:0:0:
182,192,42716,1,0,0:0:0:0:
256,192,42810,1,0,0:0:0:0:
402,192,42810,1,0,0:0:0:0:
475,192,42904,1,0,0:0:0:0:
109,192,42904,1,0,0:0:0:0:
182,192,43091,1,0,0:0:0:0:
329,192,43091,1,0,0:0:0:0:
36,192,43091,1,0,0:0:0:0:
475,192,43279,1,0,0:0:0:0:
109,192,43279,1,0,0:0:0:0:
329,192,43279,1,0,0:0:0:0:
182,192,43372,1,0,0:0:0:0:
36,192,43466,1,0,0:0:0:0:
256,192,43560,1,0,0:0:0:0:
402,192,43560,1,0,0:0:0:0:
475,192,43654,1,0,0:0:0:0:
109,192,43654,1,0,0:0:0:0:
36,192,43841,1,0,0:0:0:0:
329,192,43841,1,0,0:0:0:0:
182,192,43841,1,0,0:0:0:0:
402,192,44029,1,0,0:0:0:0:
109,192,44029,1,0,0:0:0:0:
475,192,44029,1,0,0:0:0:0:
182,192,44122,1,0,0:0:0:0:
256,192,44216,1,0,0:0:0:0:
402,192,44310,1,0,0:0:0:0:
329,192,44310,1,0,0:0:0:0:
36,192,44404,1,0,0:0:0:0:
182,192,44404,1,0,0:0:0:0:
256,192,44591,1,0,0:0:0:0:
329,192,44591,1,0,0:0:0:0:
109,192,44591,1,0,0:0:0:0:
182,192,44779,1,0,0:0:0:0:
402,192,44779,1,0,0:0:0:0:
475,192,44779,1,0,0:0:0:0:
256,192,44872,1,0,0:0:0:0:
402,192,44966,1,0,0:0:0:0:
109,192,44966,1,0,0:0:0:0:
329,192,44966,1,0,0:0:0:0:
182,192,45154,1,0,0:0:0:0:
402,192,45154,1,0,0:0:0:0:
36,192,45154,1,0,0:0:0:0:
475,192,45154,1,0,0:0:0:0:
256,192,45247,1,0,0:0:0:0:
402,192,45341,1,0,0:0:0:0:
109,192,45341,1,0,0:0:0:0:
329,192,45341,1,0,0:0:0:0:
256,192,45529,1,0,0:0:0:0:
36,192,45529,1,0,0:0:0:0:
109,192,45529,1,0,0:0:0:0:
475,192,45529,1,0,0:0:0:0:
402,192,45622,1,0,0:0:0:0:
329,192,45716,1,0,0:0:0:0:
182,192,45810,1,0,0:0:0:0:
109,192,45810,1,0,0:0:0:0:
329,192,45904,1,0,0:0:0:0:
402,192,45904,1,0,0:0:0:0:
256,192,46091,1,0,0:0:0:0:
475,192,46091,1,0,0:0:0:0:
182,192,46091,1,0,0:0:0:0:
109,192,46279,1,0,0:0:0:0:
36,192,46279,1,0,0:0:0:0:
402,192,46279,1,0,0:0:0:0:
475,192,46279,1,0,0:0:0:0:
329,192,46372,1,0,0:0:0:0:
256,192,46466,1,0,0:0:0:0:
182,192,46560,1,0,0:0:0:0:
109,192,46560,1,0,0:0:0:0:
475,192,46654,1,0,0:0:0:0:
329,192,46654,1,0,0:0:0:0:
182,192,46841,1,0,0:0:0:0:
256,192,46841,1,0,0:0:0:0:
402,192,46841,1,0,0:0:0:0:
475,192,47029,1,0,0:0:0:0:
329,192,47029,1,0,0:0:0:0:
402,192,47029,1,0,0:0:0:0:
182,192,47029,1,0,0:0:0:0:
109,192,47310,1,0,0:0:0:0:
256,192,47310,1,0,0:0:0:0:
329,192,47310,1,0,0:0:0:0:
402,192,47310,1,0,0:0:0:0:
329,192,47591,1,0,0:0:0:0:
256,192,47591,1,0,0:0:0:0:
182,192,47591,1,0,0:0:0:0:
36,192,47591,1,0,0:0:0:0:
36,192,47779,1,0,0:0:0:30:soft-hitclap.wav
475,192,47779,1,0,0:0:0:0:
329,192,47779,1,0,0:0:0:0:
109,192,47825,1,0,0:0:0:30:soft-hitclap.wav
182,192,47872,1,0,0:0:0:30:soft-hitclap.wav
402,192,47872,1,0,0:0:0:0:
256,192,47919,1,0,0:0:0:30:soft-hitclap.wav
36,192,47966,1,0,0:0:0:30:soft-hitclap.wav
475,192,47966,1,0,0:0:0:0:
329,192,47966,1,0,0:0:0:0:
109,192,48013,1,0,0:0:0:30:soft-hitclap.wav
182,192,48060,1,0,0:0:0:30:soft-hitclap.wav
402,192,48060,1,0,0:0:0:0:
256,192,48107,1,0,0:0:0:30:soft-hitclap.wav
329,192,48154,1,0,0:0:0:0:
36,192,48154,1,0,0:0:0:40:soft-hitclap.wav
475,192,48154,1,0,0:0:0:0:
109,192,48200,1,0,0:0:0:40:soft-hitclap.wav
402,192,48247,1,0,0:0:0:0:
182,192,48247,1,0,0:0:0:40:soft-hitclap.wav
256,192,48294,1,0,0:0:0:40:soft-hitclap.wav
329,192,48341,1,0,0:0:0:0:
36,192,48341,1,0,0:0:0:40:soft-hitclap.wav
475,192,48341,1,0,0:0:0:0:
109,192,48388,1,0,0:0:0:40:soft-hitclap.wav
402,192,48435,1,0,0:0:0:0:
182,192,48435,1,0,0:0:0:40:soft-hitclap.wav
256,192,48482,1,0,0:0:0:40:soft-hitclap.wav
36,192,48529,1,0,0:0:0:0:
109,192,48529,1,0,0:0:0:0:
329,192,48529,1,0,0:0:0:0:
475,192,48529,1,0,0:0:0:0:
182,192,48622,1,0,0:0:0:0:
36,192,48716,1,0,0:0:0:0:
256,192,48810,1,0,0:0:0:0:
402,192,48810,1,0,0:0:0:0:
475,192,48904,1,0,0:0:0:0:
109,192,48904,1,0,0:0:0:0:
36,192,49091,1,0,0:0:0:0:
329,192,49091,1,0,0:0:0:0:
182,192,49091,1,0,0:0:0:0:
182,192,49279,1,0,0:0:0:0:
402,192,49279,1,0,0:0:0:0:
475,192,49279,1,0,0:0:0:0:
109,192,49372,1,0,0:0:0:0:
256,192,49466,1,0,0:0:0:0:
402,192,49560,1,0,0:0:0:0:
329,192,49560,1,0,0:0:0:0:
182,192,49654,1,0,0:0:0:0:
36,192,49654,1,0,0:0:0:0:
109,192,49841,1,0,0:0:0:0:
329,192,49841,1,0,0:0:0:0:
256,192,49841,1,0,0:0:0:0:
475,192,50029,1,0,0:0:0:0:
182,192,50029,1,0,0:0:0:0:
402,192,50029,1,0,0:0:0:0:
109,192,50122,1,0,0:0:0:0:
256,192,50216,1,0,0:0:0:0:
329,192,50310,1,0,0:0:0:0:
402,192,50310,1,0,0:0:0:0:
182,192,50404,1,0,0:0:0:0:
36,192,50404,1,0,0:0:0:0:
109,192,50591,1,0,0:0:0:0:
329,192,50591,1,0,0:0:0:0:
256,192,50591,1,0,0:0:0:0:
182,192,50779,1,0,0:0:0:0:
402,192,50779,1,0,0:0:0:0:
475,192,50779,1,0,0:0:0:0:
256,192,50872,1,0,0:0:0:0:
329,192,50966,1,0,0:0:0:0:
402,192,50966,1,0,0:0:0:0:
109,192,50966,1,0,0:0:0:0:
36,192,51154,1,0,0:0:0:0:
182,192,51154,1,0,0:0:0:0:
402,192,51154,1,0,0:0:0:0:
475,192,51154,1,0,0:0:0:0:
256,192,51247,1,0,0:0:0:0:
329,192,51341,1,0,0:0:0:0:
109,192,51341,1,0,0:0:0:0:
402,192,51341,1,0,0:0:0:0:
109,192,51529,1,0,0:0:0:0:
36,192,51529,1,0,0:0:0:0:
475,192,51529,1,0,0:0:0:0:
256,192,51529,1,0,0:0:0:0:
402,192,51622,1,0,0:0:0:0:
329,192,51716,1,0,0:0:0:0:
182,192,51810,1,0,0:0:0:0:
109,192,51810,1,0,0:0:0:0:
402,192,51904,1,0,0:0:0:0:
256,192,51904,1,0,0:0:0:0:
475,192,52091,1,0,0:0:0:0:
256,192,52091,1,0,0:0:0:0:
182,192,52091,1,0,0:0:0:0:
36,192,52279,1,0,0:0:0:0:
109,192,52279,1,0,0:0:0:0:
329,192,52279,1,0,0:0:0:0:
402,192,52372,1,0,0:0:0:0:
256,192,52466,1,0,0:0:0:0:
109,192,52560,1,0,0:0:0:0:
182,192,52560,1,0,0:0:0:0:
329,192,52654,1,0,0:0:0:0:
475,192,52654,1,0,0:0:0:0:
402,192,52841,1,0,0:0:0:0:
256,192,52841,1,0,0:0:0:0:
182,192,52841,1,0,0:0:0:0:
109,192,53029,1,0,0:0:0:0:
329,192,53029,1,0,0:0:0:0:
36,192,53029,1,0,0:0:0:0:
402,192,53122,1,0,0:0:0:0:
256,192,53216,1,0,0:0:0:0:
109,192,53310,1,0,0:0:0:0:
182,192,53310,1,0,0:0:0:0:
329,192,53404,1,0,0:0:0:0:
475,192,53404,1,0,0:0:0:0:
402,192,53591,1,0,0:0:0:0:
256,192,53591,1,0,0:0:0:0:
182,192,53591,1,0,0:0:0:0:
36,192,53779,1,0,0:0:0:0:
109,192,53779,1,0,0:0:0:0:
329,192,53779,1,0,0:0:0:0:
475,192,53779,1,0,0:0:0:0:
256,192,53966,1,0,0:0:0:0:
402,192,53966,1,0,0:0:0:0:
182,192,54154,1,0,0:0:0:0:
329,192,54154,1,0,0:0:0:50:soft-hitclap.wav
475,192,54247,1,0,0:0:0:50:soft-hitclap.wav
36,192,54247,1,0,0:0:0:0:
329,192,54341,1,0,0:0:0:50:soft-hitclap.wav
182,192,54341,1,0,0:0:0:0:
402,192,54435,1,0,0:0:0:50:soft-hitclap.wav
109,192,54435,1,0,0:0:0:0:
329,192,54529,1,0,0:0:0:0:
182,192,54529,1,0,0:0:0:0:
36,192,54529,1,0,0:0:0:0:
475,192,54529,1,0,0:0:0:0:
109,192,54622,1,0,0:0:0:0:
182,192,54716,1,0,0:0:0:0:
256,192,54810,1,0,0:0:0:0:
402,192,54810,1,0,0:0:0:0:
109,192,54904,1,0,0:0:0:0:
475,192,54904,1,0,0:0:0:0:
182,192,55091,1,0,0:0:0:0:
329,192,55091,1,0,0:0:0:0:
36,192,55091,1,0,0:0:0:0:
329,192,55279,1,0,0:0:0:0:
475,192,55279,1,0,0:0:0:0:
109,192,55279,1,0,0:0:0:0:
182,192,55372,1,0,0:0:0:0:
36,192,55466,1,0,0:0:0:0:
256,192,55560,1,0,0:0:0:0:
402,192,55560,1,0,0:0:0:0:
475,192,55654,1,0,0:0:0:0:
109,192,55654,1,0,0:0:0:0:
36,192,55841,1,0,0:0:0:0:
182,192,55841,1,0,0:0:0:0:
329,192,55841,1,0,0:0:0:0:
402,192,56029,1,0,0:0:0:0:
475,192,56029,1,0,0:0:0:0:
109,192,56029,1,0,0:0:0:0:
182,192,56122,1,0,0:0:0:0:
256,192,56216,1,0,0:0:0:0:
329,192,56310,1,0,0:0:0:0:
402,192,56310,1,0,0:0:0:0:
36,192,56404,1,0,0:0:0:0:
182,192,56404,1,0,0:0:0:0:
256,192,56591,1,0,0:0:0:0:
109,192,56591,1,0,0:0:0:0:
329,192,56591,1,0,0:0:0:0:
182,192,56779,1,0,0:0:0:0:
475,192,56779,1,0,0:0:0:0:
402,192,56779,1,0,0:0:0:0:
256,192,56872,1,0,0:0:0:0:
109,192,56966,1,0,0:0:0:0:
402,192,56966,1,0,0:0:0:0:
329,192,56966,1,0,0:0:0:0:
402,192,57154,1,0,0:0:0:0:
182,192,57154,1,0,0:0:0:0:
475,192,57154,1,0,0:0:0:0:
36,192,57154,1,0,0:0:0:0:
256,192,57247,1,0,0:0:0:0:
402,192,57341,1,0,0:0:0:0:
329,192,57341,1,0,0:0:0:0:
109,192,57341,1,0,0:0:0:0:
256,192,57529,1,0,0:0:0:0:
36,192,57529,1,0,0:0:0:0:
109,192,57529,1,0,0:0:0:0:
475,192,57529,1,0,0:0:0:0:
402,192,57622,1,0,0:0:0:0:
329,192,57716,1,0,0:0:0:0:
109,192,57810,1,0,0:0:0:0:
182,192,57810,1,0,0:0:0:0:
329,192,57904,1,0,0:0:0:0:
402,192,57904,1,0,0:0:0:0:
256,192,58091,1,0,0:0:0:0:
182,192,58091,1,0,0:0:0:0:
475,192,58091,1,0,0:0:0:0:
36,192,58279,1,0,0:0:0:0:
475,192,58279,1,0,0:0:0:0:
402,192,58279,1,0,0:0:0:0:
109,192,58279,1,0,0:0:0:0:
329,192,58372,1,0,0:0:0:0:
256,192,58466,1,0,0:0:0:0:
109,192,58560,1,0,0:0:0:0:
182,192,58560,1,0,0:0:0:0:
329,192,58654,1,0,0:0:0:0:
475,192,58654,1,0,0:0:0:0:
402,192,58841,1,0,0:0:0:0:
182,192,58841,1,0,0:0:0:0:
256,192,58841,1,0,0:0:0:0:
329,192,59029,1,0,0:0:0:0:
475,192,59029,1,0,0:0:0:0:
182,192,59029,1,0,0:0:0:0:
402,192,59029,1,0,0:0:0:0:
329,192,59310,1,0,0:0:0:0:
402,192,59310,1,0,0:0:0:0:
256,192,59310,1,0,0:0:0:0:
109,192,59310,1,0,0:0:0:0:
182,192,59591,1,0,0:0:0:0:
36,192,59591,1,0,0:0:0:0:
256,192,59591,1,0,0:0:0:0:
329,192,59591,1,0,0:0:0:0:
475,192,59779,1,0,0:0:0:0:
36,192,59779,1,0,0:0:0:0:
402,192,59872,1,0,0:0:0:0:
109,192,59872,1,0,0:0:0:0:
182,192,59966,1,0,0:0:0:0:
329,192,59966,1,0,0:0:0:0:
402,192,60060,1,0,0:0:0:0:
109,192,60060,1,0,0:0:0:0:
475,192,60154,1,0,0:0:0:40:soft-hitclap.wav
36,192,60154,1,0,0:0:0:0:
402,192,60200,1,0,0:0:0:40:soft-hitclap.wav
109,192,60200,1,0,0:0:0:0:
329,192,60247,1,0,0:0:0:40:soft-hitclap.wav
182,192,60247,1,0,0:0:0:0:
256,192,60294,1,0,0:0:0:40:soft-hitclap.wav
475,192,60341,1,0,0:0:0:40:soft-hitclap.wav
36,192,60341,1,0,0:0:0:0:
402,192,60388,1,0,0:0:0:40:soft-hitclap.wav
109,192,60388,1,0,0:0:0:0:
182,192,60435,1,0,0:0:0:0:
329,192,60435,1,0,0:0:0:40:soft-hitclap.wav
256,192,60482,1,0,0:0:0:40:soft-hitclap.wav
475,192,60529,1,0,0:0:0:0:
402,192,60529,1,0,0:0:0:0:
36,192,60529,1,0,0:0:0:0:
329,192,60810,1,0,0:0:0:0:
256,192,60810,1,0,0:0:0:0:
36,192,60904,1,0,0:0:0:0:
109,192,60904,1,0,0:0:0:0:
475,192,61091,1,0,0:0:0:0:
402,192,61091,1,0,0:0:0:0:
36,192,61279,1,0,0:0:0:0:
329,192,61279,1,0,0:0:0:0:
256,192,61279,1,0,0:0:0:0:
182,192,61372,1,0,0:0:0:0:
329,192,61372,1,0,0:0:0:0:
36,192,61654,1,0,0:0:0:0:
109,192,61654,1,0,0:0:0:0:
256,192,61654,1,0,0:0:0:0:
402,192,61654,1,0,0:0:0:0:
329,192,61841,1,0,0:0:0:0:
475,192,61841,1,0,0:0:0:0:
36,192,62029,1,0,0:0:0:0:
182,192,62029,1,0,0:0:0:0:
256,192,62029,1,0,0:0:0:0:
256,192,62310,1,0,0:0:0:0:
329,192,62310,1,0,0:0:0:0:
109,192,62404,1,0,0:0:0:0:
36,192,62404,1,0,0:0:0:0:
329,192,62591,1,0,0:0:0:0:
402,192,62591,1,0,0:0:0:0:
36,192,62779,1,0,0:0:0:0:
182,192,62779,1,0,0:0:0:0:
475,192,62779,1,0,0:0:0:0:
402,192,62872,1,0,0:0:0:0:
256,192,62872,1,0,0:0:0:0:
109,192,63154,1,0,0:0:0:0:
36,192,63154,1,0,0:0:0:0:
256,192,63154,1,0,0:0:0:0:
329,192,63154,1,0,0:0:0:0:
329,192,63341,1,0,0:0:0:0:
402,192,63341,1,0,0:0:0:0:
36,192,63529,1,0,0:0:0:0:
182,192,63529,1,0,0:0:0:0:
402,192,63529,1,0,0:0:0:0:
256,192,63810,1,0,0:0:0:0:
329,192,63810,1,0,0:0:0:0:
36,192,63904,1,0,0:0:0:0:
109,192,63904,1,0,0:0:0:0:
329,192,64091,1,0,0:0:0:0:
402,192,64091,1,0,0:0:0:0:
36,192,64279,1,0,0:0:0:0:
256,192,64279,1,0,0:0:0:0:
402,192,64279,1,0,0:0:0:0:
182,192,64372,1,0,0:0:0:0:
475,192,64372,1,0,0:0:0:0:
36,192,64654,1,0,0:0:0:0:
109,192,64654,1,0,0:0:0:0:
402,192,64654,1,0,0:0:0:0:
256,192,64654,1,0,0:0:0:0:
329,192,64841,1,0,0:0:0:0:
475,192,64841,1,0,0:0:0:0:
36,192,65029,1,0,0:0:0:0:
475,192,65029,1,0,0:0:0:0:
402,192,65029,1,0,0:0:0:0:
256,192,65216,1,0,0:0:0:0:
109,192,65404,1,0,0:0:0:0:
36,192,65404,1,0,0:0:0:0:
402,192,65404,1,0,0:0:0:0:
475,192,65404,1,0,0:0:0:0:
182,192,65591,1,0,0:0:0:0:
36,192,65779,1,0,0:0:0:0:
329,192,65779,1,0,0:0:0:0:
475,192,65779,1,0,0:0:0:0:
256,192,65779,1,0,0:0:0:0:
402,192,65872,1,0,0:0:0:0:
329,192,65966,1,0,0:0:0:0:
402,192,66060,1,0,0:0:0:0:
109,192,66154,1,0,0:0:0:0:
36,192,66154,1,0,0:0:0:0:
256,192,66154,1,0,0:0:0:0:
329,192,66154,1,0,0:0:0:0:
475,192,66154,1,0,0:0:0:0:
402,192,66247,1,0,0:0:0:0:
329,192,66341,1,0,0:0:0:0:
256,192,66435,1,0,0:0:0:0:
475,192,66529,1,0,0:0:0:0:
402,192,66529,1,0,0:0:0:0:
182,192,66529,1,0,0:0:0:0:
329,192,66529,1,0,0:0:0:0:
36,192,66529,1,0,0:0:0:0:
109,192,66622,1,0,0:0:0:0:
182,192,66716,1,0,0:0:0:0:
256,192,66810,1,0,0:0:0:0:
402,192,66810,1,0,0:0:0:0:
36,192,66904,1,0,0:0:0:0:
109,192,66904,1,0,0:0:0:0:
475,192,66904,1,0,0:0:0:0:
182,192,66997,1,0,0:0:0:0:
329,192,67091,1,0,0:0:0:0:
475,192,67091,1,0,0:0:0:0:
256,192,67185,1,0,0:0:0:0:
182,192,67279,1,0,0:0:0:0:
402,192,67279,1,0,0:0:0:0:
36,192,67279,1,0,0:0:0:0:
329,192,67372,1,0,0:0:0:0:
256,192,67372,1,0,0:0:0:0:
475,192,67466,1,0,0:0:0:0:
182,192,67560,1,0,0:0:0:0:
256,192,67654,1,0,0:0:0:0:
109,192,67654,1,0,0:0:0:0:
402,192,67654,1,0,0:0:0:0:
36,192,67654,1,0,0:0:0:0:
329,192,67747,1,0,0:0:0:0:
475,192,67841,1,0,0:0:0:0:
182,192,67841,1,0,0:0:0:0:
329,192,67935,1,0,0:0:0:0:
36,192,68029,1,0,0:0:0:0:
256,192,68029,1,0,0:0:0:0:
182,192,68029,1,0,0:0:0:0:
402,192,68122,1,0,0:0:0:0:
329,192,68216,1,0,0:0:0:0:
256,192,68310,1,0,0:0:0:0:
402,192,68310,1,0,0:0:0:0:
109,192,68404,1,0,0:0:0:0:
36,192,68404,1,0,0:0:0:0:
329,192,68404,1,0,0:0:0:0:
182,192,68497,1,0,0:0:0:0:
329,192,68591,1,0,0:0:0:0:
475,192,68591,1,0,0:0:0:0:
256,192,68685,1,0,0:0:0:0:
36,192,68779,1,0,0:0:0:0:
182,192,68779,1,0,0:0:0:0:
475,192,68779,1,0,0:0:0:0:
256,192,68872,1,0,0:0:0:0:
402,192,68872,1,0,0:0:0:0:
329,192,68966,1,0,0:0:0:0:
475,192,69060,1,0,0:0:0:0:
329,192,69154,1,0,0:0:0:0:
36,192,69154,1,0,0:0:0:0:
109,192,69154,1,0,0:0:0:0:
256,192,69154,1,0,0:0:0:0:
475,192,69247,1,0,0:0:0:0:
402,192,69341,1,0,0:0:0:0:
329,192,69341,1,0,0:0:0:0:
256,192,69435,1,0,0:0:0:0:
36,192,69529,1,0,0:0:0:0:
109,192,69529,1,0,0:0:0:0:
182,192,69529,1,0,0:0:0:0:
109,192,69810,1,0,0:0:0:0:
182,192,69810,1,0,0:0:0:0:
256,192,69810,1,0,0:0:0:0:
182,192,70091,1,0,0:0:0:0:
256,192,70091,1,0,0:0:0:0:
329,192,70091,1,0,0:0:0:0:
36,192,70279,1,0,0:0:0:0:
109,192,70279,1,0,0:0:0:0:
182,192,70279,1,0,0:0:0:0:
256,192,70279,1,0,0:0:0:0:
329,192,70560,1,0,0:0:0:0:
256,192,70560,1,0,0:0:0:0:
182,192,70560,1,0,0:0:0:0:
109,192,70560,1,0,0:0:0:0:
182,192,70841,1,0,0:0:0:0:
256,192,70841,1,0,0:0:0:0:
329,192,70841,1,0,0:0:0:0:
402,192,70841,1,0,0:0:0:0:
36,192,71029,1,0,0:0:0:0:
109,192,71029,1,0,0:0:0:0:
182,192,71029,1,0,0:0:0:0:
256,192,71029,1,0,0:0:0:0:
329,192,71029,1,0,0:0:0:0:
109,192,71310,1,0,0:0:0:0:
182,192,71310,1,0,0:0:0:0:
256,192,71310,1,0,0:0:0:0:
329,192,71310,1,0,0:0:0:0:
402,192,71310,1,0,0:0:0:0:
182,192,71591,1,0,0:0:0:0:
256,192,71591,1,0,0:0:0:0:
329,192,71591,1,0,0:0:0:0:
402,192,71591,1,0,0:0:0:0:
475,192,71591,1,0,0:0:0:0:
36,192,71779,1,0,0:0:0:0:
109,192,71779,1,0,0:0:0:0:
182,192,71779,1,0,0:0:0:50:soft-hitclap.wav
329,192,71779,1,0,0:0:0:0:
402,192,71779,1,0,0:0:0:0:
475,192,71779,1,0,0:0:0:0:
329,192,71872,1,0,0:0:0:50:soft-hitclap.wav
182,192,71966,1,0,0:0:0:50:soft-hitclap.wav
329,192,72060,1,0,0:0:0:50:soft-hitclap.wav
182,192,72154,1,0,0:0:0:50:soft-hitclap.wav
329,192,72247,1,0,0:0:0:50:soft-hitclap.wav
182,192,72341,1,0,0:0:0:50:soft-hitclap.wav
329,192,72435,1,0,0:0:0:50:soft-hitclap.wav
256,192,72529,1,0,0:0:0:0:
109,192,72529,1,0,0:0:0:50:soft-hitclap.wav
329,192,72716,1,0,0:0:0:0:
402,192,72904,1,0,0:0:0:0:
475,192,73091,1,0,0:0:0:0:
182,192,73279,1,0,0:0:0:0:
36,192,73279,1,0,0:0:0:0:
256,192,73466,1,0,0:0:0:0:
329,192,73654,1,0,0:0:0:0:
402,192,73841,1,0,0:0:0:0:
109,192,74029,1,0,0:0:0:0:
329,192,74029,1,0,0:0:0:0:
182,192,74216,1,0,0:0:0:0:
256,192,74404,1,0,0:0:0:0:
329,192,74591,1,0,0:0:0:0:
402,192,74779,1,0,0:0:0:0:
109,192,75529,1,0,0:0:0:0:
256,192,75529,1,0,0:0:0:0:
329,192,75716,1,0,0:0:0:0:
402,192,75904,1,0,0:0:0:0:
475,192,76091,1,0,0:0:0:0:
256,192,76279,1,0,0:0:0:0:
36,192,76279,1,0,0:0:0:0:
109,192,76466,1,0,0:0:0:0:
182,192,76654,1,0,0:0:0:0:
256,192,76841,1,0,0:0:0:0:
182,192,77029,1,0,0:0:0:0:
36,192,77029,1,0,0:0:0:0:
402,192,77029,1,0,0:0:0:0:
109,192,77216,1,0,0:0:0:0:
329,192,77216,1,0,0:0:0:0:
256,192,77404,1,0,0:0:0:0:
36,192,77404,1,0,0:0:0:0:
475,192,77591,1,0,0:0:0:0:
402,192,77591,1,0,0:0:0:0:
182,192,77779,1,0,0:0:0:0:
329,192,77779,1,0,0:0:0:0:
109,192,77966,1,0,0:0:0:0:
256,192,77966,1,0,0:0:0:0:
182,192,78154,1,0,0:0:0:0:
36,192,78154,1,0,0:0:0:0:
402,192,78341,1,0,0:0:0:0:
329,192,78341,1,0,0:0:0:0:
475,192,78529,1,0,0:0:0:0:
182,192,78529,1,0,0:0:0:0:
36,192,78529,1,0,0:0:0:0:
329,192,78622,1,0,0:0:0:0:
475,192,78716,1,0,0:0:0:0:
182,192,78716,1,0,0:0:0:0:
109,192,78904,1,0,0:0:0:0:
256,192,78904,1,0,0:0:0:0:
402,192,78997,1,0,0:0:0:0:
109,192,79091,1,0,0:0:0:0:
256,192,79091,1,0,0:0:0:0:
36,192,79279,1,0,0:0:0:0:
182,192,79279,1,0,0:0:0:0:
475,192,79279,1,0,0:0:0:0:
329,192,79372,1,0,0:0:0:0:
475,192,79466,1,0,0:0:0:0:
182,192,79466,1,0,0:0:0:0:
402,192,79654,1,0,0:0:0:0:
256,192,79654,1,0,0:0:0:0:
109,192,79747,1,0,0:0:0:0:
402,192,79841,1,0,0:0:0:0:
256,192,79841,1,0,0:0:0:0:
36,192,80029,1,0,0:0:0:0:
182,192,80029,1,0,0:0:0:0:
329,192,80029,1,0,0:0:0:0:
475,192,80122,1,0,0:0:0:0:
329,192,80216,1,0,0:0:0:0:
182,192,80216,1,0,0:0:0:0:
182,192,80404,1,0,0:0:0:0:
329,192,80404,1,0,0:0:0:0:
475,192,80404,1,0,0:0:0:0:
36,192,80497,1,0,0:0:0:0:
182,192,80591,1,0,0:0:0:0:
329,192,80591,1,0,0:0:0:0:
36,192,80779,1,0,0:0:0:0:
182,192,80779,1,0,0:0:0:0:
329,192,80779,1,0,0:0:0:0:
475,192,80872,1,0,0:0:0:0:
329,192,80966,1,0,0:0:0:0:
182,192,80966,1,0,0:0:0:0:
475,192,81154,1,0,0:0:0:0:
329,192,81154,1,0,0:0:0:0:
109,192,81154,1,0,0:0:0:0:
182,192,81247,1,0,0:0:0:0:
256,192,81341,1,0,0:0:0:0:
402,192,81341,1,0,0:0:0:0:
182,192,81529,1,0,0:0:0:0:
329,192,81529,1,0,0:0:0:0:
36,192,81529,1,0,0:0:0:0:
256,192,81622,1,0,0:0:0:0:
109,192,81716,1,0,0:0:0:0:
402,192,81716,1,0,0:0:0:0:
475,192,81904,1,0,0:0:0:0:
329,192,81904,1,0,0:0:0:0:
182,192,81904,1,0,0:0:0:0:
36,192,81997,1,0,0:0:0:0:
182,192,82091,1,0,0:0:0:0:
329,192,82091,1,0,0:0:0:0:
256,192,82279,1,0,0:0:0:0:
402,192,82279,1,0,0:0:0:0:
109,192,82279,1,0,0:0:0:0:
182,192,82372,1,0,0:0:0:0:
475,192,82466,1,0,0:0:0:0:
256,192,82466,1,0,0:0:0:0:
182,192,82654,1,0,0:0:0:0:
329,192,82654,1,0,0:0:0:0:
36,192,82654,1,0,0:0:0:0:
475,192,82747,1,0,0:0:0:0:
256,192,82841,1,0,0:0:0:0:
402,192,82841,1,0,0:0:0:0:
475,192,83029,1,0,0:0:0:0:
329,192,83029,1,0,0:0:0:0:
182,192,83029,1,0,0:0:0:0:
256,192,83216,1,0,0:0:0:0:
402,192,83216,1,0,0:0:0:0:
182,192,83404,1,0,0:0:0:0:
329,192,83404,1,0,0:0:0:0:
256,192,83591,1,0,0:0:0:0:
109,192,83591,1,0,0:0:0:0:
36,192,83779,1,0,0:0:0:0:
182,192,83779,1,0,0:0:0:0:
329,192,83779,1,0,0:0:0:0:
475,192,83779,1,0,0:0:0:0:
402,192,83966,1,0,0:0:0:0:
256,192,83966,1,0,0:0:0:0:
109,192,83966,1,0,0:0:0:0:
182,192,84154,1,0,0:0:0:0:
329,192,84154,1,0,0:0:0:0:
256,192,84341,1,0,0:0:0:0:
36,192,84529,1,0,0:0:0:0:
182,192,84529,1,0,0:0:0:0:
329,192,84529,1,0,0:0:0:0:
475,192,84529,1,0,0:0:0:0:
256,192,84622,1,0,0:0:0:0:
109,192,84716,1,0,0:0:0:0:
402,192,84716,1,0,0:0:0:0:
475,192,84904,1,0,0:0:0:0:
402,192,84904,1,0,0:0:0:0:
329,192,84904,1,0,0:0:0:0:
182,192,84904,1,0,0:0:0:0:
256,192,85091,1,0,0:0:0:0:
109,192,85091,1,0,0:0:0:0:
475,192,85279,1,0,0:0:0:0:
182,192,85279,1,0,0:0:0:0:
36,192,85279,1,0,0:0:0:0:
329,192,85372,1,0,0:0:0:0:
36,192,85466,1,0,0:0:0:0:
182,192,85466,1,0,0:0:0:0:
109,192,85654,1,0,0:0:0:0:
256,192,85654,1,0,0:0:0:0:
475,192,85654,1,0,0:0:0:0:
402,192,85654,1,0,0:0:0:0:
182,192,85841,1,0,0:0:0:0:
402,192,85841,1,0,0:0:0:0:
329,192,86029,1,0,0:0:0:0:
36,192,86029,1,0,0:0:0:0:
475,192,86029,1,0,0:0:0:0:
182,192,86122,1,0,0:0:0:0:
329,192,86216,1,0,0:0:0:0:
475,192,86216,1,0,0:0:0:0:
36,192,86404,1,0,0:0:0:0:
402,192,86404,1,0,0:0:0:0:
109,192,86404,1,0,0:0:0:0:
256,192,86404,1,0,0:0:0:0:
36,192,86591,1,0,0:0:0:0:
329,192,86591,1,0,0:0:0:0:
182,192,86779,1,0,0:0:0:0:
475,192,86779,1,0,0:0:0:0:
329,192,86779,1,0,0:0:0:0:
256,192,86872,1,0,0:0:0:0:
109,192,86966,1,0,0:0:0:0:
182,192,86966,1,0,0:0:0:0:
256,192,87154,1,0,0:0:0:0:
36,192,87154,1,0,0:0:0:0:
329,192,87154,1,0,0:0:0:0:
475,192,87154,1,0,0:0:0:0:
402,192,87341,1,0,0:0:0:0:
182,192,87341,1,0,0:0:0:0:
36,192,87529,1,0,0:0:0:0:
475,192,87529,1,0,0:0:0:0:
256,192,87529,1,0,0:0:0:0:
109,192,87529,1,0,0:0:0:0:
329,192,87622,1,0,0:0:0:0:
475,192,87716,1,0,0:0:0:0:
109,192,87716,1,0,0:0:0:0:
182,192,87904,1,0,0:0:0:0:
36,192,87904,1,0,0:0:0:0:
256,192,87904,1,0,0:0:0:0:
402,192,87904,1,0,0:0:0:0:
475,192,88091,1,0,0:0:0:0:
109,192,88091,1,0,0:0:0:0:
36,192,88279,1,0,0:0:0:0:
182,192,88279,1,0,0:0:0:0:
329,192,88279,1,0,0:0:0:0:
256,192,88279,1,0,0:0:0:0:
402,192,88372,1,0,0:0:0:0:
475,192,88466,1,0,0:0:0:0:
109,192,88466,1,0,0:0:0:0:
402,192,88654,1,0,0:0:0:0:
329,192,88654,1,0,0:0:0:0:
182,192,88654,1,0,0:0:0:0:
36,192,88654,1,0,0:0:0:0:
109,192,88841,1,0,0:0:0:0:
256,192,88841,1,0,0:0:0:0:
402,192,89029,1,0,0:0:0:0:
329,192,89029,1,0,0:0:0:0:
182,192,89029,1,0,0:0:0:0:
256,192,89029,1,0,0:0:0:0:
36,192,89122,1,0,0:0:0:0:
109,192,89122,1,0,0:0:0:0:
109,192,89310,1,0,0:0:0:0:
256,192,89310,1,0,0:0:0:0:
329,192,89310,1,0,0:0:0:0:
182,192,89310,1,0,0:0:0:0:
402,192,89404,1,0,0:0:0:0:
475,192,89404,1,0,0:0:0:0:
182,192,89591,1,0,0:0:0:0:
256,192,89591,1,0,0:0:0:0:
36,192,89591,1,0,0:0:0:0:
109,192,89591,1,0,0:0:0:0:
402,192,89591,1,0,0:0:0:0:
329,192,89591,1,0,0:0:0:0:
402,192,89872,1,0,0:0:0:0:
109,192,89966,1,0,0:0:0:0:
36,192,89966,1,0,0:0:0:0:
475,192,90060,1,0,0:0:0:0:
402,192,90154,1,0,0:0:0:0:
329,192,90247,1,0,0:0:0:0:
256,192,90341,1,0,0:0:0:0:
182,192,90435,1,0,0:0:0:0:
36,192,90529,1,0,0:0:0:0:
109,192,90529,1,0,0:0:0:0:
329,192,90529,1,0,0:0:0:0:
475,192,90529,1,0,0:0:0:0:
256,192,90716,1,0,0:0:0:0:
182,192,90904,1,0,0:0:0:0:
402,192,90904,1,0,0:0:0:0:
329,192,90904,1,0,0:0:0:0:
256,192,91091,1,0,0:0:0:0:
36,192,91279,1,0,0:0:0:0:
402,192,91279,1,0,0:0:0:0:
475,192,91279,1,0,0:0:0:0:
182,192,91279,1,0,0:0:0:0:
256,192,91466,1,0,0:0:0:0:
109,192,91654,1,0,0:0:0:0:
329,192,91654,1,0,0:0:0:0:
182,192,91654,1,0,0:0:0:0:
256,192,91841,1,0,0:0:0:0:
182,192,92029,1,0,0:0:0:0:
475,192,92029,1,0,0:0:0:0:
329,192,92029,1,0,0:0:0:0:
36,192,92091,1,0,0:0:0:0:
182,192,92154,1,0,0:0:0:0:
329,192,92216,1,0,0:0:0:0:
36,192,92216,1,0,0:0:0:0:
475,192,92279,1,0,0:0:0:0:
329,192,92341,1,0,0:0:0:0:
182,192,92404,1,0,0:0:0:0:
475,192,92404,1,0,0:0:0:0:
36,192,92466,1,0,0:0:0:0:
182,192,92529,1,0,0:0:0:0:
329,192,92591,1,0,0:0:0:0:
36,192,92591,1,0,0:0:0:0:
475,192,92654,1,0,0:0:0:0:
329,192,92716,1,0,0:0:0:0:
475,192,92779,1,0,0:0:0:0:
182,192,92779,1,0,0:0:0:0:
36,192,92841,1,0,0:0:0:0:
182,192,92904,1,0,0:0:0:0:
329,192,92966,1,0,0:0:0:0:
36,192,92966,1,0,0:0:0:0:
475,192,93029,1,0,0:0:0:0:
329,192,93091,1,0,0:0:0:0:
182,192,93154,1,0,0:0:0:0:
475,192,93154,1,0,0:0:0:0:
36,192,93216,1,0,0:0:0:0:
182,192,93279,1,0,0:0:0:0:
329,192,93341,1,0,0:0:0:0:
36,192,93341,1,0,0:0:0:0:
475,192,93404,1,0,0:0:0:0:
329,192,93466,1,0,0:0:0:0:
36,192,93529,1,0,0:0:0:0:
475,192,93529,1,0,0:0:0:0:
256,192,93529,1,0,0:0:0:0:
109,192,93716,1,0,0:0:0:0:
182,192,93716,1,0,0:0:0:0:
329,192,93716,1,0,0:0:0:0:
402,192,93716,1,0,0:0:0:0:
475,192,93904,1,0,0:0:0:0:
329,192,93904,1,0,0:0:0:0:
256,192,93904,1,0,0:0:0:0:
182,192,93904,1,0,0:0:0:0:
36,192,93904,1,0,0:0:0:0:
109,192,94091,1,0,0:0:0:0:
36,192,94091,1,0,0:0:0:0:
475,192,94091,1,0,0:0:0:0:
402,192,94091,1,0,0:0:0:0:
36,192,94279,1,0,0:0:0:0:
475,192,94279,1,0,0:0:0:0:
182,192,94279,1,0,0:0:0:0:
329,192,94279,1,0,0:0:0:0:
109,192,94466,1,0,0:0:0:0:
182,192,94466,1,0,0:0:0:0:
329,192,94466,1,0,0:0:0:0:
402,192,94466,1,0,0:0:0:0:
36,192,94654,1,0,0:0:0:0:
182,192,94654,1,0,0:0:0:0:
475,192,94654,1,0,0:0:0:0:
329,192,94654,1,0,0:0:0:0:
256,192,94654,1,0,0:0:0:0:
109,192,94841,1,0,0:0:0:0:
36,192,94841,1,0,0:0:0:0:
475,192,94841,1,0,0:0:0:0:
402,192,94841,1,0,0:0:0:0:
36,192,95029,1,0,0:0:0:0:
182,192,95029,1,0,0:0:0:0:
329,192,95029,1,0,0:0:0:0:
475,192,95029,1,0,0:0:0:0:
36,192,97302,1,0,0:0:0:0:
475,192,97302,1,0,0:0:0:0:
256,192,97302,1,0,0:0:0:0:
402,192,97302,1,0,0:0:0:0:
109,192,97395,1,0,0:0:0:0:
182,192,97489,1,0,0:0:0:0:
402,192,97583,1,0,0:0:0:0:
329,192,97583,1,0,0:0:0:0:
256,192,97677,1,0,0:0:0:0:
109,192,97677,1,0,0:0:0:0:
329,192,97864,1,0,0:0:0:0:
36,192,97864,1,0,0:0:0:0:
256,192,97864,1,0,0:0:0:0:
402,192,98052,1,0,0:0:0:0:
182,192,98052,1,0,0:0:0:0:
475,192,98052,1,0,0:0:0:0:
109,192,98145,1,0,0:0:0:0:
256,192,98239,1,0,0:0:0:0:
402,192,98333,1,0,0:0:0:0:
329,192,98333,1,0,0:0:0:0:
36,192,98427,1,0,0:0:0:0:
182,192,98427,1,0,0:0:0:0:
329,192,98614,1,0,0:0:0:0:
256,192,98614,1,0,0:0:0:0:
109,192,98614,1,0,0:0:0:0:
182,192,98802,1,0,0:0:0:0:
475,192,98802,1,0,0:0:0:0:
402,192,98802,1,0,0:0:0:0:
109,192,98895,1,0,0:0:0:0:
256,192,98989,1,0,0:0:0:0:
402,192,99083,1,0,0:0:0:0:
329,192,99083,1,0,0:0:0:0:
36,192,99177,1,0,0:0:0:0:
182,192,99177,1,0,0:0:0:0:
109,192,99364,1,0,0:0:0:0:
256,192,99364,1,0,0:0:0:0:
329,192,99364,1,0,0:0:0:0:
475,192,99552,1,0,0:0:0:0:
182,192,99552,1,0,0:0:0:0:
402,192,99552,1,0,0:0:0:0:
256,192,99645,1,0,0:0:0:0:
329,192,99739,1,0,0:0:0:0:
402,192,99739,1,0,0:0:0:0:
109,192,99739,1,0,0:0:0:0:
36,192,99927,1,0,0:0:0:0:
402,192,99927,1,0,0:0:0:0:
182,192,99927,1,0,0:0:0:0:
475,192,99927,1,0,0:0:0:0:
256,192,100020,1,0,0:0:0:0:
402,192,100114,1,0,0:0:0:0:
109,192,100114,1,0,0:0:0:0:
329,192,100114,1,0,0:0:0:0:
475,192,100302,1,0,0:0:0:0:
256,192,100302,1,0,0:0:0:0:
36,192,100302,1,0,0:0:0:0:
109,192,100302,1,0,0:0:0:0:
402,192,100395,1,0,0:0:0:0:
329,192,100489,1,0,0:0:0:0:
182,192,100583,1,0,0:0:0:0:
109,192,100583,1,0,0:0:0:0:
402,192,100677,1,0,0:0:0:0:
256,192,100677,1,0,0:0:0:0:
182,192,100864,1,0,0:0:0:0:
256,192,100864,1,0,0:0:0:0:
475,192,100864,1,0,0:0:0:0:
109,192,101052,1,0,0:0:0:0:
36,192,101052,1,0,0:0:0:0:
329,192,101052,1,0,0:0:0:0:
402,192,101145,1,0,0:0:0:0:
256,192,101239,1,0,0:0:0:0:
182,192,101333,1,0,0:0:0:0:
109,192,101333,1,0,0:0:0:0:
475,192,101427,1,0,0:0:0:0:
329,192,101427,1,0,0:0:0:0:
182,192,101614,1,0,0:0:0:0:
256,192,101614,1,0,0:0:0:0:
402,192,101614,1,0,0:0:0:0:
109,192,101802,1,0,0:0:0:0:
36,192,101802,1,0,0:0:0:0:
329,192,101802,1,0,0:0:0:0:
402,192,101895,1,0,0:0:0:0:
256,192,101989,1,0,0:0:0:0:
182,192,102083,1,0,0:0:0:0:
109,192,102083,1,0,0:0:0:0:
475,192,102177,1,0,0:0:0:0:
329,192,102177,1,0,0:0:0:0:
256,192,102364,1,0,0:0:0:0:
402,192,102364,1,0,0:0:0:0:
182,192,102364,1,0,0:0:0:0:
36,192,102552,1,0,0:0:0:0:
329,192,102552,1,0,0:0:0:0:
182,192,102552,1,0,0:0:0:0:
109,192,102645,1,0,0:0:0:0:
256,192,102645,1,0,0:0:0:0:
402,192,102645,1,0,0:0:0:0:
475,192,102739,1,0,0:0:0:0:
182,192,102739,1,0,0:0:0:0:
329,192,102739,1,0,0:0:0:0:
36,192,102833,1,0,0:0:0:0:
256,192,102833,1,0,0:0:0:0:
402,192,102833,1,0,0:0:0:0:
182,192,102927,1,0,0:0:0:0:
329,192,102927,1,0,0:0:0:0:
475,192,102927,1,0,0:0:0:0:
109,192,103020,1,0,0:0:0:0:
402,192,103020,1,0,0:0:0:0:
256,192,103020,1,0,0:0:0:0:
182,192,103114,1,0,0:0:0:0:
329,192,103114,1,0,0:0:0:0:
109,192,103208,1,0,0:0:0:0:
402,192,103208,1,0,0:0:0:0:
256,192,103208,1,0,0:0:0:0:
36,192,103302,1,0,0:0:0:0:
329,192,103302,1,0,0:0:0:0:
182,192,103302,1,0,0:0:0:0:
475,192,103302,1,0,0:0:0:0:
109,192,103395,1,0,0:0:0:0:
182,192,103489,1,0,0:0:0:0:
402,192,103583,1,0,0:0:0:0:
256,192,103583,1,0,0:0:0:0:
109,192,103677,1,0,0:0:0:0:
475,192,103677,1,0,0:0:0:0:
36,192,103864,1,0,0:0:0:0:
182,192,103864,1,0,0:0:0:0:
329,192,103864,1,0,0:0:0:0:
109,192,104052,1,0,0:0:0:0:
329,192,104052,1,0,0:0:0:0:
475,192,104052,1,0,0:0:0:0:
182,192,104145,1,0,0:0:0:0:
36,192,104239,1,0,0:0:0:0:
402,192,104333,1,0,0:0:0:0:
256,192,104333,1,0,0:0:0:0:
475,192,104427,1,0,0:0:0:0:
109,192,104427,1,0,0:0:0:0:
329,192,104614,1,0,0:0:0:0:
182,192,104614,1,0,0:0:0:0:
36,192,104614,1,0,0:0:0:0:
402,192,104802,1,0,0:0:0:0:
109,192,104802,1,0,0:0:0:0:
475,192,104802,1,0,0:0:0:0:
182,192,104895,1,0,0:0:0:0:
256,192,104989,1,0,0:0:0:0:
329,192,105083,1,0,0:0:0:0:
402,192,105083,1,0,0:0:0:0:
182,192,105177,1,0,0:0:0:0:
36,192,105177,1,0,0:0:0:0:
109,192,105364,1,0,0:0:0:0:
256,192,105364,1,0,0:0:0:0:
329,192,105364,1,0,0:0:0:0:
402,192,105552,1,0,0:0:0:0:
182,192,105552,1,0,0:0:0:0:
475,192,105552,1,0,0:0:0:0:
256,192,105645,1,0,0:0:0:0:
329,192,105739,1,0,0:0:0:0:
402,192,105739,1,0,0:0:0:0:
109,192,105739,1,0,0:0:0:0:
402,192,105927,1,0,0:0:0:0:
475,192,105927,1,0,0:0:0:0:
36,192,105927,1,0,0:0:0:0:
182,192,105927,1,0,0:0:0:0:
256,192,106020,1,0,0:0:0:0:
402,192,106114,1,0,0:0:0:0:
329,192,106114,1,0,0:0:0:0:
109,192,106114,1,0,0:0:0:0:
256,192,106302,1,0,0:0:0:0:
36,192,106302,1,0,0:0:0:0:
475,192,106302,1,0,0:0:0:0:
109,192,106302,1,0,0:0:0:0:
402,192,106395,1,0,0:0:0:0:
329,192,106489,1,0,0:0:0:0:
182,192,106583,1,0,0:0:0:0:
109,192,106583,1,0,0:0:0:0:
329,192,106677,1,0,0:0:0:0:
402,192,106677,1,0,0:0:0:0:
182,192,106864,1,0,0:0:0:0:
256,192,106864,1,0,0:0:0:0:
475,192,106864,1,0,0:0:0:0:
109,192,107052,1,0,0:0:0:0:
475,192,107052,1,0,0:0:0:0:
36,192,107052,1,0,0:0:0:0:
402,192,107052,1,0,0:0:0:0:
329,192,107145,1,0,0:0:0:0:
256,192,107239,1,0,0:0:0:0:
182,192,107333,1,0,0:0:0:0:
109,192,107333,1,0,0:0:0:0:
475,192,107427,1,0,0:0:0:0:
329,192,107427,1,0,0:0:0:0:
182,192,107614,1,0,0:0:0:0:
256,192,107614,1,0,0:0:0:0:
402,192,107614,1,0,0:0:0:0:
329,192,107802,1,0,0:0:0:0:
475,192,107802,1,0,0:0:0:0:
402,192,107802,1,0,0:0:0:0:
182,192,107802,1,0,0:0:0:0:
329,192,108083,1,0,0:0:0:0:
109,192,108083,1,0,0:0:0:0:
182,192,108083,1,0,0:0:0:0:
402,192,108083,1,0,0:0:0:0:
36,192,108364,1,0,0:0:0:0:
109,192,108364,1,0,0:0:0:0:
182,192,108364,1,0,0:0:0:0:
329,192,108364,1,0,0:0:0:0:
182,192,108552,1,0,0:0:0:0:
329,192,108552,1,0,0:0:0:0:
109,192,108645,1,0,0:0:0:0:
402,192,108645,1,0,0:0:0:0:
36,192,108739,1,0,0:0:0:0:
329,192,108739,1,0,0:0:0:0:
109,192,108833,1,0,0:0:0:0:
256,192,108833,1,0,0:0:0:0:
182,192,108927,1,0,0:0:0:0:
329,192,108927,1,0,0:0:0:0:
402,192,109020,1,0,0:0:0:0:
109,192,109020,1,0,0:0:0:0:
182,192,109114,1,0,0:0:0:0:
475,192,109114,1,0,0:0:0:0:
256,192,109208,1,0,0:0:0:0:
402,192,109208,1,0,0:0:0:0:
475,192,109302,1,0,0:0:0:0:
36,192,109302,1,0,0:0:0:0:
182,192,109302,1,0,0:0:0:0:
329,192,109302,1,0,0:0:0:0:
256,192,109395,1,0,0:0:0:0:
109,192,109489,1,0,0:0:0:0:
329,192,109489,1,0,0:0:0:0:
256,192,109583,1,0,0:0:0:0:
402,192,109677,1,0,0:0:0:0:
475,192,109677,1,0,0:0:0:0:
182,192,109677,1,0,0:0:0:0:
36,192,109677,1,0,0:0:0:0:
329,192,109770,1,0,0:0:0:0:
109,192,109864,1,0,0:0:0:0:
256,192,109864,1,0,0:0:0:0:
329,192,109958,1,0,0:0:0:0:
182,192,110052,1,0,0:0:0:0:
402,192,110052,1,0,0:0:0:0:
36,192,110052,1,0,0:0:0:0:
256,192,110145,1,0,0:0:0:0:
329,192,110239,1,0,0:0:0:0:
109,192,110239,1,0,0:0:0:0:
256,192,110333,1,0,0:0:0:0:
182,192,110427,1,0,0:0:0:0:
36,192,110427,1,0,0:0:0:0:
402,192,110427,1,0,0:0:0:0:
475,192,110427,1,0,0:0:0:0:
329,192,110520,1,0,0:0:0:0:
109,192,110614,1,0,0:0:0:0:
256,192,110614,1,0,0:0:0:0:
182,192,110708,1,0,0:0:0:0:
256,192,110802,1,0,0:0:0:0:
402,192,110802,1,0,0:0:0:0:
36,192,110802,1,0,0:0:0:0:
329,192,110895,1,0,0:0:0:0:
256,192,110989,1,0,0:0:0:0:
109,192,110989,1,0,0:0:0:0:
182,192,111083,1,0,0:0:0:0:
36,192,111177,1,0,0:0:0:0:
256,192,111177,1,0,0:0:0:0:
402,192,111177,1,0,0:0:0:0:
475,192,111177,1,0,0:0:0:0:
329,192,111270,1,0,0:0:0:0:
109,192,111364,1,0,0:0:0:0:
256,192,111364,1,0,0:0:0:0:
329,192,111458,1,0,0:0:0:0:
182,192,111552,1,0,0:0:0:0:
402,192,111552,1,0,0:0:0:0:
475,192,111552,1,0,0:0:0:0:
256,192,111645,1,0,0:0:0:0:
109,192,111739,1,0,0:0:0:0:
329,192,111739,1,0,0:0:0:0:
402,192,111739,1,0,0:0:0:0:
256,192,111833,1,0,0:0:0:0:
402,192,111927,1,0,0:0:0:0:
36,192,111927,1,0,0:0:0:0:
182,192,111927,1,0,0:0:0:0:
475,192,111927,1,0,0:0:0:0:
256,192,112020,1,0,0:0:0:0:
402,192,112114,1,0,0:0:0:0:
109,192,112114,1,0,0:0:0:0:
329,192,112114,1,0,0:0:0:0:
256,192,112208,1,0,0:0:0:0:
182,192,112302,1,0,0:0:0:0:
329,192,112302,1,0,0:0:0:0:
36,192,112302,1,0,0:0:0:0:
475,192,112302,1,0,0:0:0:0:
402,192,112395,1,0,0:0:0:0:
329,192,112489,1,0,0:0:0:0:
109,192,112489,1,0,0:0:0:0:
256,192,112583,1,0,0:0:0:0:
36,192,112677,1,0,0:0:0:0:
475,192,112677,1,0,0:0:0:0:
329,192,112677,1,0,0:0:0:0:
109,192,112677,1,0,0:0:0:0:
182,192,112770,1,0,0:0:0:0:
256,192,112864,1,0,0:0:0:0:
402,192,112864,1,0,0:0:0:0:
329,192,112958,1,0,0:0:0:0:
475,192,113052,1,0,0:0:0:0:
36,192,113052,1,0,0:0:0:0:
182,192,113052,1,0,0:0:0:0:
402,192,113145,1,0,0:0:0:0:
329,192,113239,1,0,0:0:0:0:
109,192,113239,1,0,0:0:0:0:
256,192,113333,1,0,0:0:0:0:
475,192,113427,1,0,0:0:0:0:
329,192,113427,1,0,0:0:0:0:
36,192,113427,1,0,0:0:0:0:
109,192,113427,1,0,0:0:0:0:
182,192,113520,1,0,0:0:0:0:
256,192,113614,1,0,0:0:0:0:
402,192,113614,1,0,0:0:0:0:
329,192,113708,1,0,0:0:0:0:
475,192,113802,1,0,0:0:0:0:
182,192,113802,1,0,0:0:0:0:
36,192,113802,1,0,0:0:0:0:
402,192,113895,1,0,0:0:0:0:
109,192,113989,1,0,0:0:0:0:
256,192,113989,1,0,0:0:0:0:
329,192,114083,1,0,0:0:0:0:
402,192,114177,1,0,0:0:0:0:
475,192,114177,1,0,0:0:0:0:
182,192,114177,1,0,0:0:0:0:
36,192,114177,1,0,0:0:0:0:
256,192,114270,1,0,0:0:0:0:
329,192,114364,1,0,0:0:0:0:
109,192,114364,1,0,0:0:0:0:
256,192,114458,1,0,0:0:0:0:
36,192,114552,1,0,0:0:0:0:
475,192,114552,1,0,0:0:0:0:
182,192,114552,1,0,0:0:0:0:
329,192,114645,1,0,0:0:0:0:
182,192,114739,1,0,0:0:0:0:
475,192,114739,1,0,0:0:0:0:
329,192,114833,1,0,0:0:0:0:
182,192,114927,1,0,0:0:0:40:soft-hitclap.wav
36,192,114927,1,0,0:0:0:0:
402,192,114927,1,0,0:0:0:0:
475,192,114927,1,0,0:0:0:0:
256,192,114973,1,0,0:0:0:40:soft-hitclap.wav
329,192,115020,1,0,0:0:0:40:soft-hitclap.wav
402,192,115067,1,0,0:0:0:40:soft-hitclap.wav
182,192,115114,1,0,0:0:0:40:soft-hitclap.wav
256,192,115161,1,0,0:0:0:40:soft-hitclap.wav
329,192,115208,1,0,0:0:0:40:soft-hitclap.wav
402,192,115255,1,0,0:0:0:40:soft-hitclap.wav
475,192,115302,1,0,0:0:0:0:
109,192,115302,1,0,0:0:0:0:
36,192,115302,1,0,0:0:0:0:
182,192,115302,1,0,0:0:0:0:
256,192,115395,1,0,0:0:0:0:
329,192,115489,1,0,0:0:0:0:
109,192,115489,1,0,0:0:0:0:
182,192,115583,1,0,0:0:0:0:
402,192,115677,1,0,0:0:0:0:
36,192,115677,1,0,0:0:0:0:
256,192,115677,1,0,0:0:0:0:
475,192,115677,1,0,0:0:0:0:
182,192,115770,1,0,0:0:0:0:
109,192,115864,1,0,0:0:0:0:
329,192,115864,1,0,0:0:0:0:
256,192,115958,1,0,0:0:0:0:
475,192,116052,1,0,0:0:0:0:
36,192,116052,1,0,0:0:0:0:
182,192,116052,1,0,0:0:0:0:
256,192,116145,1,0,0:0:0:0:
329,192,116239,1,0,0:0:0:0:
109,192,116239,1,0,0:0:0:0:
182,192,116333,1,0,0:0:0:0:
402,192,116427,1,0,0:0:0:0:
36,192,116427,1,0,0:0:0:0:
256,192,116427,1,0,0:0:0:0:
475,192,116427,1,0,0:0:0:0:
182,192,116520,1,0,0:0:0:0:
109,192,116614,1,0,0:0:0:0:
329,192,116614,1,0,0:0:0:0:
256,192,116708,1,0,0:0:0:0:
475,192,116802,1,0,0:0:0:0:
329,192,116802,1,0,0:0:0:0:
36,192,116802,1,0,0:0:0:0:
256,192,116895,1,0,0:0:0:0:
182,192,116989,1,0,0:0:0:0:
402,192,116989,1,0,0:0:0:0:
256,192,117083,1,0,0:0:0:0:
109,192,117177,1,0,0:0:0:0:
36,192,117177,1,0,0:0:0:0:
329,192,117177,1,0,0:0:0:0:
475,192,117177,1,0,0:0:0:0:
182,192,117270,1,0,0:0:0:0:
402,192,117364,1,0,0:0:0:0:
256,192,117364,1,0,0:0:0:0:
109,192,117458,1,0,0:0:0:0:
36,192,117552,1,0,0:0:0:0:
402,192,117552,1,0,0:0:0:0:
475,192,117552,1,0,0:0:0:0:
182,192,117645,1,0,0:0:0:0:
402,192,117739,1,0,0:0:0:0:
329,192,117739,1,0,0:0:0:0:
109,192,117739,1,0,0:0:0:0:
256,192,117833,1,0,0:0:0:0:
182,192,117927,1,0,0:0:0:0:
36,192,117927,1,0,0:0:0:0:
475,192,117927,1,0,0:0:0:0:
402,192,117927,1,0,0:0:0:0:
109,192,118020,1,0,0:0:0:0:
329,192,118114,1,0,0:0:0:0:
402,192,118114,1,0,0:0:0:0:
182,192,118114,1,0,0:0:0:0:
256,192,118208,1,0,0:0:0:0:
109,192,118302,1,0,0:0:0:0:
329,192,118302,1,0,0:0:0:0:
36,192,118302,1,0,0:0:0:0:
475,192,118302,1,0,0:0:0:0:
402,192,118395,1,0,0:0:0:0:
329,192,118489,1,0,0:0:0:0:
109,192,118489,1,0,0:0:0:0:
182,192,118583,1,0,0:0:0:0:
402,192,118677,1,0,0:0:0:0:
109,192,118677,1,0,0:0:0:0:
256,192,118677,1,0,0:0:0:0:
329,192,118677,1,0,0:0:0:0:
36,192,118770,1,0,0:0:0:0:
475,192,118864,1,0,0:0:0:0:
256,192,118864,1,0,0:0:0:0:
329,192,118958,1,0,0:0:0:0:
402,192,119052,1,0,0:0:0:0:
475,192,119052,1,0,0:0:0:0:
109,192,119052,1,0,0:0:0:0:
329,192,119145,1,0,0:0:0:0:
256,192,119239,1,0,0:0:0:0:
36,192,119239,1,0,0:0:0:0:
182,192,119333,1,0,0:0:0:0:
475,192,119427,1,0,0:0:0:0:
329,192,119427,1,0,0:0:0:0:
36,192,119427,1,0,0:0:0:0:
109,192,119427,1,0,0:0:0:0:
182,192,119520,1,0,0:0:0:0:
402,192,119614,1,0,0:0:0:0:
256,192,119614,1,0,0:0:0:0:
109,192,119708,1,0,0:0:0:0:
475,192,119802,1,0,0:0:0:0:
182,192,119802,1,0,0:0:0:0:
329,192,119802,1,0,0:0:0:0:
402,192,119802,1,0,0:0:0:0:
402,192,120083,1,0,0:0:0:0:
109,192,120083,1,0,0:0:0:0:
256,192,120083,1,0,0:0:0:0:
329,192,120083,1,0,0:0:0:0:
329,192,120364,1,0,0:0:0:0:
36,192,120364,1,0,0:0:0:0:
182,192,120364,1,0,0:0:0:0:
256,192,120364,1,0,0:0:0:0:
475,192,120552,1,0,0:0:0:0:
256,192,120552,1,0,0:0:0:0:
402,192,120645,1,0,0:0:0:0:
182,192,120645,1,0,0:0:0:0:
329,192,120739,1,0,0:0:0:0:
109,192,120739,1,0,0:0:0:0:
256,192,120833,1,0,0:0:0:0:
36,192,120833,1,0,0:0:0:0:
475,192,120927,1,0,0:0:0:0:
329,192,120927,1,0,0:0:0:0:
402,192,121020,1,0,0:0:0:0:
256,192,121020,1,0,0:0:0:0:
329,192,121114,1,0,0:0:0:0:
182,192,121114,1,0,0:0:0:0:
109,192,121208,1,0,0:0:0:0:
256,192,121208,1,0,0:0:0:0:
475,192,121302,1,0,0:0:0:0:
329,192,121302,1,0,0:0:0:0:
36,192,121302,1,0,0:0:0:0:
109,192,121348,1,0,0:0:0:0:
182,192,121395,1,0,0:0:0:0:
256,192,121442,1,0,0:0:0:0:
475,192,121489,1,0,0:0:0:0:
402,192,121536,1,0,0:0:0:0:
329,192,121583,1,0,0:0:0:0:
256,192,121630,1,0,0:0:0:0:
109,192,121677,1,0,0:0:0:0:
182,192,121677,1,0,0:0:0:0:
475,192,121677,1,0,0:0:0:0:
402,192,121677,1,0,0:0:0:0:
36,192,121677,1,0,0:0:0:0:
36,192,122052,1,0,0:0:0:0:
109,192,122052,1,0,0:0:0:0:
182,192,122052,1,0,0:0:0:0:
256,192,122052,1,0,0:0:0:0:
182,192,122239,1,0,0:0:0:0:
36,192,122239,1,0,0:0:0:0:
475,192,122333,1,0,0:0:0:0:
402,192,122333,1,0,0:0:0:0:
329,192,122333,1,0,0:0:0:0:
256,192,122333,1,0,0:0:0:0:
36,192,122427,1,0,0:0:0:0:
182,192,122427,1,0,0:0:0:0:
182,192,122614,1,0,0:0:0:0:
256,192,122614,1,0,0:0:0:0:
329,192,122614,1,0,0:0:0:0:
402,192,122614,1,0,0:0:0:0:
36,192,122802,1,0,0:0:0:0:
182,192,122802,1,0,0:0:0:0:
109,192,122802,1,0,0:0:0:0:
329,192,122802,1,0,0:0:0:0:
475,192,122989,1,0,0:0:0:0:
329,192,122989,1,0,0:0:0:0:
109,192,123083,1,0,0:0:0:0:
256,192,123083,1,0,0:0:0:0:
182,192,123083,1,0,0:0:0:0:
402,192,123083,1,0,0:0:0:0:
329,192,123177,1,0,0:0:0:0:
475,192,123177,1,0,0:0:0:0:
182,192,123364,1,0,0:0:0:0:
256,192,123364,1,0,0:0:0:0:
329,192,123364,1,0,0:0:0:0:
475,192,123364,1,0,0:0:0:0:
36,192,123552,1,0,0:0:0:0:
109,192,123552,1,0,0:0:0:0:
329,192,123552,1,0,0:0:0:0:
256,192,123552,1,0,0:0:0:0:
36,192,123739,1,0,0:0:0:0:
475,192,123739,1,0,0:0:0:0:
109,192,123833,1,0,0:0:0:0:
182,192,123833,1,0,0:0:0:0:
329,192,123833,1,0,0:0:0:0:
402,192,123833,1,0,0:0:0:0:
36,192,123927,1,0,0:0:0:0:
475,192,123927,1,0,0:0:0:0:
182,192,124114,1,0,0:0:0:0:
256,192,124114,1,0,0:0:0:0:
402,192,124114,1,0,0:0:0:0:
475,192,124114,1,0,0:0:0:0:
475,192,124302,1,0,0:0:0:0:
402,192,124348,1,0,0:0:0:0:
329,192,124395,1,0,0:0:0:0:
256,192,124442,1,0,0:0:0:0:
36,192,124489,1,0,0:0:0:0:
109,192,124536,1,0,0:0:0:0:
182,192,124583,1,0,0:0:0:0:
256,192,124630,1,0,0:0:0:0:
475,192,124677,1,0,0:0:0:0:
109,192,124677,1,0,0:0:0:0:
36,192,124677,1,0,0:0:0:0:
329,192,124677,1,0,0:0:0:0:
402,192,124677,1,0,0:0:0:0:
182,192,125052,1,0,0:0:0:0:
109,192,125052,1,0,0:0:0:0:
256,192,125052,1,0,0:0:0:0:
329,192,125052,1,0,0:0:0:0:
109,192,125239,1,0,0:0:0:0:
36,192,125239,1,0,0:0:0:0:
256,192,125333,1,0,0:0:0:0:
182,192,125333,1,0,0:0:0:0:
329,192,125333,1,0,0:0:0:0:
402,192,125333,1,0,0:0:0:0:
109,192,125427,1,0,0:0:0:0:
36,192,125427,1,0,0:0:0:0:
329,192,125614,1,0,0:0:0:0:
256,192,125614,1,0,0:0:0:0:
402,192,125614,1,0,0:0:0:0:
475,192,125614,1,0,0:0:0:0:
36,192,125802,1,0,0:0:0:0:
475,192,125802,1,0,0:0:0:0:
109,192,125802,1,0,0:0:0:0:
402,192,125802,1,0,0:0:0:0:
475,192,125989,1,0,0:0:0:0:
36,192,125989,1,0,0:0:0:0:
109,192,126083,1,0,0:0:0:0:
329,192,126083,1,0,0:0:0:0:
402,192,126083,1,0,0:0:0:0:
182,192,126083,1,0,0:0:0:0:
475,192,126177,1,0,0:0:0:0:
36,192,126177,1,0,0:0:0:0:
182,192,126364,1,0,0:0:0:0:
256,192,126364,1,0,0:0:0:0:
329,192,126364,1,0,0:0:0:0:
36,192,126552,1,0,0:0:0:0:
109,192,126552,1,0,0:0:0:0:
182,192,126552,1,0,0:0:0:0:
475,192,126552,1,0,0:0:0:0:
402,192,126645,1,0,0:0:0:0:
329,192,126739,1,0,0:0:0:0:
402,192,126833,1,0,0:0:0:0:
109,192,126833,1,0,0:0:0:0:
36,192,126833,1,0,0:0:0:0:
475,192,126927,1,0,0:0:0:0:
402,192,127020,1,0,0:0:0:0:
329,192,127114,1,0,0:0:0:0:
36,192,127114,1,0,0:0:0:0:
109,192,127114,1,0,0:0:0:0:
256,192,127208,1,0,0:0:0:0:
475,192,127302,1,0,0:0:0:0:
402,192,127302,1,0,0:0:0:0:
36,192,127302,1,0,0:0:0:0:
182,192,127302,1,0,0:0:0:0:
256,192,127395,1,0,0:0:0:0:
329,192,127489,1,0,0:0:0:0:
182,192,127583,1,0,0:0:0:0:
402,192,127583,1,0,0:0:0:0:
36,192,127677,1,0,0:0:0:0:
329,192,127677,1,0,0:0:0:0:
109,192,127677,1,0,0:0:0:0:
256,192,127770,1,0,0:0:0:0:
402,192,127864,1,0,0:0:0:0:
475,192,127864,1,0,0:0:0:0:
329,192,127958,1,0,0:0:0:0:
36,192,128052,1,0,0:0:0:0:
475,192,128052,1,0,0:0:0:0:
182,192,128052,1,0,0:0:0:0:
402,192,128145,1,0,0:0:0:0:
256,192,128145,1,0,0:0:0:0:
329,192,128239,1,0,0:0:0:0:
182,192,128333,1,0,0:0:0:0:
402,192,128427,1,0,0:0:0:0:
36,192,128427,1,0,0:0:0:0:
256,192,128427,1,0,0:0:0:0:
109,192,128427,1,0,0:0:0:0:
329,192,128520,1,0,0:0:0:0:
182,192,128614,1,0,0:0:0:0:
475,192,128614,1,0,0:0:0:0:
329,192,128708,1,0,0:0:0:0:
182,192,128802,1,0,0:0:0:0:
36,192,128802,1,0,0:0:0:0:
256,192,128802,1,0,0:0:0:0:
402,192,128895,1,0,0:0:0:0:
329,192,128989,1,0,0:0:0:0:
256,192,129083,1,0,0:0:0:0:
475,192,129083,1,0,0:0:0:0:
36,192,129177,1,0,0:0:0:0:
109,192,129177,1,0,0:0:0:0:
402,192,129177,1,0,0:0:0:0:
182,192,129270,1,0,0:0:0:0:
475,192,129364,1,0,0:0:0:0:
329,192,129364,1,0,0:0:0:0:
402,192,129458,1,0,0:0:0:0:
256,192,129552,1,0,0:0:0:0:
182,192,129552,1,0,0:0:0:0:
36,192,129552,1,0,0:0:0:0:
475,192,129645,1,0,0:0:0:0:
329,192,129645,1,0,0:0:0:0:
182,192,129739,1,0,0:0:0:0:
402,192,129833,1,0,0:0:0:0:
36,192,129927,1,0,0:0:0:0:
256,192,129927,1,0,0:0:0:0:
329,192,129927,1,0,0:0:0:0:
109,192,129927,1,0,0:0:0:0:
475,192,130020,1,0,0:0:0:0:
402,192,130114,1,0,0:0:0:0:
329,192,130114,1,0,0:0:0:0:
182,192,130208,1,0,0:0:0:0:
256,192,130302,1,0,0:0:0:0:
475,192,130302,1,0,0:0:0:0:
36,192,130302,1,0,0:0:0:0:
402,192,130395,1,0,0:0:0:0:
329,192,130489,1,0,0:0:0:0:
109,192,130583,1,0,0:0:0:0:
256,192,130583,1,0,0:0:0:0:
402,192,130677,1,0,0:0:0:0:
36,192,130677,1,0,0:0:0:0:
475,192,130677,1,0,0:0:0:0:
329,192,130770,1,0,0:0:0:0:
36,192,130864,1,0,0:0:0:0:
182,192,130864,1,0,0:0:0:0:
256,192,130958,1,0,0:0:0:0:
329,192,131052,1,0,0:0:0:0:
109,192,131052,1,0,0:0:0:0:
475,192,131052,1,0,0:0:0:0:
256,192,131145,1,0,0:0:0:0:
182,192,131145,1,0,0:0:0:0:
36,192,131239,1,0,0:0:0:0:
329,192,131333,1,0,0:0:0:0:
256,192,131427,1,0,0:0:0:0:
402,192,131427,1,0,0:0:0:0:
109,192,131427,1,0,0:0:0:0:
475,192,131427,1,0,0:0:0:0:
182,192,131520,1,0,0:0:0:0:
36,192,131614,1,0,0:0:0:0:
329,192,131614,1,0,0:0:0:0:
182,192,131708,1,0,0:0:0:0:
256,192,131802,1,0,0:0:0:0:
475,192,131802,1,0,0:0:0:0:
329,192,131802,1,0,0:0:0:0:
109,192,131895,1,0,0:0:0:0:
182,192,131989,1,0,0:0:0:0:
36,192,132083,1,0,0:0:0:0:
256,192,132083,1,0,0:0:0:0:
109,192,132177,1,0,0:0:0:0:
402,192,132177,1,0,0:0:0:0:
475,192,132177,1,0,0:0:0:0:
329,192,132270,1,0,0:0:0:0:
182,192,132364,1,0,0:0:0:0:
36,192,132364,1,0,0:0:0:0:
256,192,132458,1,0,0:0:0:0:
475,192,132552,1,0,0:0:0:0:
329,192,132552,1,0,0:0:0:0:
36,192,132552,1,0,0:0:0:0:
256,192,132645,1,0,0:0:0:0:
109,192,132645,1,0,0:0:0:0:
402,192,132645,1,0,0:0:0:0:
182,192,132739,1,0,0:0:0:0:
36,192,132833,1,0,0:0:0:0:
182,192,132927,1,0,0:0:0:0:
475,192,132927,1,0,0:0:0:0:
256,192,132927,1,0,0:0:0:0:
329,192,132927,1,0,0:0:0:0:
36,192,133020,1,0,0:0:0:0:
402,192,133020,1,0,0:0:0:0:
182,192,133114,1,0,0:0:0:0:
109,192,133114,1,0,0:0:0:0:
329,192,133114,1,0,0:0:0:0:
256,192,133208,1,0,0:0:0:0:
475,192,133208,1,0,0:0:0:0:
182,192,133302,1,0,0:0:0:0:
36,192,133302,1,0,0:0:0:0:
402,192,133302,1,0,0:0:0:0:
256,192,133348,1,0,0:0:0:0:
329,192,133395,1,0,0:0:0:0:
109,192,133395,1,0,0:0:0:0:
402,192,133442,1,0,0:0:0:0:
475,192,133489,1,0,0:0:0:0:
182,192,133489,1,0,0:0:0:0:
402,192,133536,1,0,0:0:0:0:
329,192,133583,1,0,0:0:0:0:
109,192,133583,1,0,0:0:0:0:
256,192,133630,1,0,0:0:0:0:
182,192,133677,1,0,0:0:0:0:
36,192,133677,1,0,0:0:0:0:
475,192,133677,1,0,0:0:0:0:
402,192,133677,1,0,0:0:0:0:
109,192,134052,1,0,0:0:0:0:
36,192,134052,1,0,0:0:0:0:
182,192,134052,1,0,0:0:0:0:
256,192,134052,1,0,0:0:0:0:
182,192,134239,1,0,0:0:0:0:
36,192,134239,1,0,0:0:0:0:
475,192,134333,1,0,0:0:0:0:
329,192,134333,1,0,0:0:0:0:
402,192,134333,1,0,0:0:0:0:
256,192,134333,1,0,0:0:0:0:
36,192,134427,1,0,0:0:0:0:
182,192,134427,1,0,0:0:0:0:
182,192,134614,1,0,0:0:0:0:
329,192,134614,1,0,0:0:0:0:
256,192,134614,1,0,0:0:0:0:
402,192,134614,1,0,0:0:0:0:
109,192,134802,1,0,0:0:0:0:
329,192,134802,1,0,0:0:0:0:
182,192,134802,1,0,0:0:0:0:
36,192,134802,1,0,0:0:0:0:
475,192,134989,1,0,0:0:0:0:
329,192,134989,1,0,0:0:0:0:
256,192,135083,1,0,0:0:0:0:
182,192,135083,1,0,0:0:0:0:
402,192,135083,1,0,0:0:0:0:
109,192,135083,1,0,0:0:0:0:
329,192,135177,1,0,0:0:0:0:
475,192,135177,1,0,0:0:0:0:
475,192,135364,1,0,0:0:0:0:
256,192,135364,1,0,0:0:0:0:
182,192,135364,1,0,0:0:0:0:
329,192,135364,1,0,0:0:0:0:
256,192,135552,1,0,0:0:0:0:
109,192,135552,1,0,0:0:0:0:
329,192,135552,1,0,0:0:0:0:
36,192,135552,1,0,0:0:0:0:
36,192,135739,1,0,0:0:0:0:
475,192,135739,1,0,0:0:0:0:
329,192,135833,1,0,0:0:0:0:
109,192,135833,1,0,0:0:0:0:
402,192,135833,1,0,0:0:0:0:
182,192,135833,1,0,0:0:0:0:
475,192,135927,1,0,0:0:0:0:
36,192,135927,1,0,0:0:0:0:
182,192,136114,1,0,0:0:0:0:
256,192,136114,1,0,0:0:0:0:
475,192,136114,1,0,0:0:0:0:
402,192,136114,1,0,0:0:0:0:
475,192,136302,1,0,0:0:0:0:
329,192,136302,1,0,0:0:0:0:
256,192,136348,1,0,0:0:0:0:
182,192,136395,1,0,0:0:0:0:
402,192,136395,1,0,0:0:0:0:
109,192,136442,1,0,0:0:0:0:
36,192,136489,1,0,0:0:0:0:
329,192,136489,1,0,0:0:0:0:
109,192,136536,1,0,0:0:0:0:
402,192,136583,1,0,0:0:0:0:
182,192,136583,1,0,0:0:0:0:
256,192,136630,1,0,0:0:0:0:
329,192,136677,1,0,0:0:0:0:
475,192,136677,1,0,0:0:0:0:
36,192,136677,1,0,0:0:0:0:
109,192,136677,1,0,0:0:0:0:
182,192,137052,1,0,0:0:0:0:
256,192,137052,1,0,0:0:0:0:
109,192,137052,1,0,0:0:0:0:
36,192,137052,1,0,0:0:0:0:
402,192,137239,1,0,0:0:0:0:
475,192,137239,1,0,0:0:0:0:
109,192,137333,1,0,0:0:0:0:
256,192,137333,1,0,0:0:0:0:
182,192,137333,1,0,0:0:0:0:
329,192,137333,1,0,0:0:0:0:
475,192,137427,1,0,0:0:0:0:
402,192,137427,1,0,0:0:0:0:
256,192,137614,1,0,0:0:0:0:
402,192,137614,1,0,0:0:0:0:
475,192,137614,1,0,0:0:0:0:
329,192,137614,1,0,0:0:0:0:
475,192,137802,1,0,0:0:0:0:
36,192,137802,1,0,0:0:0:0:
109,192,137802,1,0,0:0:0:0:
329,192,137802,1,0,0:0:0:0:
329,192,137989,1,0,0:0:0:0:
182,192,137989,1,0,0:0:0:0:
402,192,138083,1,0,0:0:0:0:
109,192,138083,1,0,0:0:0:0:
256,192,138083,1,0,0:0:0:0:
36,192,138083,1,0,0:0:0:0:
475,192,138177,1,0,0:0:0:0:
329,192,138177,1,0,0:0:0:0:
182,192,138364,1,0,0:0:0:0:
402,192,138364,1,0,0:0:0:0:
36,192,138364,1,0,0:0:0:0:
329,192,138364,1,0,0:0:0:0:
475,192,138552,1,0,0:0:0:0:
109,192,138552,1,0,0:0:0:0:
256,192,138552,1,0,0:0:0:0:
402,192,138552,1,0,0:0:0:0:
109,192,138739,1,0,0:0:0:0:
402,192,138739,1,0,0:0:0:0:
475,192,138927,1,0,0:0:0:0:
182,192,138927,1,0,0:0:0:0:
36,192,138927,1,0,0:0:0:0:
329,192,138927,1,0,0:0:0:0:
109,192,139020,1,0,0:0:0:0:
256,192,139020,1,0,0:0:0:0:
402,192,139020,1,0,0:0:0:0:
182,192,139114,1,0,0:0:0:0:
329,192,139114,1,0,0:0:0:0:
256,192,139208,1,0,0:0:0:0:
36,192,139208,1,0,0:0:0:0:
475,192,139208,1,0,0:0:0:0:
402,192,139302,1,0,0:0:0:0:
109,192,139302,1,0,0:0:0:0:
329,192,139302,1,0,0:0:0:0:
182,192,139302,1,0,0:0:0:0:
36,192,139583,1,0,0:0:0:0:
329,192,139583,1,0,0:0:0:0:
109,192,139583,1,0,0:0:0:0:
256,192,139583,1,0,0:0:0:0:
475,192,139864,1,0,0:0:0:0:
402,192,139864,1,0,0:0:0:0:
256,192,139864,1,0,0:0:0:0:
182,192,139864,1,0,0:0:0:0:
256,192,140052,1,0,0:0:0:0:
36,192,140052,1,0,0:0:0:0:
329,192,140052,1,0,0:0:0:0:
182,192,140145,1,0,0:0:0:0:
109,192,140145,1,0,0:0:0:0:
402,192,140145,1,0,0:0:0:0:
109,192,140427,1,0,0:0:0:0:
36,192,140427,1,0,0:0:0:0:
329,192,140427,1,0,0:0:0:0:
109,192,140614,1,0,0:0:0:0:
182,192,140614,1,0,0:0:0:0:
402,192,140614,1,0,0:0:0:0:
36,192,140802,1,0,0:0:0:0:
329,192,140802,1,0,0:0:0:0:
182,192,140895,1,0,0:0:0:0:
475,192,140895,1,0,0:0:0:0:
329,192,141177,1,0,0:0:0:0:
36,192,141177,1,0,0:0:0:0:
109,192,141177,1,0,0:0:0:0:
256,192,141177,1,0,0:0:0:0:
182,192,141364,1,0,0:0:0:0:
475,192,141364,1,0,0:0:0:0:
402,192,141458,1,0,0:0:0:0:
256,192,141458,1,0,0:0:0:0:
109,192,141645,1,0,0:0:0:0:
329,192,141645,1,0,0:0:0:0:
36,192,141645,1,0,0:0:0:0:
182,192,141739,1,0,0:0:0:0:
402,192,141739,1,0,0:0:0:0:
475,192,141739,1,0,0:0:0:0:
256,192,141927,1,0,0:0:0:0:
329,192,141927,1,0,0:0:0:0:
36,192,141927,1,0,0:0:0:0:
182,192,142114,1,0,0:0:0:0:
109,192,142114,1,0,0:0:0:0:
475,192,142114,1,0,0:0:0:0:
36,192,142302,1,0,0:0:0:0:
109,192,142302,1,0,0:0:0:0:
256,192,142302,1,0,0:0:0:0:
329,192,142302,1,0,0:0:0:0:
402,192,142302,1,0,0:0:0:0:
109,192,142583,1,0,0:0:0:0:
182,192,142583,1,0,0:0:0:0:
329,192,142583,1,0,0:0:0:0:
402,192,142583,1,0,0:0:0:0:
475,192,142583,1,0,0:0:0:0:
109,192,142864,1,0,0:0:0:0:
182,192,142864,1,0,0:0:0:0:
329,192,142864,1,0,0:0:0:0:
402,192,142864,1,0,0:0:0:0:
475,192,142864,1,0,0:0:0:0:
36,192,143052,1,0,0:0:0:0:
109,192,143052,1,0,0:0:0:0:
256,192,143052,1,0,0:0:0:0:
329,192,143052,1,0,0:0:0:0:
402,192,143052,1,0,0:0:0:0:
109,192,143333,1,0,0:0:0:0:
182,192,143333,1,0,0:0:0:0:
329,192,143333,1,0,0:0:0:0:
402,192,143333,1,0,0:0:0:0:
475,192,143333,1,0,0:0:0:0:
109,192,143614,1,0,0:0:0:0:
182,192,143614,1,0,0:0:0:0:
329,192,143614,1,0,0:0:0:0:
402,192,143614,1,0,0:0:0:0:
475,192,143614,1,0,0:0:0:0:
36,192,143802,1,0,0:0:0:0:
109,192,143802,1,0,0:0:0:0:
256,192,143802,1,0,0:0:0:0:
329,192,143802,1,0,0:0:0:0:
402,192,143802,1,0,0:0:0:0:
36,192,144083,1,0,0:0:0:0:
182,192,144083,1,0,0:0:0:0:
329,192,144083,1,0,0:0:0:0:
402,192,144083,1,0,0:0:0:0:
475,192,144083,1,0,0:0:0:0:
402,192,144364,1,0,0:0:0:0:
109,192,144364,1,0,0:0:0:0:
182,192,144364,1,0,0:0:0:0:
256,192,144364,1,0,0:0:0:0:
329,192,144364,1,0,0:0:0:0:
36,192,144552,1,0,0:0:0:0:
109,192,144552,1,0,0:0:0:0:
475,192,144552,1,0,0:0:0:0:
402,192,144552,1,0,0:0:0:0:
256,192,144552,1,0,0:0:0:0:
36,192,144927,1,0,0:0:0:0:
475,192,144927,1,0,0:0:0:40:soft-hitclap.wav
402,192,144973,1,0,0:0:0:40:soft-hitclap.wav
109,192,144973,1,0,0:0:0:0:
329,192,145020,1,0,0:0:0:40:soft-hitclap.wav
182,192,145020,1,0,0:0:0:0:
256,192,145067,1,0,0:0:0:40:soft-hitclap.wav
475,192,145114,1,0,0:0:0:40:soft-hitclap.wav
36,192,145114,1,0,0:0:0:0:
402,192,145161,1,0,0:0:0:40:soft-hitclap.wav
109,192,145161,1,0,0:0:0:0:
329,192,145208,1,0,0:0:0:40:soft-hitclap.wav
182,192,145208,1,0,0:0:0:0:
402,192,145255,1,0,0:0:0:40:soft-hitclap.wav
109,192,145255,1,0,0:0:0:0:
475,192,145302,1,0,0:0:0:0:
36,192,145302,1,0,0:0:0:0:
256,192,145489,1,0,0:0:0:0:
182,192,145677,1,0,0:0:0:0:
329,192,145864,1,0,0:0:0:0:
256,192,146052,1,0,0:0:0:0:
109,192,146052,1,0,0:0:0:0:
36,192,146052,1,0,0:0:0:0:
402,192,146239,1,0,0:0:0:0:
329,192,146427,1,0,0:0:0:0:
475,192,146614,1,0,0:0:0:0:
36,192,146802,1,0,0:0:0:0:
402,192,146802,1,0,0:0:0:0:
182,192,146802,1,0,0:0:0:0:
256,192,146989,1,0,0:0:0:0:
109,192,147177,1,0,0:0:0:0:
182,192,147364,1,0,0:0:0:0:
475,192,147552,1,0,0:0:0:0:
36,192,147552,1,0,0:0:0:0:
329,192,147552,1,0,0:0:0:0:
109,192,147739,1,0,0:0:0:0:
475,192,147927,1,0,0:0:0:0:
402,192,148114,1,0,0:0:0:0:
36,192,148302,1,0,0:0:0:0:
182,192,148302,1,0,0:0:0:0:
329,192,148302,1,0,0:0:0:0:
109,192,148489,1,0,0:0:0:0:
182,192,148677,1,0,0:0:0:0:
36,192,148864,1,0,0:0:0:0:
256,192,148864,1,0,0:0:0:0:
402,192,148864,1,0,0:0:0:0:
182,192,149052,1,0,0:0:0:0:
109,192,149239,1,0,0:0:0:0:
329,192,149427,1,0,0:0:0:0:
475,192,149427,1,0,0:0:0:0:
256,192,149614,1,0,0:0:0:0:
475,192,149802,1,0,0:0:0:0:
402,192,149802,1,0,0:0:0:0:
182,192,149802,1,0,0:0:0:0:
36,192,149989,1,0,0:0:0:0:
329,192,150083,1,0,0:0:0:0:
402,192,150083,1,0,0:0:0:0:
109,192,150177,1,0,0:0:0:0:
256,192,150364,1,0,0:0:0:0:
329,192,150364,1,0,0:0:0:0:
475,192,150364,1,0,0:0:0:0:
36,192,150364,1,0,0:0:0:0:
36,192,150552,1,0,0:0:0:0:
182,192,150552,1,0,0:0:0:0:
329,192,150552,1,0,0:0:0:0:
109,192,150645,1,0,0:0:0:0:
256,192,150645,1,0,0:0:0:0:
402,192,150645,1,0,0:0:0:0:
182,192,150739,1,0,0:0:0:0:
329,192,150739,1,0,0:0:0:0:
475,192,150739,1,0,0:0:0:0:
402,192,150833,1,0,0:0:0:0:
256,192,150833,1,0,0:0:0:0:
36,192,150833,1,0,0:0:0:0:
182,192,150927,1,0,0:0:0:0:
329,192,150927,1,0,0:0:0:0:
475,192,150927,1,0,0:0:0:0:
402,192,151020,1,0,0:0:0:0:
256,192,151020,1,0,0:0:0:0:
109,192,151020,1,0,0:0:0:0:
36,192,151114,1,0,0:0:0:0:
182,192,151114,1,0,0:0:0:0:
329,192,151114,1,0,0:0:0:0:
109,192,151208,1,0,0:0:0:0:
256,192,151208,1,0,0:0:0:0:
402,192,151208,1,0,0:0:0:0:
475,192,151302,1,0,0:0:0:0:
329,192,151302,1,0,0:0:0:0:
182,192,151302,1,0,0:0:0:0:
36,192,151302,1,0,0:0:0:0:
256,192,151489,1,0,0:0:0:0:
329,192,151677,1,0,0:0:0:0:
402,192,151677,1,0,0:0:0:0:
109,192,151677,1,0,0:0:0:0:
256,192,151864,1,0,0:0:0:0:
36,192,152052,1,0,0:0:0:0:
475,192,152052,1,0,0:0:0:0:
182,192,152052,1,0,0:0:0:0:
329,192,152052,1,0,0:0:0:0:
256,192,152239,1,0,0:0:0:0:
182,192,152427,1,0,0:0:0:0:
109,192,152427,1,0,0:0:0:0:
402,192,152427,1,0,0:0:0:0:
256,192,152614,1,0,0:0:0:0:
36,192,152802,1,0,0:0:0:0:
182,192,152802,1,0,0:0:0:0:
329,192,152802,1,0,0:0:0:0:
475,192,152802,1,0,0:0:0:0:
256,192,152989,1,0,0:0:0:0:
329,192,153177,1,0,0:0:0:0:
402,192,153177,1,0,0:0:0:0:
109,192,153177,1,0,0:0:0:0:
256,192,153364,1,0,0:0:0:0:
182,192,153552,1,0,0:0:0:0:
36,192,153552,1,0,0:0:0:0:
475,192,153552,1,0,0:0:0:0:
329,192,153552,1,0,0:0:0:0:
256,192,153739,1,0,0:0:0:0:
182,192,153927,1,0,0:0:0:0:
109,192,153927,1,0,0:0:0:0:
256,192,154114,1,0,0:0:0:0:
36,192,154302,1,0,0:0:0:0:
182,192,154302,1,0,0:0:0:0:
329,192,154302,1,0,0:0:0:0:
475,192,154302,1,0,0:0:0:0:
109,192,154489,1,0,0:0:0:0:
182,192,154489,1,0,0:0:0:0:
402,192,154489,1,0,0:0:0:0:
329,192,154489,1,0,0:0:0:0:
36,192,154677,1,0,0:0:0:0:
182,192,154677,1,0,0:0:0:0:
329,192,154677,1,0,0:0:0:0:
475,192,154677,1,0,0:0:0:0:
256,192,154677,1,0,0:0:0:0:
36,192,154864,1,0,0:0:0:0:
109,192,154864,1,0,0:0:0:0:
402,192,154864,1,0,0:0:0:0:
475,192,154864,1,0,0:0:0:0:
36,192,155052,1,0,0:0:0:0:
182,192,155052,1,0,0:0:0:0:
329,192,155052,1,0,0:0:0:0:
475,192,155052,1,0,0:0:0:0:
109,192,155239,1,0,0:0:0:0:
182,192,155239,1,0,0:0:0:0:
329,192,155239,1,0,0:0:0:0:
402,192,155239,1,0,0:0:0:0:
36,192,155427,1,0,0:0:0:0:
182,192,155427,1,0,0:0:0:0:
475,192,155427,1,0,0:0:0:0:
329,192,155427,1,0,0:0:0:0:
256,192,155427,1,0,0:0:0:0:
36,192,155614,1,0,0:0:0:0:
109,192,155614,1,0,0:0:0:0:
402,192,155614,1,0,0:0:0:0:
475,192,155614,1,0,0:0:0:0:
36,192,155802,1,0,0:0:0:0:
182,192,155802,1,0,0:0:0:20:soft-hitclap.wav
329,192,155802,1,0,0:0:0:0:
475,192,155802,1,0,0:0:0:0:
256,192,155895,1,0,0:0:0:20:soft-hitclap.wav
182,192,155989,1,0,0:0:0:20:soft-hitclap.wav
329,192,156083,1,0,0:0:0:20:soft-hitclap.wav
256,192,156177,1,0,0:0:0:20:soft-hitclap.wav
329,192,156270,1,0,0:0:0:20:soft-hitclap.wav
182,192,156364,1,0,0:0:0:20:soft-hitclap.wav
256,192,156458,1,0,0:0:0:20:soft-hitclap.wav
182,192,156552,1,0,0:0:0:30:soft-hitclap.wav
329,192,156598,1,0,0:0:0:30:soft-hitclap.wav
402,192,156645,1,0,0:0:0:30:soft-hitclap.wav
475,192,156692,1,0,0:0:0:30:soft-hitclap.wav
109,192,156739,1,0,0:0:0:30:soft-hitclap.wav
256,192,156786,1,0,0:0:0:30:soft-hitclap.wav
329,192,156833,1,0,0:0:0:30:soft-hitclap.wav
402,192,156880,1,0,0:0:0:30:soft-hitclap.wav
36,192,156927,1,0,0:0:0:40:soft-hitclap.wav
182,192,156973,1,0,0:0:0:40:soft-hitclap.wav
256,192,157020,1,0,0:0:0:40:soft-hitclap.wav
329,192,157067,1,0,0:0:0:40:soft-hitclap.wav
475,192,157114,1,0,0:0:0:40:soft-hitclap.wav
402,192,157161,1,0,0:0:0:40:soft-hitclap.wav
329,192,157208,1,0,0:0:0:40:soft-hitclap.wav
256,192,157255,1,0,0:0:0:40:soft-hitclap.wav
109,192,157302,1,0,0:0:0:0:
182,192,157302,1,0,0:0:0:0:
36,192,157302,1,0,0:0:0:0:
475,192,157302,1,0,0:0:0:0:
329,192,157489,1,0,0:0:0:0:
109,192,157583,1,0,0:0:0:0:
182,192,157583,1,0,0:0:0:0:
256,192,157583,1,0,0:0:0:0:
402,192,157677,1,0,0:0:0:0:
475,192,157677,1,0,0:0:0:0:
182,192,157864,1,0,0:0:0:0:
256,192,157864,1,0,0:0:0:0:
329,192,157864,1,0,0:0:0:0:
36,192,157864,1,0,0:0:0:0:
36,192,158052,1,0,0:0:0:0:
109,192,158052,1,0,0:0:0:0:
256,192,158052,1,0,0:0:0:0:
475,192,158052,1,0,0:0:0:0:
256,192,158239,1,0,0:0:0:0:
109,192,158333,1,0,0:0:0:0:
182,192,158333,1,0,0:0:0:0:
329,192,158333,1,0,0:0:0:0:
402,192,158427,1,0,0:0:0:0:
475,192,158427,1,0,0:0:0:0:
182,192,158614,1,0,0:0:0:0:
256,192,158614,1,0,0:0:0:0:
402,192,158614,1,0,0:0:0:0:
36,192,158614,1,0,0:0:0:0:
36,192,158802,1,0,0:0:0:0:
109,192,158802,1,0,0:0:0:0:
329,192,158802,1,0,0:0:0:0:
475,192,158802,1,0,0:0:0:0:
329,192,158989,1,0,0:0:0:0:
182,192,159083,1,0,0:0:0:0:
402,192,159083,1,0,0:0:0:0:
475,192,159083,1,0,0:0:0:0:
329,192,159177,1,0,0:0:0:0:
256,192,159177,1,0,0:0:0:0:
256,192,159364,1,0,0:0:0:0:
36,192,159364,1,0,0:0:0:0:
109,192,159364,1,0,0:0:0:0:
402,192,159364,1,0,0:0:0:0:
475,192,159552,1,0,0:0:0:0:
402,192,159552,1,0,0:0:0:0:
36,192,159552,1,0,0:0:0:0:
329,192,159552,1,0,0:0:0:0:
329,192,159739,1,0,0:0:0:0:
402,192,159739,1,0,0:0:0:0:
256,192,159739,1,0,0:0:0:0:
109,192,159739,1,0,0:0:0:0:
402,192,159927,1,0,0:0:0:0:
475,192,159927,1,0,0:0:0:0:
182,192,159927,1,0,0:0:0:0:
36,192,159927,1,0,0:0:0:0:
329,192,159927,1,0,0:0:0:0:
329,192,160114,1,0,0:0:0:0:
402,192,160114,1,0,0:0:0:0:
256,192,160114,1,0,0:0:0:0:
109,192,160114,1,0,0:0:0:0:
36,192,160302,1,0,0:0:0:0:
109,192,160302,1,0,0:0:0:0:
182,192,160302,1,0,0:0:0:0:
256,192,160395,1,0,0:0:0:0:
329,192,160489,1,0,0:0:0:0:
109,192,160583,1,0,0:0:0:0:
182,192,160583,1,0,0:0:0:0:
256,192,160583,1,0,0:0:0:0:
329,192,160677,1,0,0:0:0:0:
402,192,160770,1,0,0:0:0:0:
182,192,160864,1,0,0:0:0:0:
256,192,160864,1,0,0:0:0:0:
329,192,160864,1,0,0:0:0:0:
109,192,160958,1,0,0:0:0:0:
36,192,161052,1,0,0:0:0:0:
182,192,161052,1,0,0:0:0:0:
256,192,161052,1,0,0:0:0:0:
329,192,161145,1,0,0:0:0:0:
402,192,161239,1,0,0:0:0:0:
109,192,161333,1,0,0:0:0:0:
256,192,161333,1,0,0:0:0:0:
329,192,161333,1,0,0:0:0:0:
402,192,161427,1,0,0:0:0:0:
475,192,161520,1,0,0:0:0:0:
182,192,161614,1,0,0:0:0:0:
329,192,161614,1,0,0:0:0:0:
402,192,161614,1,0,0:0:0:0:
475,192,161708,1,0,0:0:0:0:
36,192,161802,1,0,0:0:0:0:
109,192,161802,1,0,0:0:0:0:
256,192,161802,1,0,0:0:0:0:
182,192,161895,1,0,0:0:0:0:
256,192,161989,1,0,0:0:0:0:
109,192,162083,1,0,0:0:0:0:
182,192,162083,1,0,0:0:0:0:
329,192,162083,1,0,0:0:0:0:
256,192,162177,1,0,0:0:0:0:
329,192,162270,1,0,0:0:0:0:
182,192,162364,1,0,0:0:0:0:
256,192,162364,1,0,0:0:0:0:
402,192,162364,1,0,0:0:0:0:
329,192,162458,1,0,0:0:0:0:
36,192,162552,1,0,0:0:0:0:
109,192,162552,1,0,0:0:0:0:
402,192,162552,1,0,0:0:0:0:
475,192,162552,1,0,0:0:0:0:
182,192,162645,1,0,0:0:0:0:
329,192,162645,1,0,0:0:0:0:
256,192,162739,1,0,0:0:0:0:
329,192,162833,1,0,0:0:0:0:
36,192,162927,1,0,0:0:0:0:
182,192,162927,1,0,0:0:0:0:
402,192,162927,1,0,0:0:0:0:
109,192,163020,1,0,0:0:0:0:
256,192,163020,1,0,0:0:0:0:
475,192,163020,1,0,0:0:0:0:
182,192,163114,1,0,0:0:0:0:
329,192,163114,1,0,0:0:0:0:
36,192,163114,1,0,0:0:0:0:
256,192,163208,1,0,0:0:0:0:
402,192,163208,1,0,0:0:0:0:
109,192,163208,1,0,0:0:0:0:
329,192,163302,1,0,0:0:0:0:
475,192,163302,1,0,0:0:0:0:
182,192,163302,1,0,0:0:0:0:
329,192,163489,1,0,0:0:0:0:
109,192,163583,1,0,0:0:0:0:
256,192,163583,1,0,0:0:0:0:
402,192,163583,1,0,0:0:0:0:
475,192,163677,1,0,0:0:0:0:
36,192,163677,1,0,0:0:0:0:
36,192,163864,1,0,0:0:0:0:
182,192,163864,1,0,0:0:0:0:
329,192,163864,1,0,0:0:0:0:
402,192,163864,1,0,0:0:0:0:
475,192,164052,1,0,0:0:0:0:
402,192,164052,1,0,0:0:0:0:
256,192,164052,1,0,0:0:0:0:
109,192,164052,1,0,0:0:0:0:
36,192,164239,1,0,0:0:0:0:
182,192,164333,1,0,0:0:0:0:
329,192,164333,1,0,0:0:0:0:
402,192,164333,1,0,0:0:0:0:
36,192,164427,1,0,0:0:0:0:
109,192,164427,1,0,0:0:0:0:
256,192,164614,1,0,0:0:0:0:
329,192,164614,1,0,0:0:0:0:
109,192,164614,1,0,0:0:0:0:
475,192,164614,1,0,0:0:0:0:
36,192,164802,1,0,0:0:0:0:
182,192,164802,1,0,0:0:0:0:
109,192,164802,1,0,0:0:0:0:
402,192,164802,1,0,0:0:0:0:
329,192,164989,1,0,0:0:0:0:
256,192,165083,1,0,0:0:0:0:
402,192,165083,1,0,0:0:0:0:
475,192,165083,1,0,0:0:0:0:
36,192,165177,1,0,0:0:0:0:
182,192,165177,1,0,0:0:0:0:
182,192,165364,1,0,0:0:0:0:
329,192,165364,1,0,0:0:0:0:
402,192,165364,1,0,0:0:0:0:
109,192,165364,1,0,0:0:0:0:
36,192,165552,1,0,0:0:0:0:
109,192,165552,1,0,0:0:0:0:
475,192,165552,1,0,0:0:0:0:
402,192,165552,1,0,0:0:0:0:
256,192,165552,1,0,0:0:0:0:
109,192,165739,1,0,0:0:0:0:
182,192,165739,1,0,0:0:0:0:
329,192,165739,1,0,0:0:0:0:
402,192,165739,1,0,0:0:0:0:
182,192,165927,1,0,0:0:0:0:
256,192,165927,1,0,0:0:0:0:
329,192,165927,1,0,0:0:0:0:
36,192,165927,1,0,0:0:0:0:
475,192,165927,1,0,0:0:0:0:
109,192,166114,1,0,0:0:0:0:
182,192,166114,1,0,0:0:0:0:
329,192,166114,1,0,0:0:0:0:
402,192,166114,1,0,0:0:0:0:
36,192,166302,1,0,0:0:0:0:
109,192,166302,1,0,0:0:0:0:
182,192,166302,1,0,0:0:0:0:
256,192,166395,1,0,0:0:0:0:
329,192,166489,1,0,0:0:0:0:
109,192,166583,1,0,0:0:0:0:
182,192,166583,1,0,0:0:0:0:
256,192,166583,1,0,0:0:0:0:
329,192,166677,1,0,0:0:0:0:
402,192,166770,1,0,0:0:0:0:
182,192,166864,1,0,0:0:0:0:
256,192,166864,1,0,0:0:0:0:
329,192,166864,1,0,0:0:0:0:
109,192,166958,1,0,0:0:0:0:
402,192,167052,1,0,0:0:0:0:
475,192,167052,1,0,0:0:0:0:
182,192,167052,1,0,0:0:0:0:
329,192,167145,1,0,0:0:0:0:
256,192,167239,1,0,0:0:0:0:
402,192,167333,1,0,0:0:0:0:
475,192,167333,1,0,0:0:0:0:
182,192,167333,1,0,0:0:0:0:
329,192,167427,1,0,0:0:0:0:
256,192,167520,1,0,0:0:0:0:
329,192,167614,1,0,0:0:0:0:
402,192,167614,1,0,0:0:0:0:
109,192,167614,1,0,0:0:0:0:
256,192,167708,1,0,0:0:0:0:
182,192,167802,1,0,0:0:0:0:
36,192,167802,1,0,0:0:0:0:
402,192,167802,1,0,0:0:0:0:
475,192,167802,1,0,0:0:0:0:
329,192,167895,1,0,0:0:0:0:
256,192,167989,1,0,0:0:0:0:
402,192,168083,1,0,0:0:0:0:
329,192,168083,1,0,0:0:0:0:
182,192,168083,1,0,0:0:0:0:
109,192,168083,1,0,0:0:0:0:
256,192,168177,1,0,0:0:0:0:
182,192,168270,1,0,0:0:0:0:
36,192,168364,1,0,0:0:0:0:
109,192,168364,1,0,0:0:0:0:
256,192,168364,1,0,0:0:0:0:
329,192,168364,1,0,0:0:0:0:
475,192,168364,1,0,0:0:0:0:
402,192,168552,1,0,0:0:0:0:
109,192,168552,1,0,0:0:0:0:
182,192,168645,1,0,0:0:0:0:
329,192,168645,1,0,0:0:0:0:
36,192,168739,1,0,0:0:0:0:
475,192,168739,1,0,0:0:0:0:
256,192,168739,1,0,0:0:0:0:
109,192,168833,1,0,0:0:0:0:
402,192,168833,1,0,0:0:0:0:
182,192,168927,1,0,0:0:0:0:
329,192,168927,1,0,0:0:0:0:
256,192,169020,1,0,0:0:0:0:
109,192,169020,1,0,0:0:0:0:
402,192,169020,1,0,0:0:0:0:
36,192,169114,1,0,0:0:0:0:
475,192,169114,1,0,0:0:0:0:
182,192,169114,1,0,0:0:0:0:
329,192,169114,1,0,0:0:0:0:
256,192,169208,1,0,0:0:0:0:
402,192,169208,1,0,0:0:0:0:
109,192,169208,1,0,0:0:0:0:
182,192,169302,1,0,0:0:0:0:
329,192,169302,1,0,0:0:0:0:
475,192,169302,1,0,0:0:0:0:
256,192,169395,1,0,0:0:0:0:
109,192,169395,1,0,0:0:0:0:
36,192,169489,1,0,0:0:0:0:
182,192,169489,1,0,0:0:0:0:
109,192,169583,1,0,0:0:0:0:
329,192,169583,1,0,0:0:0:0:
402,192,169583,1,0,0:0:0:0:
256,192,169677,1,0,0:0:0:0:
36,192,169677,1,0,0:0:0:0:
182,192,169770,1,0,0:0:0:0:
109,192,169770,1,0,0:0:0:0:
256,192,169864,1,0,0:0:0:0:
36,192,169864,1,0,0:0:0:0:
475,192,169864,1,0,0:0:0:0:
329,192,169958,1,0,0:0:0:0:
109,192,169958,1,0,0:0:0:0:
36,192,170052,1,0,0:0:0:0:
182,192,170052,1,0,0:0:0:0:
475,192,170052,1,0,0:0:0:0:
109,192,170145,1,0,0:0:0:0:
256,192,170145,1,0,0:0:0:0:
182,192,170239,1,0,0:0:0:0:
329,192,170239,1,0,0:0:0:0:
256,192,170333,1,0,0:0:0:0:
36,192,170333,1,0,0:0:0:0:
402,192,170333,1,0,0:0:0:0:
109,192,170427,1,0,0:0:0:0:
329,192,170427,1,0,0:0:0:0:
36,192,170520,1,0,0:0:0:0:
256,192,170520,1,0,0:0:0:0:
182,192,170614,1,0,0:0:0:0:
329,192,170614,1,0,0:0:0:0:
475,192,170614,1,0,0:0:0:0:
109,192,170708,1,0,0:0:0:0:
256,192,170708,1,0,0:0:0:0:
182,192,170802,1,0,0:0:0:0:
36,192,170802,1,0,0:0:0:0:
475,192,170802,1,0,0:0:0:0:
109,192,170895,1,0,0:0:0:0:
329,192,170895,1,0,0:0:0:0:
182,192,170989,1,0,0:0:0:0:
256,192,170989,1,0,0:0:0:0:
36,192,171083,1,0,0:0:0:0:
329,192,171083,1,0,0:0:0:0:
402,192,171083,1,0,0:0:0:0:
109,192,171177,1,0,0:0:0:0:
256,192,171177,1,0,0:0:0:0:
182,192,171270,1,0,0:0:0:0:
329,192,171270,1,0,0:0:0:0:
256,192,171364,1,0,0:0:0:0:
109,192,171364,1,0,0:0:0:0:
475,192,171364,1,0,0:0:0:0:
36,192,171458,1,0,0:0:0:0:
182,192,171458,1,0,0:0:0:0:
109,192,171552,1,0,0:0:0:0:
329,192,171552,1,0,0:0:0:0:
475,192,171552,1,0,0:0:0:0:
182,192,171645,1,0,0:0:0:0:
36,192,171645,1,0,0:0:0:0:
256,192,171739,1,0,0:0:0:0:
109,192,171739,1,0,0:0:0:0:
402,192,171739,1,0,0:0:0:0:
182,192,171833,1,0,0:0:0:0:
329,192,171833,1,0,0:0:0:0:
256,192,171927,1,0,0:0:0:0:
36,192,171927,1,0,0:0:0:0:
475,192,171927,1,0,0:0:0:0:
182,192,172020,1,0,0:0:0:0:
109,192,172020,1,0,0:0:0:0:
329,192,172114,1,0,0:0:0:0:
36,192,172114,1,0,0:0:0:0:
402,192,172114,1,0,0:0:0:0:
256,192,172208,1,0,0:0:0:0:
109,192,172208,1,0,0:0:0:0:
329,192,172302,1,0,0:0:0:0:
182,192,172302,1,0,0:0:0:0:
36,192,172302,1,0,0:0:0:0:
402,192,172395,1,0,0:0:0:0:
256,192,172395,1,0,0:0:0:0:
329,192,172489,1,0,0:0:0:0:
475,192,172489,1,0,0:0:0:0:
182,192,172583,1,0,0:0:0:0:
402,192,172583,1,0,0:0:0:0:
109,192,172583,1,0,0:0:0:0:
475,192,172677,1,0,0:0:0:0:
256,192,172677,1,0,0:0:0:0:
402,192,172770,1,0,0:0:0:0:
329,192,172770,1,0,0:0:0:0:
256,192,172864,1,0,0:0:0:0:
475,192,172864,1,0,0:0:0:0:
36,192,172864,1,0,0:0:0:0:
402,192,172958,1,0,0:0:0:0:
182,192,172958,1,0,0:0:0:0:
475,192,173052,1,0,0:0:0:0:
329,192,173052,1,0,0:0:0:0:
36,192,173052,1,0,0:0:0:0:
402,192,173145,1,0,0:0:0:0:
256,192,173145,1,0,0:0:0:0:
329,192,173239,1,0,0:0:0:0:
182,192,173239,1,0,0:0:0:0:
256,192,173333,1,0,0:0:0:0:
475,192,173333,1,0,0:0:0:0:
109,192,173333,1,0,0:0:0:0:
402,192,173427,1,0,0:0:0:0:
182,192,173427,1,0,0:0:0:0:
475,192,173520,1,0,0:0:0:0:
256,192,173520,1,0,0:0:0:0:
329,192,173614,1,0,0:0:0:0:
182,192,173614,1,0,0:0:0:0:
36,192,173614,1,0,0:0:0:0:
402,192,173708,1,0,0:0:0:0:
256,192,173708,1,0,0:0:0:0:
475,192,173802,1,0,0:0:0:0:
329,192,173802,1,0,0:0:0:0:
109,192,173802,1,0,0:0:0:0:
402,192,173895,1,0,0:0:0:0:
182,192,173895,1,0,0:0:0:0:
329,192,173989,1,0,0:0:0:0:
256,192,173989,1,0,0:0:0:0:
182,192,174083,1,0,0:0:0:0:
475,192,174083,1,0,0:0:0:0:
36,192,174083,1,0,0:0:0:0:
402,192,174177,1,0,0:0:0:0:
256,192,174177,1,0,0:0:0:0:
182,192,174270,1,0,0:0:0:0:
329,192,174270,1,0,0:0:0:0:
402,192,174364,1,0,0:0:0:0:
256,192,174364,1,0,0:0:0:0:
109,192,174364,1,0,0:0:0:0:
475,192,174458,1,0,0:0:0:0:
329,192,174458,1,0,0:0:0:0:
182,192,174552,1,0,0:0:0:0:
402,192,174552,1,0,0:0:0:0:
36,192,174552,1,0,0:0:0:0:
475,192,174645,1,0,0:0:0:0:
329,192,174645,1,0,0:0:0:0:
256,192,174739,1,0,0:0:0:0:
402,192,174739,1,0,0:0:0:0:
329,192,174833,1,0,0:0:0:0:
182,192,174833,1,0,0:0:0:0:
256,192,174927,1,0,0:0:0:0:
475,192,174927,1,0,0:0:0:0:
36,192,174927,1,0,0:0:0:0:
109,192,174927,1,0,0:0:0:0:
329,192,175020,1,0,0:0:0:0:
402,192,175020,1,0,0:0:0:0:
182,192,175114,1,0,0:0:0:0:
475,192,175114,1,0,0:0:0:0:
402,192,175208,1,0,0:0:0:0:
256,192,175208,1,0,0:0:0:0:
329,192,175302,1,0,0:0:0:0:
109,192,175302,1,0,0:0:0:0:
182,192,175302,1,0,0:0:0:0:
402,192,175395,1,0,0:0:0:0:
256,192,175395,1,0,0:0:0:0:
329,192,175489,1,0,0:0:0:0:
109,192,175489,1,0,0:0:0:0:
182,192,175583,1,0,0:0:0:0:
256,192,175583,1,0,0:0:0:0:
402,192,175677,1,0,0:0:0:0:
36,192,175677,1,0,0:0:0:0:
109,192,175770,1,0,0:0:0:0:
329,192,175770,1,0,0:0:0:0:
182,192,175864,1,0,0:0:0:0:
402,192,175864,1,0,0:0:0:0:
256,192,175958,1,0,0:0:0:0:
475,192,175958,1,0,0:0:0:0:
36,192,176052,1,0,0:0:0:0:
109,192,176052,1,0,0:0:0:0:
402,192,176052,1,0,0:0:0:0:
329,192,176052,1,0,0:0:0:0:
182,192,176145,1,0,0:0:0:0:
475,192,176145,1,0,0:0:0:0:
402,192,176239,1,0,0:0:0:0:
109,192,176239,1,0,0:0:0:0:
329,192,176333,1,0,0:0:0:0:
36,192,176333,1,0,0:0:0:0:
256,192,176427,1,0,0:0:0:0:
402,192,176427,1,0,0:0:0:0:
329,192,176520,1,0,0:0:0:0:
182,192,176520,1,0,0:0:0:0:
109,192,176614,1,0,0:0:0:0:
256,192,176614,1,0,0:0:0:0:
182,192,176708,1,0,0:0:0:0:
36,192,176708,1,0,0:0:0:0:
109,192,176802,1,0,0:0:0:0:
329,192,176802,1,0,0:0:0:0:
182,192,176895,1,0,0:0:0:0:
402,192,176895,1,0,0:0:0:0:
256,192,176989,1,0,0:0:0:0:
475,192,176989,1,0,0:0:0:0:
402,192,177083,1,0,0:0:0:0:
182,192,177083,1,0,0:0:0:0:
329,192,177177,1,0,0:0:0:0:
109,192,177177,1,0,0:0:0:0:
182,192,177270,1,0,0:0:0:0:
402,192,177270,1,0,0:0:0:0:
256,192,177364,1,0,0:0:0:0:
36,192,177364,1,0,0:0:0:0:
402,192,177458,1,0,0:0:0:0:
182,192,177458,1,0,0:0:0:0:
329,192,177552,1,0,0:0:0:0:
475,192,177552,1,0,0:0:0:0:
109,192,177552,1,0,0:0:0:0:
182,192,177645,1,0,0:0:0:0:
256,192,177739,1,0,0:0:0:0:
402,192,177739,1,0,0:0:0:0:
36,192,177739,1,0,0:0:0:0:
109,192,177833,1,0,0:0:0:0:
182,192,177927,1,0,0:0:0:0:
329,192,177927,1,0,0:0:0:0:
475,192,177927,1,0,0:0:0:0:
36,192,178020,1,0,0:0:0:0:
109,192,178114,1,0,0:0:0:0:
256,192,178114,1,0,0:0:0:0:
402,192,178114,1,0,0:0:0:0:
475,192,178208,1,0,0:0:0:0:
36,192,178302,1,0,0:0:0:0:
182,192,178302,1,0,0:0:0:0:
329,192,178302,1,0,0:0:0:0:
402,192,178395,1,0,0:0:0:0:
109,192,178395,1,0,0:0:0:0:
182,192,178489,1,0,0:0:0:0:
329,192,178489,1,0,0:0:0:0:
256,192,178583,1,0,0:0:0:0:
475,192,178583,1,0,0:0:0:0:
402,192,178677,1,0,0:0:0:0:
109,192,178677,1,0,0:0:0:0:
475,192,178770,1,0,0:0:0:0:
256,192,178770,1,0,0:0:0:0:
36,192,178864,1,0,0:0:0:0:
329,192,178864,1,0,0:0:0:0:
182,192,178958,1,0,0:0:0:0:
402,192,178958,1,0,0:0:0:0:
475,192,179052,1,0,0:0:0:0:
329,192,179052,1,0,0:0:0:0:
109,192,179052,1,0,0:0:0:0:
36,192,179052,1,0,0:0:0:0:
402,192,179145,1,0,0:0:0:0:
256,192,179145,1,0,0:0:0:0:
182,192,179239,1,0,0:0:0:0:
329,192,179239,1,0,0:0:0:0:
256,192,179333,1,0,0:0:0:0:
475,192,179427,1,0,0:0:0:0:
329,192,179427,1,0,0:0:0:0:
36,192,179520,1,0,0:0:0:0:
182,192,179520,1,0,0:0:0:0:
109,192,179614,1,0,0:0:0:0:
256,192,179614,1,0,0:0:0:0:
329,192,179708,1,0,0:0:0:0:
182,192,179708,1,0,0:0:0:0:
402,192,179802,1,0,0:0:0:0:
475,192,179802,1,0,0:0:0:0:
36,192,179802,1,0,0:0:0:0:
109,192,179802,1,0,0:0:0:0:
256,192,179802,1,0,0:0:0:0:
109,192,180083,1,0,0:0:0:0:
182,192,180083,1,0,0:0:0:0:
329,192,180083,1,0,0:0:0:0:
402,192,180083,1,0,0:0:0:0:
36,192,180364,1,0,0:0:0:0:
109,192,180364,1,0,0:0:0:0:
256,192,180364,1,0,0:0:0:0:
329,192,180364,1,0,0:0:0:0:
475,192,180364,1,0,0:0:0:0:
475,192,180552,1,0,0:0:0:0:
329,192,180552,1,0,0:0:0:0:
402,192,180645,1,0,0:0:0:0:
256,192,180645,1,0,0:0:0:0:
329,192,180739,1,0,0:0:0:0:
182,192,180739,1,0,0:0:0:0:
256,192,180833,1,0,0:0:0:0:
109,192,180833,1,0,0:0:0:0:
182,192,180927,1,0,0:0:0:0:
475,192,180927,1,0,0:0:0:40:soft-hitclap.wav
36,192,180927,1,0,0:0:0:0:
402,192,180973,1,0,0:0:0:40:soft-hitclap.wav
329,192,181020,1,0,0:0:0:40:soft-hitclap.wav
109,192,181020,1,0,0:0:0:0:
256,192,181067,1,0,0:0:0:40:soft-hitclap.wav
475,192,181114,1,0,0:0:0:40:soft-hitclap.wav
182,192,181114,1,0,0:0:0:0:
36,192,181114,1,0,0:0:0:0:
402,192,181161,1,0,0:0:0:40:soft-hitclap.wav
329,192,181208,1,0,0:0:0:40:soft-hitclap.wav
109,192,181208,1,0,0:0:0:0:
256,192,181255,1,0,0:0:0:40:soft-hitclap.wav
182,192,181302,1,0,0:0:0:0:
36,192,181302,1,0,0:0:0:0:
475,192,181302,1,0,0:0:0:0:
256,192,182159,1,0,0:0:0:0:
256,192,182534,1,0,0:0:0:0:
329,192,182909,1,0,0:0:0:0:
402,192,183166,1,0,0:0:0:0:
182,192,183659,1,0,0:0:0:0:
402,192,184174,1,0,0:0:0:0:
329,192,184455,1,0,0:0:0:0:
109,192,184690,1,0,0:0:0:0:
256,192,185159,1,0,0:0:0:0:
329,192,185440,1,0,0:0:0:0:
36,192,185674,1,0,0:0:0:0:
182,192,185909,1,0,0:0:0:0:
475,192,186166,1,0,0:0:0:0:
402,192,186401,1,0,0:0:0:0:
109,192,186659,1,0,0:0:0:0:
182,192,187174,1,0,0:0:0:0:
329,192,187409,1,0,0:0:0:0:
109,192,187666,1,0,0:0:0:0:
402,192,187901,1,0,0:0:0:0:
182,192,188041,1,0,0:0:0:0:
36,192,188159,1,0,0:0:0:0:
475,192,188159,1,0,0:0:0:0:
329,192,188190,1,0,0:0:0:0:
109,192,188221,1,0,0:0:0:0:
402,192,188252,1,0,0:0:0:0:
182,192,188284,1,0,0:0:0:0:
475,192,188315,1,0,0:0:0:0:
256,192,188346,1,0,0:0:0:0:
