osu file format v13

[General]
AudioFilename: remix.mp3
AudioLeadIn: 0
PreviewTime: 97537
Countdown: 1
SampleSet: Normal
StackLeniency: 0.4
Mode: 0
LetterboxInBreaks: 1
WidescreenStoryboard: 0

[Editor]
DistanceSpacing: 0.8
BeatDivisor: 4
GridSize: 4
TimelineZoom: 1.6

[Metadata]
Title:Youyoumu no Gotoku (Autobahn Remix)
TitleUnicode:漸う夢の如く (Autobahn Remix)
Artist:senya
ArtistUnicode:senya
Creator:Yogurtt
Version:Lunatic
Source:Touhou
Tags:sex
BeatmapID:504243
BeatmapSetID:214623

[Difficulty]
HPDrainRate:6
CircleSize:4
OverallDifficulty:7
ApproachRate:9
SliderMultiplier:1.8
SliderTickRate:2

[Events]
//Background and Video events
0,0,"212916.jpg",0,0
//Break Periods
2,133831,139031
//Storyboard Layer 0 (Background)
//Storyboard Layer 1 (Fail)
//Storyboard Layer 2 (Pass)
//Storyboard Layer 3 (Foreground)
//Storyboard Sound Samples
//Background Colour Transformations
3,100,163,162,255

[TimingPoints]
881,375,4,2,0,70,1,0
881,-133.333333333333,4,2,0,70,0,0
12881,-100,4,2,0,80,0,0
21881,-86.9565217391304,4,2,0,80,0,0
22631,-76.9230769230769,4,2,0,80,0,0
23381,-66.6666666666667,4,2,0,80,0,0
24131,-100,4,2,0,80,0,0
36881,-86.9565217391304,4,2,1,80,0,1
48131,-100,4,2,1,70,0,0
48881,-83.3333333333333,4,2,1,70,0,1
60881,-100,4,2,1,70,0,0
72881,-100,4,2,1,80,0,0
97631,375,4,2,1,70,1,0
97631,-76.9230769230769,4,2,1,70,0,1
108881,-100,4,2,1,70,0,0
109631,-76.9230769230769,4,2,1,70,0,1
121631,-83.3333333333333,4,2,1,70,0,0
144881,-66.6666666666667,4,2,1,70,0,0
145631,-100,4,2,1,70,0,0
157631,-66.6666666666667,4,1,1,80,0,1
169631,-100,4,2,1,70,0,0

[HitObjects]
104,100,881,6,0,P|176:84|252:112,1,135.000005149842
276,196,1631,1,0,0:0:0:0:
196,272,2006,1,0,0:0:0:0:
224,160,2381,2,0,L|264:276,1,101.250003862381
268,284,2756,5,0,0:0:0:0:
324,216,2943,1,0,0:0:0:0:
376,152,3131,1,0,0:0:0:0:
384,144,3506,6,0,P|320:116|256:120,1,135.000005149842
112,160,4256,2,0,P|160:180|196:176,1,67.5000025749208
388,128,4631,2,0,P|340:108|304:112,1,67.5000025749208
108,172,5006,2,0,P|156:192|192:188,1,67.5000025749208
252,156,5381,5,0,0:0:0:0:
172,104,5568,1,0,0:0:0:0:
208,260,5756,5,0,0:0:0:0:
304,216,5943,1,0,0:0:0:0:
176,176,6131,2,0,L|128:244,1,67.5000025749208
374,231,6506,2,0,L|336:176,1,67.5000025749208
256,316,6881,6,0,L|256:164,1,135.000005149842
248,308,7631,2,0,L|248:156,1,135.000005149842
240,300,8381,2,0,L|240:148,1,135.000005149842
188,64,8943,1,0,0:0:0:0:
188,64,9131,2,0,L|144:136,1,67.5000025749208
252,120,9506,2,0,P|300:144|372:128,1,101.250003862381
346,140,9881,6,0,L|376:232,1,67.5000025749208
328,348,10256,2,0,L|298:256,1,67.5000025749208
360,144,10631,6,0,P|320:196|268:212,1,101.250003862381
260,212,11006,2,0,P|240:148|196:112,1,101.250003862381
192,108,11381,2,0,P|256:56|296:52,1,101.250003862381
304,52,11756,5,0,0:0:0:0:
328,136,11943,1,0,0:0:0:0:
392,68,12131,5,0,0:0:0:0:
360,232,12318,1,0,0:0:0:0:
460,176,12506,5,0,0:0:0:0:
316,320,12693,1,0,0:0:0:0:
452,324,12881,6,0,P|380:296|348:264,1,90
256,96,13256,2,0,P|328:124|360:156,1,90
256,216,13631,5,0,0:0:0:0:
244,84,13818,1,0,0:0:0:0:
352,256,14006,1,0,0:0:0:0:
232,72,14193,1,0,0:0:0:0:
156,152,14381,2,0,L|148:260,1,90,0|0,0:0|0:0,0:0:0:0:
264,320,14756,2,0,L|257:230,1,90,0|0,0:0|0:0,0:0:0:0:
252,152,15131,5,0,0:0:0:0:
332,296,15318,1,0,0:0:0:0:
224,260,15506,1,0,0:0:0:0:
320,112,15693,1,0,0:0:0:0:
408,272,15881,6,0,P|432:216|436:132,1,135
440,112,16256,2,0,P|388:136|332:132,1,90
104,272,16631,2,0,P|80:216|76:132,1,135
72,112,17006,2,0,P|124:136|180:132,1,90
256,84,17381,5,0,0:0:0:0:
304,244,17568,1,0,0:0:0:0:
208,244,17756,1,0,0:0:0:0:
256,108,17943,5,0,0:0:0:0:
340,268,18131,1,0,0:0:0:0:
168,264,18318,1,0,0:0:0:0:
256,140,18506,5,0,0:0:0:0:
256,336,18693,1,0,0:0:0:0:
256,168,18881,2,0,L|256:232,1,45
252,280,19068,2,0,L|176:164,1,135
140,96,19443,5,0,0:0:0:0:
180,120,19537,1,0,0:0:0:0:
224,124,19631,1,0,0:0:0:0:
268,112,19724,1,0,0:0:0:0:
304,84,19818,1,0,0:0:0:0:
320,40,19912,1,0,0:0:0:0:
320,0,20006,6,0,P|356:80|356:136,1,135
356,216,20381,2,0,L|296:192,1,45
208,296,20568,2,0,L|268:272,1,45
144,212,20756,1,0,0:0:0:0:
144,212,20849,1,0,0:0:0:0:
144,212,20943,6,0,L|116:160,1,45
156,56,21131,2,0,L|184:108,1,45
216,168,21318,1,0,0:0:0:0:
216,168,21412,1,0,0:0:0:0:
216,168,21506,6,0,P|256:128|344:124,1,135
416,160,21881,2,0,L|368:232,1,51.7500009870529
316,296,22068,2,0,L|287:252,1,51.7500009870529
216,168,22256,6,0,P|200:240|136:296,1,155.250002961159
72,260,22631,2,0,P|48:228|40:192,1,58.4999973220826
44,124,22818,2,0,P|54:85|77:56,1,58.4999973220826
144,16,23006,6,0,P|196:76|312:92,1,175.499991966248
372,80,23381,2,0,P|376:112|360:160,1,67.5000025749208
288,244,23568,2,0,P|279:211|283:178,1,67.5000025749208
380,80,23756,2,0,P|384:112|368:160,1,67.5000025749208
280,244,23943,2,0,P|271:211|275:178,1,67.5000025749208
208,144,24131,5,0,0:0:0:0:
168,160,24224,1,0,0:0:0:0:
136,192,24318,1,0,0:0:0:0:
128,236,24412,1,0,0:0:0:0:
108,276,24506,1,0,0:0:0:0:
64,284,24599,1,0,0:0:0:0:
32,252,24693,1,0,0:0:0:0:
36,208,24787,1,0,0:0:0:0:
36,164,24881,6,0,P|36:108|-8:44,1,135
28,16,25256,2,0,L|120:56,1,90
204,76,25631,6,0,L|232:236,1,135
232,248,26006,2,0,L|264:152,1,90
356,240,26381,2,0,L|384:325,1,90
232,248,26756,5,0,0:0:0:0:
344,132,26943,1,0,0:0:0:0:
308,328,27131,2,0,P|256:332|172:384,1,135
176,348,27506,2,0,P|164:284|128:248,1,90
72,204,27881,2,0,P|128:152|240:148,1,180
320,176,28443,5,0,0:0:0:0:
216,228,28631,1,0,0:0:0:0:
256,80,28818,1,0,0:0:0:0:
204,240,29006,2,0,P|272:276|304:276,1,90
384,280,29381,2,0,L|312:160,2,135,0|0|0,0:0|0:0|0:0,0:0:0:0:
416,164,30131,5,0,0:0:0:0:
248,84,30318,1,0,0:0:0:0:
340,312,30506,1,0,0:0:0:0:
368,40,30693,1,0,0:0:0:0:
244,204,30881,5,0,0:0:0:0:
244,204,30974,1,0,0:0:0:0:
244,204,31068,1,0,0:0:0:0:
176,108,31256,1,0,0:0:0:0:
160,280,31443,1,0,0:0:0:0:
88,184,31631,5,0,0:0:0:0:
88,184,31724,1,0,0:0:0:0:
88,184,31818,1,0,0:0:0:0:
168,288,32006,2,0,L|264:304,1,90
344,312,32381,5,0,0:0:0:0:
344,312,32474,1,0,0:0:0:0:
344,312,32568,1,0,0:0:0:0:
216,172,32756,1,0,0:0:0:0:
328,224,32943,1,0,0:0:0:0:
112,240,33131,5,0,0:0:0:0:
112,240,33224,1,0,0:0:0:0:
112,240,33318,1,0,0:0:0:0:
160,104,33506,1,0,0:0:0:0:
352,104,33693,1,0,0:0:0:0:
400,240,33881,1,0,0:0:0:0:
400,240,33974,1,0,0:0:0:0:
400,240,34068,6,0,L|344:272,1,45
284,204,34256,2,0,L|228:236,1,45,0|0,0:0|0:0,0:0:0:0:
160,160,34443,2,0,L|104:192,1,45
44,124,34631,2,0,L|-12:156,1,45,0|0,0:0|0:0,0:0:0:0:
84,48,34818,6,0,L|140:80,1,45,0|0,0:0|0:0,0:0:0:0:
200,24,35006,2,0,L|256:-8,1,45,0|0,0:0|0:0,0:0:0:0:
272,92,35193,2,0,L|328:124,1,45,0|0,0:0|0:0,0:0:0:0:
368,44,35381,5,0,0:0:0:0:
400,76,35474,1,0,0:0:0:0:
420,116,35568,1,0,0:0:0:0:
428,160,35662,1,0,0:0:0:0:
432,204,35756,1,0,0:0:0:0:
428,248,35849,1,0,0:0:0:0:
412,288,35943,1,0,0:0:0:0:
380,320,36037,1,0,0:0:0:0:
340,344,36131,6,0,P|296:320|208:332,1,135
176,352,36506,2,0,L|164:232,1,90
164,168,36881,6,0,P|204:116|316:80,1,155.250002961159
372,88,37256,2,0,P|368:152|400:204,1,103.500001974106
424,280,37631,2,0,P|308:300|268:276,1,155.250002961159
220,240,38006,2,0,L|112:284,1,103.500001974106
144,164,38381,2,0,P|188:112|280:96,1,155.250002961159
308,96,38756,5,0,0:0:0:0:
220,240,38943,1,0,0:0:0:0:
388,180,39131,1,0,0:0:0:0:
208,80,39318,5,0,0:0:0:0:
328,288,39506,1,0,0:0:0:0:
324,88,39693,1,0,0:0:0:0:
444,296,39881,2,0,L|464:124,1,155.250002961159
472,64,40256,2,0,L|400:176,1,103.500001974106
328,288,40631,2,0,L|272:200,1,103.500001974106
224,120,41006,5,0,0:0:0:0:
184,276,41193,1,0,0:0:0:0:
340,80,41381,5,0,0:0:0:0:
140,156,41568,1,0,0:0:0:0:
284,208,41756,5,0,0:0:0:0:
200,20,41943,1,0,0:0:0:0:
56,160,42131,1,0,0:0:0:0:
68,176,42224,1,0,0:0:0:0:
80,192,42318,1,0,0:0:0:0:
92,208,42412,1,0,0:0:0:0:
104,224,42506,1,0,0:0:0:0:
116,240,42599,1,0,0:0:0:0:
128,256,42693,1,0,0:0:0:0:
140,272,42787,1,0,0:0:0:0:
152,288,42881,6,0,P|228:192|236:144,1,155.250002961159
244,80,43256,2,0,P|308:48|380:56,1,103.500001974106
440,96,43631,2,0,P|400:152|412:264,1,155.250002961159
436,312,44006,2,0,P|364:348|304:328,1,103.500001974106
148,264,44381,2,0,P|220:228|280:248,1,103.500001974106
72,336,44756,2,0,L|36:216,1,103.500001974106
24,152,45131,5,0,0:0:0:0:
92,64,45318,1,0,0:0:0:0:
172,196,45506,1,0,0:0:0:0:
216,32,45693,1,0,0:0:0:0:
316,228,45881,2,0,P|352:176|356:64,1,155.250002961159
424,24,46256,2,0,P|464:96|504:116,1,103.500001974106
472,220,46631,2,0,P|432:292|392:312,1,103.500001974106
316,312,47006,6,0,L|268:196,2,103.500001974106,0|0|0,0:0|0:0|0:0,0:0:0:0:
360,216,47568,1,0,0:0:0:0:
224,180,47756,1,0,0:0:0:0:
352,240,47943,5,0,0:0:0:0:
248,68,48131,1,0,0:0:0:0:
156,232,48318,1,0,0:0:0:0:
344,264,48506,1,0,0:0:0:0:
344,264,48599,1,0,0:0:0:0:
344,264,48693,1,0,0:0:0:0:
344,264,48787,1,0,0:0:0:0:
344,264,48881,6,0,P|272:296|184:288,1,161.999995056153
100,252,49256,2,0,L|212:176,1,107.999996704102
308,148,49631,2,0,P|248:104|128:112,1,161.999995056153
80,96,50006,2,0,P|132:56|204:48,1,107.999996704102
268,40,50381,2,0,P|320:96|416:124,1,161.999995056153
492,128,50756,2,0,L|384:184,1,107.999996704102
320,216,51131,5,0,0:0:0:0:
184,176,51318,1,0,0:0:0:0:
248,224,51506,1,0,0:0:0:0:
216,68,51693,1,0,0:0:0:0:
92,164,51881,6,0,P|132:244|216:284,1,161.999995056153
284,300,52256,2,0,P|344:224|392:208,1,107.999996704102
464,192,52631,2,0,P|428:132|304:88,1,161.999995056153
256,100,53006,2,0,P|192:160|140:164,1,107.999996704102
96,200,53381,6,0,B|96:248|96:248|108:264|108:264|108:344,1,107.999996704102
268,204,53756,2,0,B|268:156|268:156|256:140|256:140|256:60,1,107.999996704102,0|0,0:0|0:0,0:0:0:0:
404,136,54131,2,0,L|472:136,1,53.9999983520508
320,136,54318,2,0,L|320:208,1,53.9999983520508
404,44,54506,2,0,L|404:-20,1,53.9999983520508
320,44,54693,2,0,L|256:44,1,53.9999983520508
320,136,54881,6,0,P|248:200|156:212,1,161.999995056153
88,216,55256,2,0,P|120:280|184:324,1,107.999996704102
312,312,55631,2,0,P|380:256|476:248,1,161.999995056153
496,192,56006,2,0,L|368:144,1,107.999996704102
304,108,56381,2,0,B|304:160|244:176|244:176|212:168|152:188,1,161.999995056153
84,208,56756,2,0,P|60:132|72:72,1,107.999996704102
124,32,57131,5,0,0:0:0:0:
252,212,57318,1,0,0:0:0:0:
388,32,57506,1,0,0:0:0:0:
112,44,57693,5,0,0:0:0:0:
236,220,57881,2,0,P|300:248|404:220,1,161.999995056153
464,176,58256,2,0,P|412:120|416:52,1,107.999996704102
256,144,58631,2,0,P|204:208|116:220,1,161.999995056153
12,220,59006,2,0,L|92:308,1,107.999996704102
192,324,59381,5,0,0:0:0:0:
336,228,59568,1,0,0:0:0:0:
196,224,59756,5,0,0:0:0:0:
332,324,59943,1,0,0:0:0:0:
256,108,60131,5,0,0:0:0:0:
180,324,60318,1,0,0:0:0:0:
344,324,60506,5,0,0:0:0:0:
364,304,60599,1,0,0:0:0:0:
376,280,60693,1,0,0:0:0:0:
384,252,60787,1,0,0:0:0:0:
380,228,60881,2,0,P|332:160|332:112,1,90
160,84,61256,5,0,0:0:0:0:
128,220,61443,1,0,0:0:0:0:
260,192,61631,2,0,P|240:128|176:88,1,135
160,84,62006,2,0,L|104:164,1,90
68,236,62381,5,0,0:0:0:0:
184,292,62568,1,0,0:0:0:0:
212,180,62756,1,0,0:0:0:0:
328,236,62943,1,0,0:0:0:0:
216,168,63131,2,0,P|288:160|332:136,1,90,0|0,0:0|0:0,0:0:0:0:
480,36,63506,2,0,P|408:44|364:68,1,90,0|0,0:0|0:0,0:0:0:0:
220,156,63881,6,0,P|292:148|336:124,1,90,0|0,0:0|0:0,0:0:0:0:
148,100,64256,2,0,L|92:184,1,90
148,268,64631,2,0,P|208:256|296:300,1,135
300,308,65006,2,0,L|344:196,1,90
360,144,65381,5,0,0:0:0:0:
236,188,65568,1,0,0:0:0:0:
340,120,65756,5,0,0:0:0:0:
264,200,65943,1,0,0:0:0:0:
372,232,66131,1,0,0:0:0:0:
256,64,66318,1,0,0:0:0:0:
140,232,66506,2,0,L|228:288,1,90
372,232,66881,6,0,L|424:144,1,90
340,120,67256,2,0,L|392:32,1,90,0|0,0:0|0:0,0:0:0:0:
256,64,67631,2,0,P|232:120|160:164,1,135
140,164,68006,2,0,L|256:200,1,90
148,280,68381,5,0,0:0:0:0:
68,164,68568,1,0,0:0:0:0:
196,144,68756,1,0,0:0:0:0:
76,244,68943,1,0,0:0:0:0:
136,72,69131,5,0,0:0:0:0:
320,136,69318,1,0,0:0:0:0:
260,308,69506,1,0,0:0:0:0:
64,232,69693,1,0,0:0:0:0:
64,232,69787,1,0,0:0:0:0:
64,232,69881,6,0,P|92:164|120:124,1,90
136,72,70256,2,0,L|184:104,1,45
180,72,70443,2,0,L|228:104,1,45
224,72,70631,2,0,P|176:112|176:208,1,135
180,204,71006,2,0,L|88:280,1,90
332,180,71381,2,0,L|424:104,1,90
288,92,71756,5,0,0:0:0:0:
268,104,71849,1,0,0:0:0:0:
248,116,71943,1,0,0:0:0:0:
180,204,72131,2,0,L|240:248,1,45
136,288,72318,2,0,L|76:332,1,45
92,204,72506,2,0,L|92:132,1,45
184,60,72693,2,0,L|184:105,1,45
104,72,72881,6,0,P|168:32|272:52,1,180
352,128,73443,2,0,P|313:149|270:139,1,90
420,60,73818,2,0,P|458:38|501:48,1,90
436,248,74193,2,0,L|464:144,2,90,0|0|0,0:0|0:0|0:0,0:0:0:0:
340,312,74756,5,0,0:0:0:0:
264,184,74943,1,0,0:0:0:0:
200,324,75131,2,0,P|264:284|300:224,1,135
300,200,75506,2,0,L|204:160,1,90
284,88,75881,5,0,0:0:0:0:
292,256,76068,1,0,0:0:0:0:
168,196,76256,1,0,0:0:0:0:
296,104,76443,5,0,0:0:0:0:
276,264,76631,1,0,0:0:0:0:
172,180,76818,1,0,0:0:0:0:
308,120,77006,6,0,P|268:152|184:152,1,135
156,148,77381,2,0,L|216:232,1,90
356,236,77756,2,0,L|296:152,1,90
144,276,78131,6,0,L|244:300,1,90
368,108,78506,2,0,L|268:84,1,90
116,304,78881,6,0,P|192:268|216:192,1,135
216,188,79256,2,0,P|280:248|284:280,1,90
116,216,79631,2,0,P|52:156|48:100,1,135
48,80,80006,1,0,0:0:0:0:
160,148,80193,1,0,0:0:0:0:
184,24,80381,1,0,0:0:0:0:
296,92,80568,1,0,0:0:0:0:
320,0,80756,6,0,P|364:72|376:148,1,135
376,160,81131,2,0,P|308:184|256:180,1,90
160,148,81506,1,0,0:0:0:0:
236,36,81693,1,0,0:0:0:0:
296,168,81881,2,0,P|264:116|184:76,1,135
168,68,82256,2,0,P|136:116|80:144,1,90
28,176,82631,5,0,0:0:0:0:
208,276,82818,1,0,0:0:0:0:
144,168,83006,5,0,0:0:0:0:
112,328,83193,1,0,0:0:0:0:
312,200,83381,6,0,L|228:152,1,90
368,104,83756,2,0,L|452:56,1,90
424,212,84131,1,0,0:0:0:0:
304,184,84318,1,0,0:0:0:0:
392,324,84506,1,0,0:0:0:0:
360,92,84693,1,0,0:0:0:0:
360,92,84787,1,0,0:0:0:0:
360,92,84881,6,0,P|280:72|224:84,1,135
196,88,85256,5,0,0:0:0:0:
304,184,85443,1,0,0:0:0:0:
192,248,85631,1,0,0:0:0:0:
300,344,85818,1,0,0:0:0:0:
360,92,86006,6,0,P|280:72|224:84,1,135
120,88,86381,5,0,0:0:0:0:
380,184,86568,1,0,0:0:0:0:
116,248,86756,1,0,0:0:0:0:
376,344,86943,1,0,0:0:0:0:
252,356,87131,6,0,P|236:280|264:144,1,180
304,96,87693,1,0,0:0:0:0:
304,96,87881,2,0,P|236:72|152:76,1,135
76,120,88256,2,0,L|136:160,1,45
200,188,88443,2,0,P|144:224|104:224,1,90
122,226,88818,1,0,0:0:0:0:
312,188,89006,2,0,P|368:224|408:224,1,90
232,268,89381,6,0,P|192:224|92:256,2,135,0|0|0,0:0|0:0|0:0,0:0:0:0:
156,296,90131,5,0,0:0:0:0:
232,128,90318,1,0,0:0:0:0:
256,232,90506,5,0,0:0:0:0:
168,68,90693,1,0,0:0:0:0:
356,72,90881,1,0,0:0:0:0:
356,72,90974,1,0,0:0:0:0:
356,72,91068,2,0,L|412:44,5,45,0|0|0|0|0|0,0:0|0:0|0:0|0:0|0:0|0:0,0:0:0:0:
320,168,91631,2,0,L|264:140,5,45,0|0|0|0|0|0,0:0|0:0|0:0|0:0|0:0|0:0,0:0:0:0:
356,264,92193,6,0,L|356:328,1,45
280,328,92381,2,0,L|280:392,4,45,0|0|0|0|0,0:0|0:0|0:0|0:0|0:0,0:0:0:0:
208,204,92849,6,0,L|208:268,1,45
128,288,93037,2,0,L|128:352,4,45,0|0|0|0|0,0:0|0:0|0:0|0:0|0:0,0:0:0:0:
64,208,93506,6,0,L|116:120,1,90
216,60,93881,2,0,L|168:80,1,45
240,84,94068,1,0,0:0:0:0:
256,116,94162,1,0,0:0:0:0:
264,152,94256,1,0,0:0:0:0:
264,188,94349,1,0,0:0:0:0:
248,220,94443,1,0,0:0:0:0:
232,252,94537,1,0,0:0:0:0:
228,288,94631,1,0,0:0:0:0:
244,320,94724,1,0,0:0:0:0:
272,344,94818,1,0,0:0:0:0:
308,348,94912,1,0,0:0:0:0:
344,340,95006,1,0,0:0:0:0:
368,312,95099,1,0,0:0:0:0:
384,280,95193,1,0,0:0:0:0:
380,244,95287,1,0,0:0:0:0:
372,208,95381,6,0,L|372:128,1,45
300,148,95568,2,0,L|300:68,1,45,0|0,0:0|0:0,0:0:0:0:
216,96,95756,2,0,L|216:16,1,45,0|0,0:0|0:0,0:0:0:0:
136,176,95943,2,0,L|136:232,1,45
136,96,96131,2,0,L|60:96,1,45
216,176,96318,2,0,L|216:228,1,45
216,96,96506,6,0,L|184:76,4,22.5,0|0|0|0|0,0:0|0:0|0:0|0:0|0:0,0:0:0:0:
228,84,97631,2,0,P|252:140|368:208,1,175.499991966248
440,240,98006,2,0,B|420:280|380:304|380:304|372:356,1,116.999994644165
256,332,98381,2,0,B|212:256|128:248|128:248|152:196,1,175.499991966248
200,176,98756,2,0,P|148:128|56:124,1,116.999994644165
32,192,99131,2,0,P|104:156|144:48,1,175.499991966248
144,32,99506,5,0,0:0:0:0:
344,248,99693,1,0,0:0:0:0:
152,160,99881,1,0,0:0:0:0:
264,64,100068,1,0,0:0:0:0:
204,312,100256,1,0,0:0:0:0:
268,52,100443,1,0,0:0:0:0:
268,52,100537,1,0,0:0:0:0:
268,52,100631,6,0,P|352:44|432:88,1,175.499991966248
312,132,101006,2,0,P|224:140|176:84,1,116.999994644165
116,64,101381,2,0,B|64:128|64:160|64:160|96:188|104:256,1,175.499991966248
200,216,101756,2,0,P|244:272|308:284,1,116.999994644165
272,168,102131,2,0,P|212:120|88:148,1,175.499991966248
84,144,102506,5,0,0:0:0:0:
256,308,102693,1,0,0:0:0:0:
168,48,102881,1,0,0:0:0:0:
256,280,103068,1,0,0:0:0:0:
280,0,103256,1,0,0:0:0:0:
316,28,103349,1,0,0:0:0:0:
332,72,103443,1,0,0:0:0:0:
320,116,103537,1,0,0:0:0:0:
284,144,103631,6,0,B|228:136|224:244|224:244|176:184,1,175.499991966248
152,144,104006,2,0,P|104:196|100:284,1,116.999994644165
136,336,104381,2,0,B|192:304|232:324|232:324|260:356|308:336,1,175.499991966248
384,292,104756,2,0,P|328:228|328:160,1,116.999994644165
376,108,105131,6,0,B|328:72|280:76|280:76|288:120|232:132,1,175.499991966248
160,152,105506,2,0,P|120:104|120:40,1,116.999994644165
196,76,105881,5,0,0:0:0:0:
268,312,106068,1,0,0:0:0:0:
192,216,106256,5,0,0:0:0:0:
403,343,106443,1,0,0:0:0:0:
280,320,106631,6,0,P|344:288|392:172,1,175.499991966248
396,100,107006,2,0,P|328:64|304:16,1,116.999994644165
256,144,107381,6,0,L|256:216,1,58.4999973220826
168,140,107568,2,0,L|168:81,1,58.4999973220826
256,56,107756,5,0,0:0:0:0:
160,240,107943,1,0,0:0:0:0:
128,80,108131,1,0,0:0:0:0:
128,80,108224,1,0,0:0:0:0:
128,80,108318,1,0,0:0:0:0:
160,264,108506,5,0,0:0:0:0:
256,144,108693,1,0,0:0:0:0:
128,96,108881,1,0,0:0:0:0:
128,112,108974,1,0,0:0:0:0:
128,128,109068,1,0,0:0:0:0:
128,144,109162,1,0,0:0:0:0:
128,160,109256,1,0,0:0:0:0:
128,176,109349,1,0,0:0:0:0:
128,192,109443,1,0,0:0:0:0:
128,208,109537,1,0,0:0:0:0:
128,220,109631,6,0,P|176:240|304:196,1,175.499991966248
344,136,110006,2,0,L|396:276,1,116.999994644165
444,124,110381,2,0,B|452:96|452:96|368:88|332:-8,1,175.499991966248
276,80,110756,2,0,L|264:224,1,116.999994644165
180,128,111131,2,0,P|136:52|48:32,1,175.499991966248
24,36,111506,5,0,0:0:0:0:
84,192,111693,1,0,0:0:0:0:
180,108,111881,5,0,0:0:0:0:
240,264,112068,1,0,0:0:0:0:
344,128,112256,5,0,0:0:0:0:
180,88,112443,1,0,0:0:0:0:
240,288,112631,2,0,P|312:320|432:296,1,175.499991966248
504,236,113006,2,0,P|444:220|364:264,1,116.999994644165
448,300,113381,5,0,0:0:0:0:
356,120,113568,1,0,0:0:0:0:
304,220,113756,1,0,0:0:0:0:
420,216,113943,1,0,0:0:0:0:
420,216,114037,1,0,0:0:0:0:
420,216,114131,2,0,P|384:148|344:112,1,116.999994644165
180,56,114506,2,0,P|204:108|244:151,1,116.999994644165
420,216,114881,6,0,L|420:132,1,58.4999973220826
344,304,115068,2,0,L|344:220,1,58.4999973220826,0|0,0:0|0:0,0:0:0:0:
304,160,115256,2,0,L|304:76,1,58.4999973220826
228,248,115443,2,0,L|228:164,1,58.4999973220826,0|0,0:0|0:0,0:0:0:0:
228,88,115631,6,0,P|188:152|88:180,1,175.499991966248
16,244,116006,2,0,P|88:300|108:356,1,116.999994644165
212,320,116381,2,0,B|292:320|328:260|328:260|288:216,1,175.499991966248
240,176,116756,2,0,P|276:124|372:112,1,116.999994644165
448,96,117131,2,0,P|388:44|256:40,1,175.499991966248
264,32,117506,5,0,0:0:0:0:
348,248,117693,1,0,0:0:0:0:
264,128,117881,1,0,0:0:0:0:
448,240,118068,5,0,0:0:0:0:
376,80,118256,1,0,0:0:0:0:
264,308,118443,5,0,0:0:0:0:
376,64,118631,2,0,P|296:56|204:96,1,175.499991966248
132,176,119006,2,0,P|200:240|224:300,1,116.999994644165
264,352,119381,2,0,L|312:160,1,175.499991966248
320,104,119756,2,0,L|344:244,1,116.999994644165
464,116,120131,2,0,L|444:0,1,116.999994644165
320,104,120506,5,0,0:0:0:0:
328,304,120693,1,0,0:0:0:0:
332,136,120881,1,0,0:0:0:0:
212,272,121068,1,0,0:0:0:0:
388,228,121256,1,0,0:0:0:0:
228,156,121443,1,0,0:0:0:0:
328,304,121631,6,0,P|256:336|204:336,1,107.999996704102
128,192,122006,2,0,P|175:166|228:157,1,107.999996704102
212,272,122381,1,0,0:0:0:0:
128,192,122568,1,0,0:0:0:0:
228,156,122756,2,0,P|276:200|388:188,1,161.999995056153
400,184,123131,5,0,0:0:0:0:
276,104,123318,1,0,0:0:0:0:
384,220,123506,1,0,0:0:0:0:
352,56,123693,1,0,0:0:0:0:
296,296,123881,1,0,0:0:0:0:
360,36,124068,5,0,0:0:0:0:
320,24,124162,1,0,0:0:0:0:
276,28,124256,1,0,0:0:0:0:
244,56,124349,1,0,0:0:0:0:
224,96,124443,1,0,0:0:0:0:
224,140,124537,1,0,0:0:0:0:
248,176,124631,6,0,P|292:244|268:344,1,161.999995056153
256,356,125006,1,0,0:0:0:0:
148,224,125193,1,0,0:0:0:0:
80,324,125381,2,0,P|52:240|92:144,1,161.999995056153
224,96,125756,2,0,P|188:152|136:172,1,107.999996704102
136,76,126131,2,0,P|172:20|224:0,1,107.999996704102
292,28,126506,5,0,0:0:0:0:
320,108,126693,1,0,0:0:0:0:
268,176,126881,1,0,0:0:0:0:
184,164,127068,1,0,0:0:0:0:
120,224,127256,1,0,0:0:0:0:
156,304,127443,2,0,L|224:328,1,53.9999983520508
176,292,127631,6,0,P|260:272|336:208,1,161.999995056153
320,108,128006,2,0,L|376:228,1,107.999996704102
380,40,128381,2,0,L|268:4,1,107.999996704102
184,64,128756,1,0,0:0:0:0:
280,256,128943,1,0,0:0:0:0:
180,120,129131,5,0,0:0:0:0:
304,192,129318,1,0,0:0:0:0:
256,100,129506,5,0,0:0:0:0:
220,280,129693,1,0,0:0:0:0:
264,64,129881,5,0,0:0:0:0:
264,64,129974,1,0,0:0:0:0:
264,64,130068,1,0,0:0:0:0:
208,312,130256,1,0,0:0:0:0:
208,312,130349,1,0,0:0:0:0:
208,312,130443,2,0,L|176:244,1,53.9999983520508
156,188,130631,6,0,P|120:252|120:352,1,161.999995056153
120,360,131006,6,0,L|80:288,1,53.9999983520508
76,164,131193,2,0,L|102:211,1,53.9999983520508
24,228,131381,1,0,0:0:0:0:
16,184,131474,1,0,0:0:0:0:
20,140,131568,1,0,0:0:0:0:
44,104,131662,1,0,0:0:0:0:
84,84,131756,1,0,0:0:0:0:
128,84,131849,1,0,0:0:0:0:
168,104,131943,1,0,0:0:0:0:
196,136,132037,1,0,0:0:0:0:
212,176,132131,6,0,L|216:248,1,53.9999983520508
304,120,132318,2,0,L|300:48,1,53.9999983520508
312,208,132506,6,0,L|384:206,1,53.9999983520508
208,96,132693,2,0,L|135:97,1,53.9999983520508
212,240,132881,6,0,L|216:312,1,53.9999983520508
304,68,133068,2,0,L|300:-4,1,53.9999983520508
256,184,133256,5,0,0:0:0:0:
256,196,133349,1,0,0:0:0:0:
256,208,133443,1,0,0:0:0:0:
256,224,133537,1,0,0:0:0:0:
256,236,133631,5,0,0:0:0:0:
28,172,139631,5,0,0:0:0:0:
68,64,139818,1,0,0:0:0:0:
88,100,139912,1,0,0:0:0:0:
128,108,140006,5,0,0:0:0:0:
164,96,140099,1,0,0:0:0:0:
192,68,140193,1,0,0:0:0:0:
224,48,140287,1,0,0:0:0:0:
260,44,140381,1,0,0:0:0:0:
296,52,140474,5,0,0:0:0:0:
328,72,140568,1,0,0:0:0:0:
352,104,140662,1,0,0:0:0:0:
364,140,140756,1,0,0:0:0:0:
356,176,140849,1,0,0:0:0:0:
328,204,140943,1,0,0:0:0:0:
292,216,141037,1,0,0:0:0:0:
256,204,141131,6,0,L|292:160,2,53.9999983520508,0|0|0,0:0|0:0|0:0,0:0:0:0:
224,224,141412,1,0,0:0:0:0:
188,228,141506,1,0,0:0:0:0:
152,216,141599,1,0,0:0:0:0:
128,188,141693,1,0,0:0:0:0:
120,152,141787,1,0,0:0:0:0:
132,116,141881,1,0,0:0:0:0:
160,92,141974,1,0,0:0:0:0:
196,76,142068,1,0,0:0:0:0:
232,84,142162,1,0,0:0:0:0:
260,112,142256,1,0,0:0:0:0:
252,148,142349,6,0,L|220:196,2,53.9999983520508,0|0|0,0:0|0:0|0:0,0:0:0:0:
332,72,142631,2,0,L|332:152,1,53.9999983520508
416,240,142818,2,0,L|416:186,1,53.9999983520508
336,236,143006,6,0,L|336:316,1,53.9999983520508,0|0,0:0|0:0,0:0:0:0:
332,328,143193,2,0,L|264:344,1,53.9999983520508
240,332,143381,2,0,L|192:296,1,53.9999983520508,0|0,0:0|0:0,0:0:0:0:
176,268,143568,2,0,L|172:192,1,53.9999983520508
188,180,143756,2,0,L|248:112,1,53.9999983520508
284,84,143943,5,0,0:0:0:0:
284,84,144037,1,0,0:0:0:0:
284,84,144131,2,0,P|320:144|336:248,1,161.999995056153
328,272,144506,1,0,0:0:0:0:
300,300,144599,1,0,0:0:0:0:
264,312,144693,1,0,0:0:0:0:
228,312,144787,1,0,0:0:0:0:
184,292,144881,6,0,B|148:248|136:184|168:140|220:96|220:96|240:136,1,270.000010299683
239,135,145631,6,0,P|199:99|96:96,1,135
88,100,146006,2,0,L|132:204,1,90
164,272,146381,2,0,P|232:240|320:268,1,135
320,276,146756,2,0,L|356:168,1,90
368,108,147131,6,0,P|296:84|216:108,1,135
224,120,147506,1,0,0:0:0:0:
320,276,147693,1,0,0:0:0:0:
188,304,147881,5,0,0:0:0:0:
244,188,148068,1,0,0:0:0:0:
92,284,148256,5,0,0:0:0:0:
284,336,148443,1,0,0:0:0:0:
232,136,148631,6,0,P|180:100|100:96,1,135
80,100,149006,2,0,L|128:192,1,90
200,268,149381,2,0,L|264:140,1,135
272,112,149756,2,0,L|280:232,1,90
208,152,150131,5,0,0:0:0:0:
300,232,150318,1,0,0:0:0:0:
256,72,150506,5,0,0:0:0:0:
256,312,150693,1,0,0:0:0:0:
328,12,150881,5,0,0:0:0:0:
348,36,150974,1,0,0:0:0:0:
356,68,151068,1,0,0:0:0:0:
352,100,151162,1,0,0:0:0:0:
332,124,151256,1,0,0:0:0:0:
312,148,151349,1,0,0:0:0:0:
304,180,151443,1,0,0:0:0:0:
312,212,151537,1,0,0:0:0:0:
336,232,151631,6,0,P|384:296|372:348,1,135
348,364,152006,2,0,P|272:332|208:344,1,135
192,352,152381,2,0,P|132:320|108:248,1,135
112,228,152756,2,0,P|160:184|180:124,1,90
188,68,153131,5,0,0:0:0:0:
164,212,153318,1,0,0:0:0:0:
272,108,153506,1,0,0:0:0:0:
144,200,153693,1,0,0:0:0:0:
208,56,153881,5,0,0:0:0:0:
248,272,154068,1,0,0:0:0:0:
328,112,154256,1,0,0:0:0:0:
368,328,154443,1,0,0:0:0:0:
444,172,154631,2,0,P|404:120|336:96,1,135
308,96,155006,5,0,0:0:0:0:
272,108,155099,1,0,0:0:0:0:
256,136,155193,1,0,0:0:0:0:
260,168,155287,1,0,0:0:0:0:
280,192,155381,2,0,L|352:232,1,45
220,264,155568,2,0,L|148:224,1,45
212,100,155756,2,0,L|212:172,1,45
112,68,155943,2,0,L|112:-4,1,45
212,12,156131,6,0,P|240:64|288:96,1,90
364,104,156506,1,0,0:0:0:0:
352,128,156599,1,0,0:0:0:0:
340,152,156693,1,0,0:0:0:0:
292,240,156881,5,0,0:0:0:0:
272,200,156974,1,0,0:0:0:0:
236,172,157068,1,0,0:0:0:0:
192,164,157162,1,0,0:0:0:0:
148,176,157256,1,0,0:0:0:0:
124,212,157349,1,0,0:0:0:0:
124,256,157443,1,0,0:0:0:0:
152,292,157537,1,0,0:0:0:0:
216,316,157631,6,0,P|304:332|404:204,1,202.500007724762
440,188,158006,2,0,B|400:180|368:140|368:140|312:160,1,135.000005149842
240,216,158381,2,0,P|184:152|208:32,1,202.500007724762
248,8,158756,2,0,L|104:52,1,135.000005149842
48,116,159131,2,0,P|92:180|108:320,1,202.500007724762
104,340,159506,5,0,0:0:0:0:
216,124,159693,1,0,0:0:0:0:
208,272,159881,5,0,0:0:0:0:
128,24,160068,1,0,0:0:0:0:
340,168,160256,5,0,0:0:0:0:
140,200,160443,1,0,0:0:0:0:
228,24,160631,2,0,P|296:80|420:92,1,202.500007724762,0|0,0:0|0:0,0:0:0:0:
448,80,161006,2,0,P|432:152|372:196,1,135.000005149842
288,172,161381,2,0,B|280:212|280:212|200:132|112:200,1,202.500007724762
84,248,161756,2,0,P|52:176|116:108,1,135.000005149842
144,68,162131,5,0,0:0:0:0:
256,344,162412,1,0,0:0:0:0:
368,68,162693,1,0,0:0:0:0:
128,76,162881,5,0,0:0:0:0:
132,92,162974,1,0,0:0:0:0:
136,108,163068,1,0,0:0:0:0:
140,124,163162,1,0,0:0:0:0:
144,140,163256,1,0,0:0:0:0:
148,156,163349,1,0,0:0:0:0:
152,172,163443,1,0,0:0:0:0:
156,188,163537,1,0,0:0:0:0:
160,204,163631,6,0,P|212:128|320:100,1,202.500007724762
396,104,164006,2,0,P|368:176|392:260,1,135.000005149842
456,308,164381,2,0,P|372:336|252:272,1,202.500007724762
244,192,164756,2,0,L|176:312,1,135.000005149842
156,176,165131,2,0,B|88:104|172:52|172:52|204:80|272:44,1,202.500007724762
252,40,165506,5,0,0:0:0:0:
156,176,165693,1,0,0:0:0:0:
88,32,165881,1,0,0:0:0:0:
256,144,166068,5,0,0:0:0:0:
64,132,166256,1,0,0:0:0:0:
172,0,166443,1,0,0:0:0:0:
256,144,166631,6,0,P|180:212|76:224,1,202.500007724762
0,256,167006,2,0,P|72:316|100:360,1,135.000005149842
200,356,167381,2,0,P|236:272|360:220,1,202.500007724762
372,212,167756,5,0,0:0:0:0:
296,332,167943,1,0,0:0:0:0:
252,72,168131,5,0,0:0:0:0:
376,300,168318,1,0,0:0:0:0:
156,156,168506,1,0,0:0:0:0:
364,120,168693,1,0,0:0:0:0:
192,304,168881,1,0,0:0:0:0:
184,284,168974,5,0,0:0:0:0:
176,264,169068,1,0,0:0:0:0:
168,244,169162,1,0,0:0:0:0:
160,224,169256,1,0,0:0:0:0:
152,204,169349,1,0,0:0:0:0:
144,184,169443,1,0,0:0:0:0:
136,164,169537,1,0,0:0:0:0:
128,144,169631,6,0,P|192:176|232:176,1,90
444,152,170006,2,0,P|380:120|340:120,1,90
120,124,170381,2,0,P|220:168|304:160,1,180
224,72,170943,5,0,0:0:0:0:
72,192,171131,1,0,0:0:0:0:
200,256,171318,1,0,0:0:0:0:
100,40,171506,1,0,0:0:0:0:
208,268,171693,1,0,0:0:0:0:
208,268,171787,1,0,0:0:0:0:
208,268,171881,6,0,P|256:224|312:220,1,90
460,200,172256,2,0,P|412:244|356:248,1,90
216,284,172631,2,0,L|244:144,1,135
252,128,173006,1,0,0:0:0:0:
312,252,173193,1,0,0:0:0:0:
424,172,173381,1,0,0:0:0:0:
484,296,173568,1,0,0:0:0:0:
376,360,173756,1,0,0:0:0:0:
376,360,173849,1,0,0:0:0:0:
376,360,173943,6,0,P|336:292|296:268,1,90
208,224,174318,1,0,0:0:0:0:
256,344,174506,1,0,0:0:0:0:
300,92,174693,1,0,0:0:0:0:
124,104,174881,5,0,0:0:0:0:
132,276,175068,1,0,0:0:0:0:
280,180,175256,1,0,0:0:0:0:
124,104,175443,1,0,0:0:0:0:
124,104,175537,1,0,0:0:0:0:
124,104,175631,6,0,L|92:240,1,135
88,264,176006,2,0,L|160:176,1,90
224,144,176381,2,0,P|256:232|360:272,1,180
416,208,176943,5,0,0:0:0:0:
232,304,177131,1,0,0:0:0:0:
416,184,177318,2,0,L|304:168,1,90
144,292,177693,2,0,L|233:304,1,90
416,152,178068,5,0,0:0:0:0:
316,280,178256,1,0,0:0:0:0:
408,260,178443,5,0,0:0:0:0:
208,264,178631,1,0,0:0:0:0:
208,264,178724,1,0,0:0:0:0:
208,264,178818,1,0,0:0:0:0:
196,244,178912,1,0,0:0:0:0:
188,224,179006,1,0,0:0:0:0:
184,200,179099,1,0,0:0:0:0:
184,176,179193,1,0,0:0:0:0:
188,152,179287,1,0,0:0:0:0:
196,132,179381,6,0,L|140:104,1,45
300,56,179568,2,0,L|340:76,1,45
300,156,179756,2,0,L|272:216,1,45
396,112,179943,2,0,L|415:71,1,45
384,224,180131,5,0,0:0:0:0:
372,256,180224,1,0,0:0:0:0:
348,284,180318,1,0,0:0:0:0:
160,324,180506,5,0,0:0:0:0:
172,292,180599,1,0,0:0:0:0:
196,264,180693,1,0,0:0:0:0:
256,312,180881,6,0,L|228:360,1,45
176,172,181068,2,0,L|198:133,1,45
189,287,181256,6,0,L|133:292,1,45
256,140,181443,2,0,L|300:135,1,45
248,228,181631,5,4,0:0:0:0:
