osu file format v14

[General]
AudioFilename: remix.mp3
AudioLeadIn: 0
PreviewTime: 97620
Countdown: 0
SampleSet: Soft
StackLeniency: 0.5
Mode: 0
LetterboxInBreaks: 0
WidescreenStoryboard: 0

[Editor]
Bookmarks: 36506
DistanceSpacing: 1
BeatDivisor: 4
GridSize: 4
TimelineZoom: 1

[Metadata]
Title:Youyoumu no Gotoku (Autobahn Remix)
TitleUnicode:漸う夢の如く (Autobahn Remix)
Artist:senya
ArtistUnicode:senya
Creator:Dailycare
Version:Normal
Source:東方Project
Tags:Myon 幽閉サテライト Yuuhei Satellite kamase-tora かませ虎 Arabesque アラベスクの様に ZUN 東方妖々夢 Perfect Cherry Blossom Stage 6 Theme アルティメットトゥルース Ultimate Truth C85 Comiket85 魂魄妖夢 konpaku youmu touhou
BeatmapID:950351
BeatmapSetID:440980

[Difficulty]
HPDrainRate:3
CircleSize:3.3
OverallDifficulty:4
ApproachRate:4.5
SliderMultiplier:1.05
SliderTickRate:1

[Events]
//Background and Video events
0,0,"w.jpg",0,0
//Break Periods
2,133820,138360
//Storyboard Layer 0 (Background)
//Storyboard Layer 1 (Fail)
//Storyboard Layer 2 (Pass)
//Storyboard Layer 3 (Foreground)
//Storyboard Sound Samples

[TimingPoints]
881,375,4,2,1,50,1,0
12881,-100,4,2,1,60,0,0
24881,-100,4,2,1,75,0,0
35381,-100,4,2,1,60,0,0
36881,-100,4,2,1,80,0,1
47381,-100,4,2,1,60,0,0
48881,-100,4,2,1,80,0,1
60881,-100,4,2,1,75,0,0
71381,-100,4,2,1,60,0,0
84881,-100,4,2,1,75,0,0
95381,-100,4,2,1,60,0,0
97620,375,4,2,1,80,1,1
108120,-100,4,2,1,60,0,0
109620,-100,4,2,1,80,0,1
121620,-100,4,2,1,75,0,0
133620,-100,4,2,1,60,0,0
139620,-100,4,2,1,75,0,0
144120,-100,4,2,1,60,0,0
145620,-100,4,2,1,50,0,0
151620,-100,4,2,1,60,0,0
157620,-100,4,2,1,80,0,1
162120,-100,4,2,1,80,0,0
162870,-100,4,2,1,60,0,0
163620,-100,4,2,1,80,0,1
169620,-100,4,2,1,80,0,0

[Colours]
Combo1 : 168,142,23
Combo2 : 114,187,15
Combo3 : 20,177,138
Combo4 : 174,43,129

[HitObjects]
22,158,881,6,0,P|78:132|199:220,1,210,4|2,0:0|0:0,0:0:0:0:
95,236,2006,1,0,0:0:0:0:
147,327,2381,2,0,P|198:308|354:275,1,210,2|2,0:0|0:0,0:0:0:0:
490,119,3881,6,0,P|469:64|321:24,1,210,2|2,0:0|0:0,0:0:0:0:
254,85,5006,1,0,0:0:0:0:
154,51,5381,2,0,B|135:98|164:144|164:144|101:172|102:252,1,210,2|2,0:0|0:0,0:0:0:0:
262,371,6881,6,0,B|265:299|265:299|261:239|261:239|265:149,1,210,2|2,0:0|0:0,0:0:0:0:
57,124,8381,2,0,P|63:186|72:240,2,105,2|0|2,0:0|0:0|0:0,0:0:0:0:
89,23,9506,1,0,0:0:0:0:
158,101,9881,6,0,P|209:114|342:28,1,210,2|2,0:0|0:0,0:0:0:0:
438,67,11006,1,0,0:0:0:0:
367,144,11381,1,2,0:0:0:0:
367,144,12881,6,0,P|369:184|377:256,1,105,12|8,3:2|0:0,0:0:0:0:
279,290,13631,2,0,P|277:250|269:178,1,105,8|8,0:0|0:0,0:0:0:0:
189,118,14381,2,0,P|118:106|19:204,1,210,8|8,0:0|0:0,0:0:0:0:
55,291,15506,1,8,0:0:0:0:
136,224,15881,6,0,P|183:234|247:253,1,105,8|8,0:0|0:0,0:0:0:0:
315,319,16631,2,0,P|341:259|327:202,1,105,8|8,0:0|0:0,0:0:0:0:
434,178,17381,2,0,P|355:115|257:142,1,210,8|8,0:0|0:0,0:0:0:0:
83,26,18881,6,0,P|94:82|116:234,1,210,12|8,3:2|0:0,0:0:0:0:
315,300,20381,2,0,P|323:248|332:196,2,105,12|8|8,3:2|0:0|0:0,0:0:0:0:
218,341,21506,2,0,P|217:307|215:274,1,52.5,8|0,0:0|0:0,0:0:0:0:
196,239,21881,6,0,P|204:182|209:126,1,105,12|8,3:2|0:0,0:0:0:0:
113,90,22631,2,0,P|104:146|100:203,1,105,12|8,3:2|0:0,0:0:0:0:
16,257,23381,5,12,3:2:0:0:
48,356,23756,2,0,P|91:327|103:306,1,52.5,2|0,0:3|3:0,0:0:0:0:
111,278,24131,2,0,P|174:289|216:296,1,105,0|2,3:0|0:3,0:0:0:0:
297,231,24881,6,0,P|277:182|285:117,1,105,4|8,3:2|0:0,0:0:0:0:
369,75,25631,2,0,P|264:77|139:62,1,210,0|0,3:0|3:0,0:0:0:0:
60,31,26756,1,8,0:0:0:0:
92,130,27131,2,0,P|84:183|54:253,1,105,0|8,3:0|0:0,0:0:0:0:
107,327,27881,6,0,P|142:307|169:245,1,105,0|8,3:0|0:0,0:0:0:0:
165,197,28443,2,0,P|224:192|328:187,1,157.5,0|8,0:0|0:0,0:0:0:0:
422,156,29381,2,0,P|428:192|400:250,2,78.75,0|0|0,3:0|0:0|0:0,0:0:0:0:
268,109,30506,2,0,L|262:43,1,52.5,8|8,0:0|0:0,0:0:0:0:
225,19,30881,6,0,P|268:41|375:11,1,157.5,4|0,3:2|0:0,0:0:0:0:
421,26,31631,2,0,P|442:62|484:173,1,157.5,4|0,3:2|0:0,0:0:0:0:
488,222,32381,2,0,P|449:191|333:212,1,157.5,4|0,3:2|0:0,0:0:0:0:
311,239,33131,2,0,P|318:290|329:346,1,105,4|8,3:2|0:0,0:0:0:0:
426,384,33881,6,0,P|419:333|408:277,1,105,4|8,3:2|0:0,0:0:0:0:
311,239,34631,2,0,L|194:252,1,105,0|8,3:0|0:0,0:0:0:0:
114,199,35381,5,4,3:2:0:0:
28,259,35756,2,0,P|11:223|9:194,1,52.5,0|0,3:0|3:0,0:0:0:0:
16,158,36131,1,0,3:0:0:0:
101,97,36506,2,0,L|170:103,1,52.5,2|2,3:1|0:1,0:0:0:0:
190,138,36881,6,0,L|199:30,1,105,4|8,3:2|0:0,0:0:0:0:
295,73,37631,2,0,L|303:177,1,105,0|8,3:0|0:0,0:0:0:0:
408,171,38381,2,0,P|421:120|430:84,2,78.75,0|0|0,3:0|0:0|0:0,0:0:0:0:
404,223,39131,1,0,3:0:0:0:
451,316,39506,1,8,0:0:0:0:
357,364,39881,6,0,P|315:341|259:314,1,105,0|8,3:0|0:0,0:0:0:0:
187,243,40631,2,0,P|227:218|304:219,1,105,0|8,3:0|0:0,0:0:0:0:
367,152,41381,2,0,L|462:166,2,78.75,0|0|0,3:0|0:0|0:0,0:0:0:0:
325,119,42131,1,0,3:0:0:0:
116,140,42881,6,0,P|58:134|12:133,1,105,0|8,3:0|0:0,0:0:0:0:
57,38,43631,2,0,P|114:32|161:31,1,105,0|8,3:0|0:0,0:0:0:0:
238,103,44381,2,0,P|264:62|267:18,2,78.75,0|0|0,3:0|0:0|0:0,0:0:0:0:
193,131,45131,1,0,3:0:0:0:
88,137,45506,1,8,0:0:0:0:
145,224,45881,6,0,P|137:262|109:332,1,105,0|8,3:0|0:0,0:0:0:0:
8,332,46631,2,0,P|16:294|44:224,1,105,0|8,3:0|0:0,0:0:0:0:
88,137,47381,6,0,L|204:143,1,105,2|2,3:0|0:3,0:0:0:0:
237,170,47943,2,0,P|229:113|226:65,1,105,0|2,3:0|0:3,0:0:0:0:
225,12,48506,2,0,L|297:15,1,52.5,2|2,0:1|0:3,0:0:0:0:
329,4,48881,6,0,P|324:56|318:108,1,105,4|8,3:2|3:2,0:0:0:0:
237,170,49631,2,0,P|230:222|226:274,1,105,0|8,3:0|3:2,0:0:0:0:
155,352,50381,2,0,P|127:317|121:268,2,78.75,0|0|2,3:0|0:0|0:0,0:0:0:0:
203,371,51131,1,0,3:0:0:0:
301,335,51506,1,8,3:2:0:0:
395,380,51881,6,0,P|412:326|435:265,1,105,4|8,3:2|3:2,0:0:0:0:
334,235,52631,2,0,P|317:289|294:350,1,105,0|8,3:0|3:2,0:0:0:0:
202,295,53381,2,0,P|157:301|114:302,2,78.75,0|0|2,3:0|0:0|0:0,0:0:0:0:
220,245,54131,1,0,3:0:0:0:
343,75,54881,6,0,P|301:39|236:36,1,105,4|8,3:2|3:2,0:0:0:0:
149,51,55631,2,0,P|156:91|167:166,1,105,0|8,3:0|3:2,0:0:0:0:
220,245,56381,2,0,L|215:327,2,78.75,0|0|2,3:0|0:0|0:0,0:0:0:0:
258,208,57131,1,0,3:0:0:0:
165,154,57506,1,8,3:2:0:0:
95,233,57881,6,0,P|65:195|63:130,1,105,4|8,3:2|3:2,0:0:0:0:
130,62,58631,2,0,P|177:55|235:85,1,105,0|8,3:0|3:2,0:0:0:0:
248,181,59381,2,0,P|295:165|327:108,1,105,0|8,3:0|3:2,0:0:0:0:
328,68,59943,2,0,P|396:113|402:197,1,157.5,2|10,0:0|3:2,0:0:0:0:
376,227,60693,1,10,0:0:0:0:
336,258,60881,6,0,P|266:246|214:243,1,105,4|8,3:2|0:0,0:0:0:0:
159,319,61631,2,0,P|135:286|137:200,1,105,0|8,3:0|0:0,0:0:0:0:
151,175,62193,1,0,0:0:0:0:
111,79,62568,2,0,P|178:76|231:72,2,105,0|0|0,0:0|0:0|0:0,0:0:0:0:
6,65,63693,1,0,0:0:0:0:
6,65,63881,6,0,P|19:109|39:184,1,105,0|8,3:0|0:0,0:0:0:0:
17,269,64631,2,0,P|70:266|123:217,1,105,0|8,3:0|0:0,0:0:0:0:
134,189,65193,1,0,0:0:0:0:
233,156,65568,2,0,L|224:40,2,105
328,200,66693,1,0,0:0:0:0:
328,200,66881,6,0,L|319:304,1,105,0|8,3:0|0:0,0:0:0:0:
234,367,67631,2,0,P|194:355|127:342,1,105,0|8,3:0|0:0,0:0:0:0:
80,338,68193,1,0,0:0:0:0:
33,243,68568,2,0,P|30:216|69:141,2,105
132,220,69693,1,0,0:0:0:0:
132,220,69881,6,0,P|181:209|251:203,1,105,0|8,3:0|0:0,0:0:0:0:
327,254,70631,2,0,L|339:133,1,105,0|8,3:0|0:0,0:0:0:0:
335,97,71193,1,0,0:0:0:0:
329,45,71381,5,4,3:2:0:0:
433,31,71756,2,0,P|455:56|469:73,1,52.5,2|0,0:3|3:0,0:0:0:0:
509,101,72131,2,0,P|485:136|472:213,1,105,0|2,3:0|0:3,0:0:0:0:
490,299,72881,6,0,P|440:281|380:280,1,105,4|0,3:2|3:0,0:0:0:0:
303,340,73631,2,0,P|348:296|325:163,1,210,0|0,3:0|3:0,0:0:0:0:
255,243,74756,1,0,3:0:0:0:
170,180,75131,2,0,P|129:186|64:200,1,105,0|0,3:0|3:0,0:0:0:0:
5,114,75881,6,0,P|46:108|111:94,1,105,0|0,3:0|3:0,0:0:0:0:
189,28,76631,2,0,P|267:18|371:113,1,210,0|0,3:0|3:0,0:0:0:0:
373,200,77756,2,0,P|405:183|472:154,2,105,0|0|0,3:0|3:0|3:0,0:0:0:0:
305,280,78881,6,0,P|272:233|346:98,1,210,0|0,3:0|3:0,0:0:0:0:
118,137,80381,2,0,P|124:218|127:262,2,105,0|0|0,3:0|3:0|3:0,0:0:0:0:
192,62,81506,2,0,P|210:86|220:117,1,52.5,0|0,3:0|0:0,0:0:0:0:
231,157,81881,6,0,P|266:165|343:181,1,105,0|0,3:0|3:0,0:0:0:0:
418,117,82631,2,0,P|434:146|422:234,1,105,0|0,3:0|3:0,0:0:0:0:
347,280,83381,1,0,3:0:0:0:
257,224,83756,1,0,3:0:0:0:
180,295,84131,2,0,P|108:285|68:281,1,105,0|0,3:0|3:0,0:0:0:0:
23,279,84693,1,0,3:0:0:0:
23,279,84881,6,0,P|10:232|32:178,1,105,4|8,3:2|0:0,0:0:0:0:
36,76,85631,2,0,P|49:141|181:180,1,210,0|0,3:0|3:0,0:0:0:0:
255,119,86756,1,8,0:0:0:0:
323,198,87131,2,0,P|351:159|353:93,1,105,0|8,3:0|0:0,0:0:0:0:
255,119,87881,6,0,P|226:157|224:223,1,105,0|8,3:0|0:0,0:0:0:0:
242,261,88443,2,0,P|197:244|84:214,1,157.5,0|8,0:0|0:0,0:0:0:0:
35,126,89381,2,0,L|28:30,2,78.75,0|0|0,3:0|0:0|0:0,0:0:0:0:
176,196,90506,2,0,L|179:138,1,52.5,8|8,0:0|0:0,0:0:0:0:
226,120,90881,6,0,P|206:75|101:39,1,157.5,4|0,3:2|0:0,0:0:0:0:
61,18,91631,2,0,P|56:58|28:180,1,157.5,4|0,3:2|0:0,0:0:0:0:
4,217,92381,2,0,P|24:262|132:295,1,157.5,4|0,3:2|0:0,0:0:0:0:
164,270,93131,2,0,P|217:276|282:289,1,105,4|8,3:2|0:0,0:0:0:0:
309,382,93881,6,0,P|256:376|191:363,1,105,4|8,3:2|0:0,0:0:0:0:
164,270,94631,2,0,L|174:141,1,105,0|8,3:0|0:0,0:0:0:0:
246,90,95381,5,4,3:2:0:0:
322,162,95756,2,0,P|346:127|348:104,1,52.5,0|0,3:0|3:0,0:0:0:0:
345,65,96131,1,0,3:0:0:0:
241,37,96506,2,0,L|246:90,1,52.5,2|2,3:1|0:1,0:0:0:0:
23,222,97620,6,0,L|17:107,1,105,4|8,3:2|0:0,0:0:0:0:
121,99,98370,2,0,L|115:203,1,105,0|8,3:0|0:0,0:0:0:0:
198,268,99120,2,0,P|175:291|125:308,2,78.75,0|0|0,3:0|0:0|0:0,0:0:0:0:
215,218,99870,1,0,3:0:0:0:
299,280,100245,1,8,0:0:0:0:
357,192,100620,6,0,P|403:182|475:171,1,105,0|8,3:0|0:0,0:0:0:0:
498,75,101370,2,0,P|452:85|380:96,1,105,0|8,3:0|0:0,0:0:0:0:
298,52,102120,2,0,P|255:58|217:59,2,78.75,0|0|0,3:0|0:0|0:0,0:0:0:0:
343,25,102870,1,0,3:0:0:0:
231,202,103620,6,0,P|190:185|128:168,1,105,0|8,3:0|0:0,0:0:0:0:
57,93,104370,2,0,P|105:73|156:59,1,105,0|8,3:0|0:0,0:0:0:0:
257,88,105120,2,0,P|264:41|243:-1,2,78.75,0|0|0,3:0|0:0|0:0,0:0:0:0:
230,133,105870,1,0,3:0:0:0:
298,212,106245,1,8,0:0:0:0:
218,280,106620,6,0,L|103:283,1,105,0|8,3:0|0:0,0:0:0:0:
20,332,107370,2,0,P|7:292|28:220,1,105,0|8,3:0|0:0,0:0:0:0:
109,175,108120,6,0,P|120:142|126:63,1,105,2|2,3:0|0:3,0:0:0:0:
114,21,108682,2,0,P|148:11|227:21,1,105,0|2,3:0|0:3,0:0:0:0:
255,52,109245,2,0,L|329:43,1,52.5,2|2,0:1|0:3,0:0:0:0:
353,21,109620,6,0,L|347:136,1,105,4|8,3:2|0:0,0:0:0:0:
445,88,110370,2,0,L|439:203,1,105,0|8,3:0|0:0,0:0:0:0:
407,293,111120,2,0,P|447:300|489:284,2,78.75,0|0|2,3:0|0:0|0:0,0:0:0:0:
361,267,111870,1,0,3:0:0:0:
343,163,112245,1,8,3:2:0:0:
251,214,112620,6,0,P|186:225|143:237,1,105,4|8,3:2|0:0,0:0:0:0:
78,313,113370,2,0,P|46:261|53:196,1,105,0|8,3:0|0:0,0:0:0:0:
82,118,114120,2,0,P|44:110|3:120,2,78.75,0|0|2,3:0|0:0|0:0,0:0:0:0:
124,151,114870,1,0,3:0:0:0:
252,316,115620,6,0,L|259:193,1,105,4|8,3:2|0:0,0:0:0:0:
353,255,116370,2,0,L|360:132,1,105,0|8,3:0|0:0,0:0:0:0:
339,46,117120,2,0,P|376:55|418:62,2,78.75,0|0|2,3:0|0:0|0:0,0:0:0:0:
291,23,117870,1,0,3:0:0:0:
211,91,118245,1,8,3:2:0:0:
117,42,118620,6,0,P|109:87|99:157,1,105,4|8,3:2|0:0,0:0:0:0:
15,207,119370,2,0,P|60:245|114:250,1,105,0|8,3:0|0:0,0:0:0:0:
198,298,120120,2,0,P|234:265|293:226,1,105,0|8,3:0|3:2,0:0:0:0:
329,214,120682,2,0,P|300:172|188:156,1,157.5,2|10,0:0|3:2,0:0:0:0:
150,167,121432,1,10,0:0:0:0:
103,193,121620,6,0,P|55:183|-12:175,1,105,4|8,3:2|0:0,0:0:0:0:
29,276,122370,2,0,P|70:305|142:296,1,105,0|8,3:0|0:0,0:0:0:0:
171,283,122932,1,0,0:0:0:0:
239,201,123307,2,0,L|227:79,2,105,0|0|0,0:0|0:0|0:0,0:0:0:0:
322,265,124432,1,0,0:0:0:0:
322,265,124620,6,0,L|332:369,1,105,0|8,3:0|0:0,0:0:0:0:
238,322,125370,2,0,P|222:285|240:205,1,105,0|8,3:0|0:0,0:0:0:0:
262,181,125932,1,0,0:0:0:0:
359,141,126307,2,0,P|420:150|473:156,2,105,0|0|0,0:0|0:0|0:0,0:0:0:0:
284,66,127432,1,0,0:0:0:0:
284,66,127620,6,0,L|170:82,1,105,0|8,3:0|0:0,0:0:0:0:
164,184,128370,2,0,P|103:156|79:105,1,105,0|8,3:0|0:0,0:0:0:0:
77,74,128932,1,0,0:0:0:0:
6,152,129307,2,0,P|8:198|22:259,2,105
77,74,130432,1,0,0:0:0:0:
77,74,130620,6,0,P|110:125|103:180,1,105,0|8,3:0|0:0,0:0:0:0:
38,243,131370,2,0,P|75:231|156:213,1,105,0|8,3:0|0:0,0:0:0:0:
190,205,131932,1,0,0:0:0:0:
241,197,132120,5,4,3:2:0:0:
336,240,132495,2,0,P|344:221|343:180,1,52.5,2|0,0:3|3:0,0:0:0:0:
333,138,132870,2,0,L|459:148,1,105,0|2,3:0|3:0,0:0:0:0:
505,66,133620,5,4,0:1:0:0:
505,66,139620,6,0,P|425:38|362:73,1,157.5,4|0,3:2|0:0,0:0:0:0:
312,74,140370,2,0,P|334:136|360:231,1,157.5,4|0,3:2|0:0,0:0:0:0:
392,264,141120,2,0,P|322:296|251:267,1,157.5,4|0,3:2|0:0,0:0:0:0:
232,218,141870,2,0,P|204:208|119:194,1,105,4|8,3:2|0:0,0:0:0:0:
58,271,142620,6,0,P|86:281|171:295,1,105,4|8,3:2|0:0,0:0:0:0:
232,218,143370,2,0,L|230:97,1,105,4|8,3:2|0:0,0:0:0:0:
296,31,144120,6,0,P|249:6|185:14,1,105,4|0,3:2|3:0,3:2:0:0:
119,78,144870,2,0,L|66:73,1,52.5,0|0,3:0|3:0,0:0:0:0:
19,50,145245,2,0,L|25:109,1,52.5,8|0,3:2|0:0,0:0:0:0:
6,151,145620,5,4,3:1:0:0:
120,327,146370,1,2,0:0:0:0:
268,182,147120,2,0,P|259:140|256:84,2,78.75,2|0|0,0:0|0:0|0:0,0:0:0:0:
305,218,147870,2,0,P|351:209|419:198,1,105,2|0,0:0|0:0,0:0:0:0:
511,219,148620,5,2,0:0:0:0:
339,98,149370,1,2,0:0:0:0:
146,181,150120,2,0,P|129:138|131:97,2,78.75,2|0|0,0:0|0:0|0:0,0:0:0:0:
183,218,150870,2,0,P|129:200|23:310,1,210,2|4,0:0|3:2,0:0:0:0:
125,303,151995,5,8,3:2:0:0:
206,369,152370,2,0,P|220:332|253:271,1,105,0|8,3:2|3:2,0:0:0:0:
264,170,153120,2,0,L|377:181,1,105,0|8,3:0|3:2,0:0:0:0:
458,235,153870,2,0,P|473:189|451:117,1,105,0|8,3:0|3:2,0:0:0:0:
457,30,154620,6,0,L|335:39,1,105,0|8,3:0|3:2,0:0:0:0:
264,96,155370,2,0,P|249:64|250:12,2,78.75,0|0|0,3:0|0:0|0:0,0:0:0:0:
304,130,156120,5,2,3:0:0:0:
215,185,156495,2,0,L|139:178,1,52.5,2|0,0:3|0:0,0:0:0:0:
113,160,156870,2,0,P|129:223|138:279,1,105,0|2,3:0|0:1,0:0:0:0:
145,313,157432,1,2,0:3:0:0:
145,313,157620,6,0,P|190:314|256:331,1,105,4|8,3:2|3:2,0:0:0:0:
318,249,158370,2,0,P|273:248|207:231,1,105,0|8,3:0|3:2,0:0:0:0:
125,178,159120,2,0,P|84:180|43:189,2,78.75,0|0|2,3:0|0:0|0:0,0:0:0:0:
164,142,159870,1,0,3:0:0:0:
77,83,160245,1,8,3:2:0:0:
167,30,160620,6,0,P|203:20|289:33,1,105,4|8,3:2|3:2,0:0:0:0:
357,82,161370,2,0,P|356:126|312:189,1,105,0|8,3:0|3:2,0:0:0:0:
233,227,162120,6,0,P|191:232|147:239,2,78.75,4|4|2,3:2|0:0|0:0,0:0:0:0:
266,267,162870,2,0,B|356:280|330:243|421:256,1,157.5,0|0,3:0|0:0,0:0:0:0:
469,276,163620,6,0,P|488:203|489:157,1,105,0|8,3:2|3:2,0:0:0:0:
397,122,164370,2,0,L|285:132,1,105,0|8,3:0|3:2,0:0:0:0:
201,185,165120,2,0,P|188:158|193:99,2,78.75,0|0|2,3:0|0:0|0:0,0:0:0:0:
242,219,165870,1,0,3:0:0:0:
156,283,166245,1,8,3:2:0:0:
63,232,166620,6,0,P|54:175|44:115,1,105,4|8,3:2|3:2,0:0:0:0:
132,67,167370,2,0,P|141:124|151:184,1,105,0|8,3:0|3:2,0:0:0:0:
242,219,168120,2,0,P|288:220|349:189,1,105,0|8,3:0|3:2,0:0:0:0:
391,211,168682,2,0,P|406:158|349:68,1,157.5,2|10,0:0|3:2,0:0:0:0:
306,80,169432,1,10,0:0:0:0:
256,60,169620,5,4,3:2:0:0:
