osu file format v14

[General]
AudioFilename: remix.mp3
AudioLeadIn: 0
PreviewTime: 97620
Countdown: 0
SampleSet: Soft
StackLeniency: 0.5
Mode: 0
LetterboxInBreaks: 0
WidescreenStoryboard: 0

[Editor]
DistanceSpacing: 0.8
BeatDivisor: 4
GridSize: 4
TimelineZoom: 1

[Metadata]
Title:Youyoumu no Gotoku (Autobahn Remix)
TitleUnicode:漸う夢の如く (Autobahn Remix)
Artist:senya
ArtistUnicode:senya
Creator:Dailycare
Version:Lunatic
Source:東方Project
Tags:Myon 幽閉サテライト Yuuhei Satellite kamase-tora かませ虎 Arabesque アラベスクの様に ZUN 東方妖々夢 Perfect Cherry Blossom Stage 6 Theme アルティメットトゥルース Ultimate Truth C85 Comiket85 魂魄妖夢 konpaku youmu touhou
BeatmapID:948654
BeatmapSetID:440980

[Difficulty]
HPDrainRate:6
CircleSize:4
OverallDifficulty:7
ApproachRate:8.5
SliderMultiplier:1.7
SliderTickRate:1

[Events]
//Background and Video events
0,0,"w.jpg",0,0
//Break Periods
2,133820,138945
//Storyboard Layer 0 (Background)
//Storyboard Layer 1 (Fail)
//Storyboard Layer 2 (Pass)
//Storyboard Layer 3 (Foreground)
//Storyboard Sound Samples

[TimingPoints]
881,375,4,2,1,50,1,0
881,-133.333333333333,4,2,1,50,0,0
11474,-133.333333333333,4,2,1,20,0,0
12318,-200,4,2,1,30,0,0
12693,-200,4,2,1,20,0,0
12881,-111.111111111111,4,2,1,60,0,0
24881,-100,4,2,1,75,0,0
35381,-100,4,2,1,60,0,0
36881,-100,4,2,1,80,0,1
47381,-100,4,2,1,60,0,0
48881,-90.9090909090909,4,2,1,80,0,1
60881,-100,4,2,1,75,0,0
71381,-100,4,2,1,60,0,0
72881,-111.111111111111,4,2,1,60,0,0
84881,-100,4,2,1,75,0,0
95381,-100,4,2,1,60,0,0
97620,375,4,2,1,80,1,1
108120,-100,4,2,1,60,0,0
109620,-90.9090909090909,4,2,1,80,0,1
121620,-100,4,2,1,75,0,0
133620,-100,4,2,1,60,0,0
139620,-111.111111111111,4,2,1,75,0,0
144120,-111.111111111111,4,2,1,60,0,0
145620,-133.333333333333,4,2,1,50,0,0
151620,-111.111111111111,4,2,1,60,0,0
156120,-100,4,2,1,60,0,0
157620,-90.9090909090909,4,2,1,80,0,1
162870,-133.333333333333,4,2,1,60,0,0
163620,-90.9090909090909,4,2,1,80,0,1
169620,-90.9090909090909,4,2,1,80,0,0

[Colours]
Combo1 : 168,142,23
Combo2 : 114,187,15
Combo3 : 20,177,138
Combo4 : 174,43,129

[HitObjects]
352,48,881,6,0,P|347:97|339:182,1,127.500004863739,4|0,0:0|0:0,0:0:0:0:
464,240,1631,2,0,P|469:191|477:106,1,127.500004863739,2|0,0:0|0:0,0:0:0:0:
376,258,2381,1,2,0:0:0:0:
376,258,3506,1,0,0:0:0:0:
296,240,3693,1,0,0:0:0:0:
236,298,3881,6,0,P|200:290|104:282,1,127.500004863739,2|0,0:0|0:0,0:0:0:0:
212,160,4631,2,0,P|248:160|344:152,1,127.500004863739,2|0,0:0|0:0,0:0:0:0:
236,298,5381,1,2,0:0:0:0:
236,298,6881,6,0,B|88:313|156:200|-10:213,1,255.000009727478,2|2,0:0|0:0,0:0:0:0:
8,212,8381,2,0,P|14:148|23:85,2,127.500004863739,2|0|2,0:0|0:0|0:0,0:0:0:0:
8,212,9506,1,0,0:0:0:0:
90,182,9693,1,0,0:0:0:0:
136,256,9881,6,0,P|144:319|151:382,1,127.500004863739,2|0,0:0|0:0,0:0:0:0:
8,212,10631,2,0,P|14:148|23:85,1,127.500004863739,2|0,0:0|0:0,0:0:0:0:
136,256,11381,1,2,0:0:0:0:
256,192,11474,12,0,12693,0:0:0:0:
136,256,12881,6,0,P|139:308|143:363,1,76.4999976654053,12|0,3:2|0:0,0:0:0:0:
224,224,13256,2,0,P|226:185|228:147,1,76.4999976654053,8|0,0:0|0:0,0:0:0:0:
280,296,13631,2,0,P|320:328|420:320,1,152.999995330811,8|8,0:0|0:0,0:0:0:0:
480,264,14193,1,0,0:0:0:0:
364,208,14381,6,0,B|347:132|347:132|356:56,2,152.999995330811,8|8|8,0:0|0:0|0:0,0:0:0:0:
152,330,15506,2,0,L|133:245,1,76.4999976654053,8|0,0:0|0:0,0:0:0:0:
200,136,15881,6,0,P|208:178|215:238,1,76.4999976654053,8|0,0:0|0:0,0:0:0:0:
44,272,16256,2,0,P|49:234|56:196,1,76.4999976654053,8|0,0:0|0:0,0:0:0:0:
188,116,16631,2,0,P|232:116|344:188,1,152.999995330811,8|8,0:0|0:0,0:0:0:0:
376,248,17193,1,0,0:0:0:0:
496,204,17381,6,0,L|498:48,2,152.999995330811,8|8|8,0:0|0:0|0:0,0:0:0:0:
248,248,18506,1,8,0:0:0:0:
248,248,18693,1,0,0:0:0:0:
325,302,18881,6,0,P|334:266|336:216,1,76.4999976654053,12|0,3:2|0:0,0:0:0:0:
272,164,19256,1,8,0:0:0:0:
156,236,19443,1,0,0:0:0:0:
156,236,19537,1,0,0:0:0:0:
156,236,19631,2,0,L|59:229,1,76.4999976654053,8|0,0:0|0:0,0:0:0:0:
184,152,20006,1,8,0:0:0:0:
88,60,20193,1,0,0:0:0:0:
88,60,20287,1,0,0:0:0:0:
88,60,20381,6,0,P|96:105|99:145,1,76.4999976654053,12|0,3:2|0:0,0:0:0:0:
268,120,20756,2,0,P|271:81|278:44,1,76.4999976654053,8|0,0:0|0:0,0:0:0:0:
292,20,21037,1,0,0:0:0:0:
292,20,21131,2,0,P|340:0|448:64,1,152.999995330811,8|8,0:0|0:0,0:0:0:0:
360,160,21693,1,0,0:0:0:0:
456,272,21881,6,0,L|451:195,1,76.4999976654053,12|0,3:2|0:0,0:0:0:0:
355,83,22256,2,0,L|359:159,1,76.4999976654053,8|0,0:0|0:0,0:0:0:0:
288,304,22631,2,0,L|283:227,1,76.4999976654053,12|0,3:2|0:0,0:0:0:0:
187,115,23006,2,0,L|191:191,1,76.4999976654053,8|0,0:0|0:0,0:0:0:0:
72,292,23381,5,12,3:2:0:0:
27,163,23568,1,0,3:0:0:0:
27,143,23661,1,0,3:0:0:0:
28,124,23755,1,2,0:3:0:0:
190,153,23943,2,0,L|192:213,1,38.2499988327027,0|2,3:0|0:3,0:0:0:0:
103,210,24131,6,0,L|104:171,3,38.2499988327027,0|2|0|0,0:0|0:3|3:0|3:0,0:0:0:0:
118,140,24506,1,2,0:3:0:0:
119,105,24599,1,0,3:0:0:0:
107,72,24693,1,0,3:0:0:0:
79,51,24787,1,0,0:0:0:0:
46,40,24881,6,0,P|91:38|234:9,1,170,4|8,3:2|0:0,0:0:0:0:
288,72,25443,1,0,0:0:0:0:
201,180,25631,2,0,P|139:233|59:215,1,170,0|8,3:0|0:0,0:0:0:0:
37,121,26193,1,0,0:0:0:0:
201,180,26381,6,0,P|251:188|389:218,1,170,0|8,3:0|0:0,0:0:0:0:
472,160,26943,1,0,0:0:0:0:
472,160,27037,1,0,0:0:0:0:
472,160,27131,2,0,L|468:74,1,85,0|0,3:0|0:0,0:0:0:0:
367,212,27506,2,0,P|370:253|372:300,1,85,8|0,0:0|0:0,0:0:0:0:
256,192,27881,6,0,P|268:110|275:7,1,170,0|8,3:0|0:0,0:0:0:0:
352,92,28443,1,0,0:0:0:0:
168,164,28631,2,0,P|171:205|173:252,1,85,0|0,3:0|0:0,0:0:0:0:
274,23,29006,1,8,0:0:0:0:
274,23,29381,6,0,P|228:60|148:48,1,127.5,0|0,3:0|0:0,0:0:0:0:
132,36,29756,1,8,0:0:0:0:
168,164,29943,1,0,0:0:0:0:
16,184,30131,2,0,L|20:98,1,85,0|0,3:0|0:0,0:0:0:0:
168,164,30506,1,8,0:0:0:0:
112,312,30693,1,8,0:0:0:0:
272,216,30881,6,0,P|324:208|456:192,1,170,4|8,3:2|0:0,0:0:0:0:
260,96,31443,1,0,0:0:0:0:
260,96,31537,1,0,0:0:0:0:
260,96,31631,2,0,P|208:88|76:72,1,170,4|8,3:2|0:0,0:0:0:0:
132,309,32193,1,0,0:0:0:0:
132,309,32287,1,0,0:0:0:0:
132,309,32381,6,0,P|171:272|163:157,1,170,4|8,3:2|0:0,0:0:0:0:
40,216,32943,1,0,0:0:0:0:
40,216,33037,1,0,0:0:0:0:
40,216,33131,2,0,P|26:156|15:71,2,127.5,4|0|0,3:2|0:0|0:0,0:0:0:0:
132,309,33881,5,4,3:2:0:0:
108,164,34068,1,0,0:0:0:0:
256,228,34256,2,0,L|350:232,1,85,8|0,0:0|0:0,0:0:0:0:
204,372,34631,5,0,3:0:0:0:
168,228,34818,1,0,0:0:0:0:
296,88,35006,2,0,P|254:88|202:92,1,85,8|0,0:0|0:0,0:0:0:0:
16,168,35381,5,4,3:2:0:0:
159,344,35568,1,0,3:0:0:0:
161,315,35662,1,0,3:0:0:0:
163,286,35755,1,0,0:0:0:0:
165,257,35849,1,0,3:0:0:0:
168,228,35943,2,0,L|163:162,1,42.5,0|0,0:0|3:0,0:0:0:0:
160,92,36131,5,0,3:0:0:0:
252,192,36318,1,0,3:0:0:0:
220,24,36506,5,2,3:1:0:0:
336,156,36693,1,2,0:1:0:0:
220,24,36881,6,0,P|185:4|91:28,1,127.5,4|0,3:2|0:0,0:0:0:0:
84,40,37256,2,0,P|41:32|0:26,1,85,8|0,0:0|0:0,0:0:0:0:
112,224,37631,2,0,P|160:185|171:123,1,127.5,0|0,3:0|0:0,0:0:0:0:
160,92,38006,2,0,P|203:100|244:106,1,85,8|0,0:0|0:0,0:0:0:0:
412,196,38381,5,0,3:0:0:0:
292,292,38568,1,0,0:0:0:0:
292,292,38662,1,0,0:0:0:0:
292,292,38756,2,0,L|302:188,1,85,8|0,0:0|0:0,0:0:0:0:
151,7,39131,6,0,L|159:91,1,85,0|2,3:0|0:0,0:0:0:0:
296,24,39506,2,0,L|304:108,1,85,8|2,0:0|0:0,0:0:0:0:
441,41,39881,6,0,L|454:168,1,127.5,0|0,3:0|0:0,0:0:0:0:
448,200,40256,2,0,P|488:169|521:148,1,85,8|0,0:0|0:0,0:0:0:0:
388,360,40631,2,0,P|356:320|356:224,1,127.5,0|0,3:0|0:0,0:0:0:0:
360,216,41006,2,0,P|320:247|287:268,1,85,8|0,0:0|0:0,0:0:0:0:
124,200,41381,5,0,3:0:0:0:
252,128,41568,1,0,0:0:0:0:
252,128,41662,1,0,0:0:0:0:
252,128,41756,2,0,L|353:131,1,85,8|0,0:0|0:0,0:0:0:0:
172,280,42131,6,0,B|80:312|104:256|0:288,1,170,0|10,3:0|0:0,0:0:0:0:
124,200,42693,1,2,0:0:0:0:
64,72,42881,6,0,P|55:133|88:186,1,127.5,0|0,3:0|0:0,0:0:0:0:
124,200,43256,2,0,P|171:189|213:183,1,85,8|0,0:0|0:0,0:0:0:0:
336,360,43631,2,0,L|208:352,1,127.5,0|0,3:0|0:0,0:0:0:0:
180,364,44006,2,0,L|171:274,1,85,8|0,0:0|0:0,0:0:0:0:
300,172,44381,5,0,3:0:0:0:
192,72,44568,1,0,0:0:0:0:
192,72,44662,1,0,0:0:0:0:
192,72,44756,2,0,L|183:156,1,85,8|0,0:0|0:0,0:0:0:0:
336,360,45131,6,0,L|327:275,1,85,0|2,3:0|0:0,0:0:0:0:
208,352,45506,2,0,L|199:267,1,85,8|2,0:0|0:0,0:0:0:0:
80,344,45881,6,0,L|67:218,1,127.5,0|0,3:0|0:0,0:0:0:0:
48,192,46256,2,0,P|96:200|144:220,1,85,8|0,0:0|0:0,0:0:0:0:
280,304,46631,1,0,3:0:0:0:
340,164,46818,1,0,0:0:0:0:
340,164,46912,1,0,0:0:0:0:
340,164,47006,2,0,P|300:178|258:184,1,85,8|0,0:0|0:0,0:0:0:0:
12,96,47381,5,2,3:0:0:0:
129,212,47568,2,0,L|125:156,1,42.5,0|0,0:0|0:0,0:0:0:0:
148,92,47756,1,2,0:3:0:0:
207,242,47943,1,0,0:0:0:0:
189,271,48037,1,2,0:3:0:0:
162,292,48130,1,0,0:0:0:0:
129,296,48224,1,2,0:3:0:0:
96,289,48318,1,2,0:3:0:0:
12,96,48506,5,2,0:1:0:0:
180,60,48693,1,2,0:3:0:0:
76,16,48881,5,4,3:2:0:0:
116,152,49068,1,2,0:0:0:0:
116,152,49162,1,0,0:0:0:0:
116,152,49256,2,0,L|108:258,1,93.5000028533936,8|2,3:2|0:0,0:0:0:0:
24,100,49631,1,0,3:0:0:0:
168,64,49818,1,2,0:0:0:0:
168,64,49912,1,0,0:0:0:0:
168,64,50006,2,0,P|221:55|268:50,1,93.5000028533936,8|2,3:2|0:0,0:0:0:0:
440,152,50381,6,0,B|395:156|395:156|349:141,1,93.5000028533936,0|2,3:0|0:0,0:0:0:0:
324,136,50662,1,0,0:0:0:0:
324,136,50756,2,0,L|328:232,1,93.5000028533936,8|2,3:2|0:0,0:0:0:0:
180,348,51131,6,0,L|183:254,1,93.5000028533936,0|2,3:0|0:0,0:0:0:0:
324,322,51506,2,0,L|327:228,1,93.5000028533936,8|2,3:2|0:0,0:0:0:0:
212,120,51881,5,4,3:2:0:0:
108,204,52068,1,2,0:0:0:0:
108,204,52162,1,0,0:0:0:0:
108,204,52256,2,0,P|57:202|-20:202,1,93.5000028533936,8|2,3:2|0:0,0:0:0:0:
112,108,52631,1,0,3:0:0:0:
212,220,52818,1,2,0:0:0:0:
212,220,52912,1,0,0:0:0:0:
212,220,53006,2,0,P|220:279|225:328,1,93.5000028533936,8|2,3:2|0:0,0:0:0:0:
332,188,53381,6,0,P|337:141|343:95,1,93.5000028533936,0|2,3:0|0:0,0:0:0:0:
352,68,53662,1,0,0:0:0:0:
352,68,53756,2,0,L|217:75,1,93.5000028533936,8|2,3:2|0:0,0:0:0:0:
456,176,54131,5,0,3:0:0:0:
456,176,54318,1,2,0:0:0:0:
464,64,54506,1,10,3:2:0:0:
464,64,54693,1,2,0:0:0:0:
340,176,54881,5,4,3:2:0:0:
224,116,55068,1,2,0:0:0:0:
224,116,55162,1,0,0:0:0:0:
224,116,55256,2,0,L|230:211,1,93.5000028533936,8|2,3:2|0:0,0:0:0:0:
113,82,55631,1,0,3:0:0:0:
229,22,55818,1,2,0:0:0:0:
229,22,55912,1,0,0:0:0:0:
229,22,56006,2,0,L|223:117,1,93.5000028533936,8|2,3:2|0:0,0:0:0:0:
32,208,56381,6,0,P|16:166|41:95,1,93.5000028533936,0|2,3:0|0:0,0:0:0:0:
48,92,56662,1,0,0:0:0:0:
48,92,56756,2,0,L|168:98,1,93.5000028533936,8|2,3:2|0:0,0:0:0:0:
322,17,57131,6,0,L|202:23,1,93.5000028533936,0|2,3:0|0:0,0:0:0:0:
296,160,57506,2,0,L|176:166,1,93.5000028533936,8|2,3:2|0:0,0:0:0:0:
270,303,57881,5,4,3:2:0:0:
400,252,58068,1,2,0:0:0:0:
400,252,58162,1,0,0:0:0:0:
400,252,58256,2,0,P|388:194|385:136,1,93.5000028533936,8|2,3:2|0:0,0:0:0:0:
236,96,58631,2,0,P|211:160|242:227,1,140.25000428009,0|0,3:0|0:0,0:0:0:0:
268,240,59006,2,0,P|216:232|140:223,1,93.5000028533936,8|2,3:2|0:0,0:0:0:0:
0,268,59381,5,0,3:0:0:0:
100,368,59568,1,2,0:0:0:0:
100,368,59662,1,0,0:0:0:0:
100,368,59756,2,0,L|93:259,1,93.5000028533936,8|2,3:2|0:0,0:0:0:0:
12,80,60131,6,0,L|6:173,1,93.5000028533936,0|2,3:0|0:0,0:0:0:0:
180,232,60506,1,10,3:2:0:0:
180,232,60693,1,10,0:0:0:0:
380,208,60881,6,0,P|412:152|448:32,1,170,4|8,3:2|0:0,0:0:0:0:
444,52,61443,1,0,0:0:0:0:
328,124,61631,2,0,P|296:180|260:300,1,170,0|8,3:0|0:0,0:0:0:0:
216,136,62193,6,0,P|202:79|190:37,1,85,0|0,0:0|3:0,0:0:0:0:
298,173,62568,2,0,P|255:213|225:245,1,85,0|8,0:0|0:0,0:0:0:0:
286,80,62943,2,0,P|342:96|384:106,1,85,0|0,0:0|3:0,0:0:0:0:
216,136,63318,1,0,0:0:0:0:
128,136,63506,1,8,0:0:0:0:
56,84,63693,1,0,0:0:0:0:
32,0,63881,6,0,P|32:48|24:184,1,170,0|8,3:0|0:0,0:0:0:0:
25,169,64443,1,0,0:0:0:0:
144,256,64631,2,0,P|138:171|137:86,1,170,0|8,3:0|0:0,0:0:0:0:
263,182,65193,6,0,P|221:175|180:168,1,85,0|0,0:0|3:0,0:0:0:0:
328,124,65568,2,0,P|343:163|357:203,1,85,0|8,0:0|0:0,0:0:0:0:
245,97,65943,2,0,P|271:63|299:31,1,85,0|0,0:0|3:0,0:0:0:0:
263,182,66318,1,0,0:0:0:0:
328,240,66506,1,8,0:0:0:0:
412,256,66693,1,0,0:0:0:0:
488,220,66881,6,0,P|456:260|392:364,1,170,0|8,3:0|0:0,0:0:0:0:
393,360,67443,1,0,0:0:0:0:
328,240,67631,2,0,P|360:200|424:96,1,170,0|8,3:0|0:0,0:0:0:0:
250,99,68193,6,0,P|259:153|268:196,1,85,0|0,0:0|3:0,0:0:0:0:
170,55,68568,2,0,P|212:20|245:-9,1,85,0|8,0:0|0:0,0:0:0:0:
170,147,68943,2,0,P|118:127|76:114,1,85,0|0,0:0|3:0,0:0:0:0:
250,99,69318,1,0,0:0:0:0:
272,184,69506,1,8,0:0:0:0:
232,264,69693,1,0,0:0:0:0:
148,284,69881,6,0,P|104:272|56:264,1,85,0|0,3:0|0:0,0:0:0:0:
232,264,70256,2,0,P|273:271|314:282,1,85,8|0,0:0|0:0,0:0:0:0:
445,359,70631,2,0,P|447:276|455:169,1,170,0|8,3:0|0:0,0:0:0:0:
480,100,71193,1,0,0:0:0:0:
372,216,71381,5,4,3:2:0:0:
338,78,71568,1,0,3:0:0:0:
338,58,71661,1,0,3:0:0:0:
339,39,71755,1,2,0:3:0:0:
480,100,71943,2,0,L|484:159,1,42.5,0|2,3:0|0:3,0:0:0:0:
372,216,72131,6,0,P|370:193|376:156,3,42.5,0|2|0|0,0:0|0:3|3:0|3:0,0:0:0:0:
385,145,72506,1,2,0:3:0:0:
358,158,72599,1,0,3:0:0:0:
328,159,72693,1,0,3:0:0:0:
299,150,72787,1,0,0:0:0:0:
277,133,72881,6,0,P|222:126|167:121,1,76.4999976654053,4|0,3:2|0:0,0:0:0:0:
338,58,73256,2,0,P|376:53|413:48,1,76.4999976654053,0|0,3:0|0:0,0:0:0:0:
244,32,73631,2,0,P|198:14|92:60,1,152.999995330811,0|0,3:0|3:0,0:0:0:0:
76,132,74193,1,0,0:0:0:0:
188,128,74381,6,0,P|196:172|204:280,2,152.999995330811,0|0|0,3:0|3:0|3:0,0:0:0:0:
400,36,75506,2,0,L|393:137,1,76.4999976654053,0|0,3:0|0:0,0:0:0:0:
312,192,75881,6,0,P|310:146|310:105,1,76.4999976654053,0|0,3:0|0:0,0:0:0:0:
412,196,76256,2,0,P|411:234|409:272,1,76.4999976654053,0|0,3:0|0:0,0:0:0:0:
296,360,76631,2,0,P|248:372|152:320,1,152.999995330811,0|0,3:0|3:0,0:0:0:0:
128,240,77193,1,0,0:0:0:0:
256,228,77381,6,0,P|274:172|299:60,1,152.999995330811,0|0,3:0|3:0,0:0:0:0:
112,160,78131,2,0,P|94:216|69:328,1,152.999995330811,0|0,3:0|3:0,0:0:0:0:
168,268,78693,1,0,0:0:0:0:
8,208,78881,6,0,P|13:146|16:45,1,152.999995330811,0|0,3:0|3:0,0:0:0:0:
15,55,79443,1,0,0:0:0:0:
156,8,79631,2,0,L|152:46|148:84,1,76.4999976654053,0|0,3:0|0:0,0:0:0:0:
220,196,80006,1,0,3:0:0:0:
220,196,80381,6,0,P|288:188|384:212,2,152.999995330811,0|0|0,3:0|3:0|3:0,0:0:0:0:
4,312,81506,1,0,3:0:0:0:
4,312,81693,1,0,0:0:0:0:
80,248,81881,6,0,P|96:302|105:348,1,76.4999976654053,0|0,3:0|0:0,0:0:0:0:
136,172,82256,2,0,P|134:133|135:95,1,76.4999976654053,0|0,3:0|0:0,0:0:0:0:
220,208,82631,2,0,B|312:228|288:176|400:200,1,152.999995330811,0|0,3:0|3:0,0:0:0:0:
440,252,83193,1,0,0:0:0:0:
272,340,83381,5,0,3:0:0:0:
272,340,83568,1,0,0:0:0:0:
368,360,83756,2,0,L|355:267,1,76.4999976654053,0|0,3:0|0:0,0:0:0:0:
496,176,84131,5,0,3:0:0:0:
496,176,84318,1,0,0:0:0:0:
404,88,84506,2,0,L|400:168,1,76.4999976654053,0|0,3:0|3:0,0:0:0:0:
408,192,84787,1,0,3:0:0:0:
408,192,84881,6,0,P|341:224|231:253,1,170,4|8,3:2|0:0,0:0:0:0:
172,304,85443,1,0,0:0:0:0:
16,276,85631,2,0,P|8:224|84:124,1,170,0|8,3:0|0:0,0:0:0:0:
160,116,86193,1,0,0:0:0:0:
249,250,86381,6,0,P|316:282|426:311,1,170,0|8,3:0|0:0,0:0:0:0:
332,152,86943,1,0,0:0:0:0:
332,152,87037,1,0,0:0:0:0:
332,152,87131,2,0,P|287:156|233:161,1,85,0|0,3:0|0:0,0:0:0:0:
408,212,87506,2,0,P|450:215|492:219,1,85,8|0,0:0|0:0,0:0:0:0:
352,64,87881,6,0,P|285:32|175:3,1,170,0|8,3:0|0:0,0:0:0:0:
248,108,88443,1,0,0:0:0:0:
428,20,88631,2,0,P|482:9|550:5,1,85,0|0,3:0|0:0,0:0:0:0:
248,108,89006,1,8,0:0:0:0:
248,108,89381,6,0,P|244:160|300:228,1,127.5,0|0,3:0|0:0,0:0:0:0:
316,228,89756,1,8,0:0:0:0:
412,172,89943,1,0,0:0:0:0:
368,312,90131,2,0,P|325:324|276:341,1,85,0|0,3:0|0:0,0:0:0:0:
412,172,90506,1,8,0:0:0:0:
464,328,90693,1,8,0:0:0:0:
284,240,90881,6,0,P|240:232|92:216,1,170,4|8,3:2|0:0,0:0:0:0:
240,120,91443,1,0,0:0:0:0:
240,120,91537,1,0,0:0:0:0:
240,120,91631,2,0,P|284:112|432:96,1,170,4|8,3:2|0:0,0:0:0:0:
380,332,92193,1,0,0:0:0:0:
380,332,92287,1,0,0:0:0:0:
380,332,92381,6,0,P|332:296|341:180,1,170,4|8,3:2|0:0,0:0:0:0:
488,232,92943,1,0,0:0:0:0:
488,232,93037,1,0,0:0:0:0:
488,232,93131,2,0,P|507:148|511:104,2,127.5,4|0|0,3:2|0:0|0:0,0:0:0:0:
380,332,93881,5,4,3:2:0:0:
330,193,94068,1,0,0:0:0:0:
208,292,94256,2,0,L|123:288,1,85,8|0,0:0|0:0,0:0:0:0:
304,280,94631,5,0,3:0:0:0:
240,136,94818,1,0,0:0:0:0:
417,206,95006,2,0,P|408:164|403:107,1,85,8|0,0:0|0:0,0:0:0:0:
264,20,95381,5,4,3:2:0:0:
167,198,95568,1,0,3:0:0:0:
197,195,95662,1,0,3:0:0:0:
227,193,95755,1,0,0:0:0:0:
257,191,95849,1,0,3:0:0:0:
287,189,95943,2,0,P|322:191|352:196,1,42.5,0|0,0:0|3:0,0:0:0:0:
417,206,96131,5,0,3:0:0:0:
328,72,96318,1,0,3:0:0:0:
257,191,96506,5,2,3:1:0:0:
488,68,96693,1,2,0:1:0:0:
488,68,97620,6,0,P|447:113|447:216,1,127.5,4|0,3:2|0:0,0:0:0:0:
437,212,97995,2,0,L|397:184|357:156,1,85,8|0,0:0|0:0,0:0:0:0:
220,308,98370,2,0,P|302:311|345:266,1,127.5,0|0,3:0|0:0,0:0:0:0:
352,256,98745,2,0,L|392:284|432:312,1,85,8|0,0:0|0:0,0:0:0:0:
260,224,99120,5,0,3:0:0:0:
368,164,99307,1,0,0:0:0:0:
368,164,99401,1,0,0:0:0:0:
368,164,99495,2,0,L|371:80,1,85,8|0,0:0|0:0,0:0:0:0:
260,224,99870,6,0,L|263:308,1,85,0|2,3:0|0:0,0:0:0:0:
132,208,100245,2,0,L|135:292,1,85,8|2,0:0|0:0,0:0:0:0:
4,192,100620,6,0,L|9:337,1,127.5,0|0,3:0|0:0,0:0:0:0:
0,352,100995,2,0,P|40:336|98:322,1,85,8|0,0:0|0:0,0:0:0:0:
247,228,101370,2,0,P|192:196|131:207,1,127.5,0|0,3:0|0:0,0:0:0:0:
104,224,101745,2,0,P|108:173|111:108,1,85,8|0,0:0|0:0,0:0:0:0:
68,4,102120,5,0,3:0:0:0:
0,100,102307,1,0,0:0:0:0:
0,100,102401,1,0,0:0:0:0:
0,100,102495,2,0,L|6:204,1,85,8|0,0:0|0:0,0:0:0:0:
156,324,102870,2,0,B|174:228|118:256|145:131,1,170,0|10,3:0|0:0,0:0:0:0:
200,44,103432,1,2,0:0:0:0:
320,108,103620,6,0,P|251:113|205:73,1,127.5,0|0,3:0|0:0,0:0:0:0:
200,44,103995,2,0,P|154:37|101:31,1,85,8|0,0:0|0:0,0:0:0:0:
28,248,104370,2,0,P|64:195|46:113,1,127.5,0|0,3:0|0:0,0:0:0:0:
44,108,104745,2,0,P|90:115|143:121,1,85,8|0,0:0|0:0,0:0:0:0:
280,216,105120,5,0,3:0:0:0:
152,212,105307,1,0,0:0:0:0:
152,212,105401,1,0,0:0:0:0:
152,212,105495,2,0,P|146:272|139:323,1,85,8|0,0:0|0:0,0:0:0:0:
280,216,105870,6,0,L|273:121,1,85,0|2,3:0|0:0,0:0:0:0:
392,240,106245,2,0,L|385:145,1,85,8|2,0:0|0:0,0:0:0:0:
504,264,106620,6,0,L|494:125,1,127.5,0|0,3:0|0:0,0:0:0:0:
476,108,106995,2,0,L|483:13,1,85,8|0,0:0|0:0,0:0:0:0:
312,128,107370,1,0,3:0:0:0:
400,220,107557,1,0,0:0:0:0:
400,220,107651,1,0,0:0:0:0:
400,220,107745,2,0,L|393:125,1,85,8|0,0:0|0:0,0:0:0:0:
188,24,108120,5,2,3:0:0:0:
188,160,108307,2,0,L|254:151,1,42.5,0|0,0:0|0:0,0:0:0:0:
312,128,108495,1,2,0:3:0:0:
116,96,108682,1,0,0:0:0:0:
98,125,108776,1,2,0:3:0:0:
90,158,108870,1,0,0:0:0:0:
95,191,108963,1,2,0:3:0:0:
111,220,109057,1,2,0:3:0:0:
188,24,109245,5,2,0:1:0:0:
300,212,109432,1,2,0:3:0:0:
188,160,109620,5,4,3:2:0:0:
304,88,109807,1,2,0:0:0:0:
304,88,109901,1,0,0:0:0:0:
304,88,109995,2,0,P|349:72|394:57,1,93.5000028533936,8|2,0:0|0:0,0:0:0:0:
280,184,110370,1,0,3:0:0:0:
208,64,110557,1,2,0:0:0:0:
208,64,110651,1,0,0:0:0:0:
208,64,110745,2,0,P|163:48|118:33,1,93.5000028533936,8|2,0:0|0:0,0:0:0:0:
8,176,111120,6,0,B|61:182|61:182|102:162,1,93.5000028533936,0|2,3:0|0:0,0:0:0:0:
119,155,111401,1,0,0:0:0:0:
119,155,111495,2,0,L|116:254,1,93.5000028533936,8|2,0:0|0:0,0:0:0:0:
40,0,111870,6,0,L|42:93,1,93.5000028533936,0|2,3:0|0:0,0:0:0:0:
208,64,112245,2,0,L|210:157,1,93.5000028533936,8|2,3:2|0:0,0:0:0:0:
32,264,112620,5,4,3:2:0:0:
119,155,112807,1,2,0:0:0:0:
119,155,112901,1,0,0:0:0:0:
119,155,112995,2,0,P|127:202|144:270,1,93.5000028533936,8|2,0:0|0:0,0:0:0:0:
328,324,113370,1,0,3:0:0:0:
211,381,113557,1,2,0:0:0:0:
211,381,113651,1,0,0:0:0:0:
211,381,113745,2,0,P|219:334|236:266,1,93.5000028533936,8|2,0:0|0:0,0:0:0:0:
192,120,114120,6,0,P|168:88|80:80,1,93.5000028533936,0|2,3:0|0:0,0:0:0:0:
80,80,114401,1,0,0:0:0:0:
80,80,114495,2,0,P|29:74|-12:68,1,93.5000028533936,8|2,0:0|0:0,0:0:0:0:
192,4,114870,5,0,3:0:0:0:
192,4,115057,1,2,0:0:0:0:
304,80,115245,1,10,3:2:0:0:
304,80,115432,1,2,0:0:0:0:
192,120,115620,5,4,3:2:0:0:
256,228,115807,1,2,0:0:0:0:
256,228,115901,1,0,0:0:0:0:
256,228,115995,2,0,P|207:223|151:218,1,93.5000028533936,8|2,0:0|0:0,0:0:0:0:
285,327,116370,1,0,3:0:0:0:
349,219,116557,1,2,0:0:0:0:
349,219,116651,1,0,0:0:0:0:
349,219,116745,2,0,P|300:224|244:229,1,93.5000028533936,8|2,0:0|0:0,0:0:0:0:
452,296,117120,6,0,L|458:196,1,93.5000028533936,0|2,3:0|0:0,0:0:0:0:
444,172,117401,1,0,0:0:0:0:
444,172,117495,2,0,L|450:72,1,93.5000028533936,8|2,0:0|0:0,0:0:0:0:
201,46,117870,6,0,L|206:139,1,93.5000028533936,0|2,3:0|0:0,0:0:0:0:
325,62,118245,2,0,L|330:155,1,93.5000028533936,8|2,3:2|0:0,0:0:0:0:
449,78,118620,5,4,3:2:0:0:
388,200,118807,1,2,0:0:0:0:
388,200,118901,1,0,0:0:0:0:
388,200,118995,2,0,P|339:194|283:188,1,93.5000028533936,8|2,0:0|0:0,0:0:0:0:
76,184,119370,2,0,P|144:196|208:146,1,140.25000428009,0|0,3:0|0:0,0:0:0:0:
212,132,119745,2,0,P|202:194|197:242,1,93.5000028533936,8|2,0:0|0:0,0:0:0:0:
304,380,120120,5,0,3:0:0:0:
368,284,120307,1,2,0:0:0:0:
368,284,120401,1,0,0:0:0:0:
368,284,120495,2,0,L|274:286,1,93.5000028533936,8|2,0:0|0:0,0:0:0:0:
52,256,120870,6,0,L|145:258,1,93.5000028533936,0|2,3:0|0:0,0:0:0:0:
294,187,121245,1,10,3:2:0:0:
294,187,121432,1,10,0:0:0:0:
40,112,121620,6,0,P|96:108|232:104,1,170,4|8,3:2|0:0,0:0:0:0:
209,104,122182,1,0,0:0:0:0:
316,20,122370,2,0,P|231:17|146:12,1,170,0|8,3:0|0:0,0:0:0:0:
104,204,122932,6,0,P|145:193|186:183,1,85,0|0,0:0|3:0,0:0:0:0:
104,120,123307,2,0,P|74:89|45:58,1,85,0|8,0:0|0:0,0:0:0:0:
31,162,123682,2,0,P|19:202|7:243,1,85,0|0,0:0|3:0,0:0:0:0:
104,204,124057,1,0,0:0:0:0:
180,152,124245,1,8,0:0:0:0:
268,160,124432,1,0,0:0:0:0:
332,224,124620,6,0,P|312:164|284:56,1,170,0|8,3:0|0:0,0:0:0:0:
285,60,125182,1,0,0:0:0:0:
408,128,125370,2,0,P|428:188|456:296,1,170,0|8,3:0|0:0,0:0:0:0:
268,224,125932,6,0,P|317:199|356:178,1,85,0|0,0:0|3:0,0:0:0:0:
264,316,126307,2,0,P|217:286|180:262,1,85,0|8,0:0|0:0,0:0:0:0:
345,273,126682,2,0,P|342:327|340:372,1,85,0|0,0:0|3:0,0:0:0:0:
264,316,127057,1,0,0:0:0:0:
252,226,127245,1,8,0:0:0:0:
240,136,127432,1,0,0:0:0:0:
320,176,127620,6,0,P|256:168|136:156,1,170,0|8,3:0|0:0,0:0:0:0:
151,157,128182,1,0,0:0:0:0:
284,64,128370,2,0,P|368:55|452:45,1,170,0|8,3:0|0:0,0:0:0:0:
320,176,128932,6,0,P|310:122|305:84,1,85,0|0,0:0|3:0,0:0:0:0:
381,241,129307,2,0,P|339:276|308:299,1,85,0|8,0:0|0:0,0:0:0:0:
406,155,129682,2,0,P|457:173|493:188,1,85,0|0,0:0|3:0,0:0:0:0:
381,241,130057,1,0,0:0:0:0:
304,272,130245,1,8,0:0:0:0:
224,248,130432,1,0,0:0:0:0:
180,176,130620,6,0,P|178:141|172:61,1,85,0|0,3:0|0:0,0:0:0:0:
224,248,130995,2,0,P|220:290|218:332,1,85,8|0,0:0|0:0,0:0:0:0:
264,156,131370,2,0,B|172:132|184:192|72:160,1,170,0|8,3:0|0:0,0:0:0:0:
24,112,131932,1,0,0:0:0:0:
76,252,132120,5,4,3:2:0:0:
108,76,132307,1,0,3:0:0:0:
108,76,132401,1,0,3:0:0:0:
108,76,132495,1,2,0:3:0:0:
152,196,132682,2,0,L|194:194,1,42.5,0|2,3:0|0:3,0:0:0:0:
232,208,132870,2,0,P|238:157|243:101,1,85,0|2,0:0|3:0,0:0:0:0:
328,240,133245,2,0,P|332:282|337:324,1,85,0|2,3:0|0:3,0:0:0:0:
400,172,133620,5,4,0:1:0:0:
400,172,139620,6,0,P|412:228|434:341,1,152.999995330811,4|8,3:2|0:0,0:0:0:0:
296,152,140182,1,0,0:0:0:0:
296,152,140276,1,0,0:0:0:0:
296,152,140370,2,0,P|338:113|425:38,1,152.999995330811,4|8,3:2|0:0,0:0:0:0:
328,264,140932,1,0,0:0:0:0:
328,264,141026,1,0,0:0:0:0:
328,264,141120,6,0,P|273:246|164:208,1,152.999995330811,4|8,3:2|0:0,0:0:0:0:
68,104,141682,1,0,0:0:0:0:
68,104,141776,1,0,0:0:0:0:
68,104,141870,2,0,P|24:152|20:216,2,114.749996498108,4|0|0,3:2|0:0|0:0,0:0:0:0:
182,215,142620,5,4,3:2:0:0:
204,76,142807,1,0,0:0:0:0:
348,171,142995,2,0,P|351:133|356:95,1,76.4999976654053,8|0,0:0|0:0,0:0:0:0:
296,288,143370,5,4,3:2:0:0:
248,152,143557,1,0,0:0:0:0:
88,200,143745,2,0,P|92:237|96:276,1,76.4999976654053,8|0,0:0|0:0,0:0:0:0:
232,372,144120,5,4,3:2:0:0:
408,272,144307,1,0,3:0:0:0:
380,262,144400,1,0,3:0:0:0:
349,262,144494,1,0,0:0:0:0:
320,269,144588,1,0,3:0:0:0:
296,288,144682,2,0,L|292:230,1,38.2499988327027,0|0,0:0|3:0,0:0:0:0:
340,176,144870,5,0,3:0:0:0:
364,344,145057,1,0,3:0:0:0:
424,160,145245,5,8,3:2:0:0:
456,352,145432,1,0,0:0:0:0:
424,160,145620,6,0,L|428:48,1,95.6250036478044,4|0,3:1|0:0,0:0:0:0:
440,36,145995,2,0,L|356:40,1,63.7500024318696,0|0,0:0|0:0,0:0:0:0:
193,160,146370,2,0,L|288:157,1,95.6250036478044,2|0,0:0|0:0,0:0:0:0:
317,168,146745,2,0,P|313:126|310:98,1,63.7500024318696,0|0,0:0|0:0,0:0:0:0:
108,136,147120,6,0,P|108:184|144:236,2,95.6250036478044,2|0|0,0:0|0:0|0:0,0:0:0:0:
260,100,147870,2,0,P|262:68|263:36,1,63.7500024318696,2|0,0:0|0:0,0:0:0:0:
172,16,148245,2,0,P|173:47|175:79,1,63.7500024318696,0|0,0:0|0:0,0:0:0:0:
292,184,148620,6,0,P|310:220|304:296,1,95.6250036478044,2|0,0:0|0:0,0:0:0:0:
300,304,148995,2,0,L|373:297,1,63.7500024318696,0|0,0:0|0:0,0:0:0:0:
193,255,149370,2,0,L|77:267,1,95.6250036478044,2|0,0:0|0:0,0:0:0:0:
68,280,149745,2,0,P|75:242|75:200,1,63.7500024318696,0|0,0:0|0:0,0:0:0:0:
156,40,150120,6,0,L|160:154,2,95.6250036478044,2|0|0,0:0|0:0|0:0,0:0:0:0:
54,129,150870,2,0,P|63:184|197:233,1,191.250007295609,2|0,0:0|0:0,0:0:0:0:
248,136,151620,6,0,P|254:92|256:48,1,76.4999976654053,4|0,3:2|0:0,0:0:0:0:
384,28,151995,1,8,3:2:0:0:
412,124,152182,1,0,0:0:0:0:
412,124,152276,1,0,0:0:0:0:
412,124,152370,2,0,P|375:117|315:108,1,76.4999976654053,0|0,3:2|0:0,0:0:0:0:
150,113,152745,1,8,3:2:0:0:
248,136,152932,1,0,0:0:0:0:
248,136,153026,1,0,0:0:0:0:
248,136,153120,6,0,P|253:176|258:235,1,76.4999976654053,0|0,3:0|0:0,0:0:0:0:
112,248,153495,1,8,3:2:0:0:
64,160,153682,1,0,0:0:0:0:
64,160,153776,1,0,0:0:0:0:
64,160,153870,2,0,P|67:121|72:83,1,76.4999976654053,0|0,3:0|0:0,0:0:0:0:
112,248,154245,2,0,P|115:286|120:324,1,76.4999976654053,8|0,3:2|0:0,0:0:0:0:
234,177,154620,6,0,P|197:167|160:160,1,76.4999976654053,0|0,3:0|0:0,0:0:0:0:
349,250,154995,2,0,P|372:279|398:307,1,76.4999976654053,8|0,3:2|0:0,0:0:0:0:
300,124,155370,2,0,P|298:85|293:47,1,76.4999976654053,0|0,3:0|0:0,0:0:0:0:
265,256,155745,2,0,P|243:287|225:321,1,76.4999976654053,8|0,3:2|0:0,0:0:0:0:
371,169,156120,5,2,3:0:0:0:
176,244,156307,1,0,0:0:0:0:
176,244,156401,1,0,0:0:0:0:
176,244,156494,1,2,0:3:0:0:
212,116,156682,2,0,L|208:182,1,42.5,0|2,0:0|0:3,0:0:0:0:
194,323,156870,5,0,0:0:0:0:
160,325,156963,1,2,0:3:0:0:
127,315,157057,1,2,0:3:0:0:
103,290,157151,1,0,0:0:0:0:
89,258,157245,2,0,L|39:262,1,42.5,2|0,0:1|0:0,0:0:0:0:
128,160,157432,2,0,L|85:156,1,42.5,2|0,0:3|0:0,0:0:0:0:
32,72,157620,5,4,3:2:0:0:
148,32,157807,1,2,0:0:0:0:
148,32,157901,1,0,0:0:0:0:
148,32,157995,2,0,P|142:80|138:137,1,93.5000028533936,8|2,3:2|0:0,0:0:0:0:
208,324,158370,1,0,3:0:0:0:
116,243,158557,1,2,0:0:0:0:
116,243,158651,1,0,0:0:0:0:
116,243,158745,2,0,P|160:223|211:199,1,93.5000028533936,8|2,3:2|0:0,0:0:0:0:
336,44,159120,5,0,3:0:0:0:
312,164,159307,1,2,0:0:0:0:
312,164,159401,1,0,0:0:0:0:
312,164,159495,2,0,P|272:134|226:102,1,93.5000028533936,8|2,3:2|0:0,0:0:0:0:
4,128,159870,6,0,L|107:123,1,93.5000028533936,0|2,3:0|0:0,0:0:0:0:
22,247,160245,2,0,L|125:242,1,93.5000028533936,8|2,3:2|0:0,0:0:0:0:
312,164,160620,5,4,3:2:0:0:
192,140,160807,1,2,0:0:0:0:
192,140,160901,1,0,0:0:0:0:
192,140,160995,2,0,P|207:191|222:248,1,93.5000028533936,8|2,3:2|0:0,0:0:0:0:
296,80,161370,1,0,3:0:0:0:
416,56,161557,1,2,0:0:0:0:
416,56,161651,1,0,0:0:0:0:
416,56,161745,2,0,P|401:107|386:164,1,93.5000028533936,8|2,3:2|0:0,0:0:0:0:
148,150,162120,5,4,3:2:0:0:
320,0,162401,1,4,0:0:0:0:
364,224,162682,1,4,0:0:0:0:
275,128,162870,6,0,B|247:232|315:204|279:324,1,191.250007295609,0|0,3:0|0:0,0:0:0:0:
281,314,163620,6,0,P|232:305|185:299,1,93.5000028533936,0|2,3:2|0:0,0:0:0:0:
364,224,163995,2,0,P|413:215|460:209,1,93.5000028533936,8|2,3:2|0:0,0:0:0:0:
275,128,164370,2,0,P|226:119|179:113,1,93.5000028533936,0|2,3:0|0:0,0:0:0:0:
370,38,164745,2,0,P|419:29|466:23,1,93.5000028533936,8|2,3:2|0:0,0:0:0:0:
360,136,165120,5,0,3:0:0:0:
276,36,165307,1,2,0:0:0:0:
276,36,165401,1,0,0:0:0:0:
276,36,165495,2,0,L|180:27,1,93.5000028533936,8|2,3:2|0:0,0:0:0:0:
360,136,165870,6,0,L|456:127,1,93.5000028533936,0|2,3:0|0:0,0:0:0:0:
344,264,166245,2,0,L|440:255,1,93.5000028533936,8|2,3:2|0:0,0:0:0:0:
360,136,166620,5,4,3:2:0:0:
256,184,166807,1,2,0:0:0:0:
256,184,166901,1,0,0:0:0:0:
256,184,166995,2,0,P|225:192|146:209,1,93.5000028533936,8|2,3:2|0:0,0:0:0:0:
344,264,167370,2,0,P|372:312|464:340,1,140.25000428009,0|0,3:0|0:0,0:0:0:0:
480,336,167745,2,0,L|488:236,1,93.5000028533936,8|2,3:2|0:0,0:0:0:0:
360,136,168120,5,0,3:0:0:0:
448,56,168307,1,2,0:0:0:0:
448,56,168401,1,0,0:0:0:0:
448,56,168495,2,0,L|455:149,1,93.5000028533936,8|2,3:2|0:0,0:0:0:0:
248,277,168870,6,0,L|255:183,1,93.5000028533936,0|2,3:0|0:0,0:0:0:0:
108,120,169245,1,10,3:2:0:0:
108,120,169432,1,10,0:0:0:0:
380,244,169620,5,4,3:2:0:0:
