osu file format v12

[General]
AudioFilename: Houmatsu.mp3
AudioLeadIn: 1000
PreviewTime: 55185
Countdown: 0
SampleSet: Soft
StackLeniency: 0.7
Mode: 0
LetterboxInBreaks: 0

[Editor]
Bookmarks: 92420
DistanceSpacing: 1
BeatDivisor: 4
GridSize: 4

[Metadata]
Title:Utakata, Ai no Mahoroba
TitleUnicode:泡沫、哀のまほろば
Artist:senya
ArtistUnicode:senya
Creator:Scorpiour
Version:Normal
Source:Touhou
Tags:ZUN Fujiwara no Mokou Imperishable Night Reach For the Moon Immortal Smoke Firce777 No_Gu Sound Voltex SDVX Yuuhei Satellite
BeatmapID:200845
BeatmapSetID:69681

[Difficulty]
HPDrainRate:3
CircleSize:3
OverallDifficulty:3
ApproachRate:4
SliderMultiplier:0.96
SliderTickRate:1

[Events]
//Background and Video events
0,0,"bg1.jpg",0,0
//Break Periods
2,15201,26068
2,80233,91100
2,145265,157681
//Storyboard Layer 0 (Background)
//Storyboard Layer 1 (Fail)
//Storyboard Layer 2 (Pass)
//Storyboard Layer 3 (Foreground)
Sprite,Foreground,Centre,"SB\name\mappedby.png",220,365 F,0,16549,17324,0,1 F,0,17324,25065,1 F,0,25065,25840,1,0
Sprite,Foreground,Centre,"SB\name\scorpiour.png",420,365 F,0,16549,17324,0,1 F,0,17324,25065,1 F,0,25065,25840,1,0
Sprite,Foreground,Centre,"SB\w.png",320,360 F,0,15001,16549,0,0.2 V,0,15001,16549,1,0,1,0.15 P,0,15001,27399,A F,0,16549,25840,0.2 V,0,16549,25840,1,0.15 V,0,25840,27388,1,0.15,1,0 F,0,25840,27399,0.2,0
//Storyboard Sound Samples
//Background Colour Transformations
3,100,0,0,0

[TimingPoints]
1066,387.096774193548,4,2,1,40,1,0
15001,-100,4,2,1,60,0,0
27388,-100,4,2,1,40,0,0
39775,-100,4,1,1,40,0,0
55259,-100,4,1,1,60,0,1
80033,-100,4,1,1,40,0,0
120291,-100,4,1,1,60,0,1
145065,-100,4,1,1,40,0,0
159001,-100,4,2,1,40,0,0
171388,-100,4,1,1,40,0,0
185324,-100,4,1,1,60,0,1
210098,-100,4,1,1,40,0,0
213195,500,4,2,1,40,1,0
222195,545.454545454546,4,2,1,40,1,0
222467,705.882352941176,4,2,1,35,1,0
222819,710.059171597633,4,2,1,30,1,0
223174,857.142857142857,4,2,1,20,1,0
223602,571.428571428571,4,2,1,15,1,0
231030,-100,4,2,1,5,0,0

[Colours]
Combo1 : 255,255,128
Combo2 : 255,128,128
SliderBorder : 249,241,226

[HitObjects]
52,280,1066,6,0,P|140:320|252:304,1,192,2|2,0:0|0:0,0:0:0:0:
424,316,2614,2,0,P|456:224|423:139,1,192,0|2,0:0|0:0,0:0:0:0:
256,232,4162,6,0,P|184:240|125:204,2,144,0|2|2,0:0|0:0|0:0,0:0:0:0:
300,144,5711,2,0,P|344:64|436:57,1,192,0|2,0:0|0:0,0:0:0:0:
420,248,7259,5,4,0:0:0:0:
344,304,7646,1,0,0:0:0:0:
256,264,8033,2,0,P|208:252|162:257,1,96,0|8,0:0|0:0,0:0:0:0:
72,284,8807,5,0,0:0:0:0:
80,92,9582,1,0,3:0:0:0:
164,136,9969,1,8,0:0:0:0:
252,92,10356,6,0,P|340:68|436:88,1,192,4|8,0:0|0:0,0:0:0:0:
468,180,11517,1,8,0:0:0:0:
396,240,11904,2,0,L|356:328,1,96,4|8,0:0|0:0,0:0:0:0:
264,308,12678,2,0,L|304:220,1,96,0|8,0:0|0:0,0:0:0:0:
256,192,13453,12,4,15001,0:0:0:0:
440,212,27388,6,2,P|392:204|328:220,1,96,0|2,0:0|0:0,0:0:0:0:
256,248,28162,1,0,0:0:0:0:
124,300,28743,6,0,P|72:264|56:176,1,144
76,96,29711,1,0,0:0:0:0:
188,188,30291,5,0,0:0:0:0:
188,188,30485,2,0,P|232:216|288:216,1,96
296,312,31259,2,0,P|355:267|366:201,1,144
351,155,32033,2,0,P|369:111|410:90,2,96
444,184,33195,1,0,0:0:0:0:
384,260,33582,6,0,P|340:268|293:249,1,96
252,164,34356,1,0,0:0:0:0:
156,56,34936,2,0,P|84:48|24:152,1,192
64,224,36098,2,0,L|64:288,2,48
152,184,36872,6,0,L|152:120,2,48
152,232,37453,1,0,0:0:0:0:
220,300,37840,1,0,0:0:0:0:
292,236,38227,2,0,P|340:240|388:236,1,96
440,156,39001,2,0,P|392:152|344:156,1,96
256,192,39775,5,4,0:0:0:0:
88,288,40549,2,0,P|84:240|88:192,1,96
172,144,41324,2,0,P|176:96|172:48,2,96
172,240,42485,1,0,0:0:0:0:
124,324,42872,6,0,B|172:344|220:324|220:324|268:344|312:324|312:324|360:344|404:324,1,288
456,240,44420,2,0,P|464:192|455:145,2,96
360,240,45582,1,0,0:0:0:0:
272,200,45969,5,4,0:0:0:0:
184,240,46356,1,0,0:0:0:0:
96,200,46743,2,0,L|28:200,2,48
184,240,47517,6,0,P|284:216|326:143,1,192
328,48,48678,1,0,0:0:0:0:
244,92,49065,5,0,0:0:0:0:
200,176,49453,1,0,0:0:0:0:
112,136,49840,1,0,0:0:0:0:
156,52,50227,1,0,0:0:0:0:
244,92,50614,2,0,P|284:136|285:217,2,144
256,192,52162,12,0,54485,0:0:0:0:
76,292,55259,6,0,P|176:320|253:286,1,192,4|0,0:0|0:0,0:0:0:0:
256,192,56420,1,8,0:0:0:0:
172,236,56807,2,0,P|176:144|254:96,1,192
340,144,57969,1,8,0:0:0:0:
256,192,58356,6,0,P|208:192|160:204,1,96,0|8,0:0|0:0,0:0:0:0:
128,168,58936,2,0,P|56:184|0:144,1,144,0|8,0:0|0:0,0:0:0:0:
76,88,59904,1,0,0:0:0:0:
168,56,60291,1,8,0:0:0:0:
232,128,60678,1,0,0:0:0:0:
320,88,61065,1,4,0:0:0:0:
412,120,61453,6,0,P|464:196|432:288,1,192,4|0,0:0|0:0,0:0:0:0:
372,212,62614,1,8,0:0:0:0:
316,132,63001,2,0,P|228:100|137:128,1,192
60,184,64162,1,8,0:0:0:0:
137,128,64549,6,0,P|156:192|122:257,2,144,0|0|8,0:0|0:0|0:0,0:0:0:0:
212,72,66098,2,0,P|300:48|380:100,1,192
380,192,67259,1,8,0:0:0:0:
380,192,67453,1,0,0:0:0:0:
380,192,67646,6,0,L|369:287,1,96,4|8,0:0|0:0,0:0:0:0:
276,264,68420,2,0,L|265:168,1,96,0|8,0:0|0:0,0:0:0:0:
180,212,69195,2,0,L|169:307,1,96,0|8,0:0|0:0,0:0:0:0:
88,260,69969,2,0,L|77:164,1,96,0|8,0:0|0:0,0:0:0:0:
120,80,70743,6,0,P|164:68|210:83,1,96,0|8,0:0|0:0,0:0:0:0:
232,128,71324,2,0,P|288:168|359:157,1,144,0|8,0:0|0:0,0:0:0:0:
424,88,72291,1,0,0:0:0:0:
452,180,72678,1,8,0:0:0:0:
376,240,73065,1,0,0:0:0:0:
424,324,73453,1,8,0:0:0:0:
328,324,73840,6,0,P|232:336|137:324,1,192,4|0,0:0|0:0,0:0:0:0:
60,264,75001,1,8,0:0:0:0:
140,208,75388,2,0,P|236:196|330:207,1,192,4|0,0:0|0:0,0:0:0:0:
404,148,76549,1,8,0:0:0:0:
404,52,76936,5,4,0:0:0:0:
212,36,77711,1,4,0:0:0:0:
104,192,78485,2,0,P|92:240|104:284,1,96,4|8,0:0|0:0,0:0:0:0:
188,240,79259,2,0,L|248:240,4,48,0|0|8|0|4,0:0|0:0|0:0|0:0|0:0,0:0:0:0:
456,188,92420,6,0,B|428:180|428:180|400:200|364:188,1,96,4|8,0:0|0:0,0:0:0:0:
276,148,93195,1,0,0:0:0:0:
192,32,93775,2,0,P|136:80|127:146,1,144,0|8,0:0|0:0,0:0:0:0:
44,192,94743,1,0,0:0:0:0:
140,300,95324,5,0,0:0:0:0:
140,300,95517,2,0,L|248:336,2,96,0|8|0,0:0|0:0|0:0,0:0:0:0:
68,236,96678,1,8,0:0:0:0:
136,168,97065,2,0,L|244:132,1,96,0|8,0:0|0:0,0:0:0:0:
208,232,97840,2,0,L|316:268,1,96,0|8,0:0|0:0,0:0:0:0:
300,360,98614,6,0,P|344:352|392:304,1,96,0|8,0:0|0:0,0:0:0:0:
420,232,99388,2,0,L|364:232,1,48
304,164,99969,2,0,P|216:128|132:164,1,192
132,260,101130,2,0,L|132:312,2,48,0|8|0,0:0|0:0|0:0,0:0:0:0:
131,164,101904,6,0,L|132:100,1,48,0|8,0:0|0:0,0:0:0:0:
228,120,102485,1,0,0:0:0:0:
312,164,102872,1,8,0:0:0:0:
404,132,103259,2,0,L|475:67,1,96,0|8,0:0|0:0,0:0:0:0:
508,156,104033,2,0,L|436:220,1,96,0|8,0:0|0:0,0:0:0:0:
348,256,104807,5,4,0:0:0:0:
168,320,105582,1,0,0:0:0:0:
76,290,105969,1,8,0:0:0:0:
76,194,106356,2,0,P|64:148|24:116,2,96,0|8|0,0:0|0:0|0:0,0:0:0:0:
168,164,107517,1,8,0:0:0:0:
224,242,107904,6,0,P|272:256|315:244,1,96,0|8,0:0|0:0,0:0:0:0:
384,312,108678,2,0,P|408:268|408:223,1,96,0|8,0:0|0:0,0:0:0:0:
315,244,109453,2,0,P|316:196|340:156,2,96,0|8|0,0:0|0:0|0:0,0:0:0:0:
220,244,110614,1,8,0:0:0:0:
220,244,110807,1,0,0:0:0:0:
220,244,111001,6,0,P|228:152|289:77,1,192,4|0,0:0|0:0,0:0:0:0:
384,72,112162,1,8,0:0:0:0:
339,156,112549,2,0,P|296:168|247:157,1,96,0|8,0:0|0:0,0:0:0:0:
184,232,113324,2,0,P|152:192|147:146,1,96,0|8,0:0|0:0,0:0:0:0:
204,72,114098,5,0,0:0:0:0:
247,157,114485,1,8,0:0:0:0:
184,232,114872,1,0,0:0:0:0:
204,324,115259,1,8,0:0:0:0:
296,356,115646,2,0,B|352:356|384:324|384:324|432:336,2,144
256,192,117195,12,0,119517,0:0:0:0:
308,108,120291,6,0,P|244:60|138:76,1,192,4|0,0:0|0:0,0:0:0:0:
56,128,121453,1,8,0:0:0:0:
140,172,121840,2,0,B|152:232|112:280|112:280|132:320|184:324,1,192
268,336,123001,1,8,0:0:0:0:
356,300,123388,6,0,P|400:288|447:301,2,96,0|8|0,0:0|0:0|0:0,0:0:0:0:
280,240,124549,1,8,0:0:0:0:
192,276,124936,2,0,P|104:276|56:192,1,192
92,104,126098,1,8,0:0:0:0:
92,104,126485,6,0,P|132:132|147:174,1,96,4|8,0:0|0:0,0:0:0:0:
172,268,127259,2,0,P|216:244|238:205,1,96,0|8,0:0|0:0,0:0:0:0:
220,112,128033,2,0,P|268:112|307:137,1,96,0|8,0:0|0:0,0:0:0:0:
332,232,128807,2,0,P|376:216|398:174,1,96,0|8,0:0|0:0,0:0:0:0:
307,137,129582,6,0,P|332:96|374:76,1,96,0|8,0:0|0:0,0:0:0:0:
424,76,130162,2,0,P|476:108|496:184,1,144,0|8,0:0|0:0,0:0:0:0:
452,268,131130,1,0,0:0:0:0:
364,308,131517,1,8,0:0:0:0:
296,240,131904,1,0,0:0:0:0:
204,268,132291,1,8,0:0:0:0:
140,340,132678,6,0,B|88:340|60:296|60:296|72:244|118:224,1,192,4|0,0:0|0:0,0:0:0:0:
204,268,133840,1,8,0:0:0:0:
288,220,134227,2,0,P|336:212|382:215,1,96,0|8,0:0|0:0,0:0:0:0:
428,132,135001,2,0,P|380:120|333:122,1,96,0|8,0:0|0:0,0:0:0:0:
240,136,135775,5,0,0:0:0:0:
192,220,136162,1,8,0:0:0:0:
192,220,136356,2,0,P|148:168|151:95,1,144,0|8,0:0|0:0,0:0:0:0:
232,40,137324,1,0,0:0:0:0:
284,120,137711,1,8,0:0:0:0:
212,184,138098,1,0,0:0:0:0:
272,256,138485,1,8,0:0:0:0:
232,340,138872,5,4,0:0:0:0:
64,252,139646,2,0,P|60:208|84:160,2,96,0|8|4,0:0|0:0|0:0,0:0:0:0:
224,148,141195,6,0,P|204:104|165:78,2,96,0|8|4,0:0|0:0|0:0,0:0:0:0:
256,336,142743,1,4,0:0:0:0:
404,216,143517,2,0,P|420:172|405:126,1,96,4|8,0:0|0:0,0:0:0:0:
320,172,144291,2,0,L|256:172,4,48,0|0|8|0|4,0:0|0:0|0:0|0:0|0:0,0:0:0:0:
368,52,159001,6,0,B|348:128|428:168|428:168|408:212|408:212|436:264|400:312,1,288,4|2,0:0|0:0,0:0:0:0:
324,352,160549,2,0,P|278:370|232:365,1,96,0|2,0:0|0:0,0:0:0:0:
264,276,161324,2,0,P|226:251|163:250,1,96,0|2,0:0|0:0,0:0:0:0:
160,152,162098,2,0,P|96:192|79:254,2,144,0|0|2,0:0|0:0|0:0,0:0:0:0:
248,188,163646,2,0,P|236:96|153:57,1,192,0|2,0:0|0:0,0:0:0:0:
72,112,164807,1,0,0:0:0:0:
72,112,165195,6,0,P|56:160|64:203,1,96,0|2,0:0|0:0,0:0:0:0:
152,164,165969,2,0,P|176:208|216:224,1,96,0|2,0:0|0:0,0:0:0:0:
244,132,166743,2,0,P|288:152|310:192,1,96,0|2,0:0|0:0,0:0:0:0:
388,136,167517,2,0,P|408:184|400:226,1,96,0|2,0:0|0:0,0:0:0:0:
328,288,168291,2,0,P|260:276|200:316,2,144,0|0|2,0:0|0:0|0:0,0:0:0:0:
420,320,169840,2,0,P|492:264|482:171,1,192,0|2,0:0|0:0,0:0:0:0:
396,128,171001,1,0,0:0:0:0:
396,128,171388,6,0,L|292:76,1,96,4|8,0:0|0:0,0:0:0:0:
316,180,172162,2,0,L|212:128,1,96,0|8,0:0|0:0,0:0:0:0:
224,40,172936,2,0,L|144:92,1,96,0|8,0:0|0:0,0:0:0:0:
230,137,173711,2,0,L|150:189,1,96,0|8,0:0|0:0,0:0:0:0:
64,144,174485,6,0,P|32:204|48:284,2,144,4|0|8,0:0|0:0|0:0,0:0:0:0:
80,48,176033,1,4,0:0:0:0:
152,108,176420,1,8,0:0:0:0:
236,64,176807,1,0,0:0:0:0:
324,100,177195,1,8,0:0:0:0:
416,80,177582,6,0,P|448:164|396:244,1,192,4|0,0:0|0:0,0:0:0:0:
304,268,178743,1,8,0:0:0:0:
248,192,179130,2,0,P|168:144|76:172,1,192,4|0,0:0|0:0,0:0:0:0:
20,248,180291,1,8,0:0:0:0:
56,336,180678,5,4,0:0:0:0:
184,192,181453,1,4,0:0:0:0:
360,264,182227,2,0,L|468:308,1,96,4|8,0:0|0:0,0:0:0:0:
436,204,183001,2,0,L|328:160,1,96,0|8,0:0|0:0,0:0:0:0:
256,192,183775,12,4,185324,0:0:0:0:
116,120,186098,5,0,0:0:0:0:
188,184,186485,1,8,0:0:0:0:
276,148,186872,2,0,P|372:144|433:209,1,192
432,304,188033,1,8,0:0:0:0:
348,348,188420,6,0,P|288:360|208:328,2,144,0|0|8,0:0|0:0|0:0,0:0:0:0:
352,252,189969,1,0,0:0:0:0:
272,200,190356,1,8,0:0:0:0:
192,252,190743,1,0,0:0:0:0:
112,200,191130,1,8,0:0:0:0:
32,252,191517,6,0,P|24:164|99:105,1,192,4|0,0:0|0:0,0:0:0:0:
188,140,192678,1,8,0:0:0:0:
112,200,193065,2,0,P|136:248|176:268,1,96,0|8,0:0|0:0,0:0:0:0:
248,212,193840,2,0,P|272:164|312:144,1,96,0|8,0:0|0:0,0:0:0:0:
380,80,194614,6,0,P|340:56|276:56,1,96,0|8,0:0|0:0,0:0:0:0:
256,84,195195,2,0,P|184:92|114:77,1,144,0|8,0:0|0:0,0:0:0:0:
24,40,196162,1,0,0:0:0:0:
40,136,196549,1,8,0:0:0:0:
128,172,196936,1,0,0:0:0:0:
204,112,197324,1,8,0:0:0:0:
204,112,197517,1,0,0:0:0:0:
204,112,197711,6,0,P|256:108|293:128,1,96,4|8,0:0|0:0,0:0:0:0:
360,60,198485,2,0,P|389:103|390:145,1,96,0|8,0:0|0:0,0:0:0:0:
328,220,199259,1,0,0:0:0:0:
232,204,199646,1,8,0:0:0:0:
200,112,200033,2,0,P|160:88|112:90,1,96,0|8,0:0|0:0,0:0:0:0:
52,168,200807,6,0,P|16:108|28:38,2,144,4|0|8,0:0|0:0|0:0,0:0:0:0:
148,180,202356,1,0,0:0:0:0:
172,272,202743,1,8,0:0:0:0:
264,300,203130,1,0,0:0:0:0:
340,240,203517,1,8,0:0:0:0:
436,252,203904,6,0,P|428:160|357:96,1,192,4|0,0:0|0:0,0:0:0:0:
264,68,205065,1,8,0:0:0:0:
284,160,205453,2,0,P|212:216|119:194,1,192,4|0,0:0|0:0,0:0:0:0:
108,100,206614,1,8,0:0:0:0:
196,136,207001,6,0,L|172:248,1,96,4|8,0:0|0:0,0:0:0:0:
268,200,207775,2,0,L|292:312,1,96,4|8,0:0|0:0,0:0:0:0:
368,240,208549,1,4,0:0:0:0:
348,148,208936,1,8,0:0:0:0:
260,104,209324,6,0,L|196:104,4,48,0|0|8|0|4,0:0|0:0|0:0|0:0|0:0,0:0:0:0:
112,328,213195,2,0,P|208:336|278:278,1,192
144,144,215195,2,0,P|204:76|300:69,1,192
388,104,216695,1,0,0:0:0:0:
440,184,217195,6,0,P|424:232|392:263,1,96
336,184,218195,2,0,P|296:156|250:151,1,96
168,200,219195,2,0,P|120:216|56:200,2,96
168,104,220695,1,0,0:0:0:0:
256,192,221195,12,0,223174,0:0:0:0:
256,192,223602,12,0,231030,0:0:0:0:
