osu file format v14

[General]
AudioFilename: Utakata Ai no Mahoroba.mp3
AudioLeadIn: 0
PreviewTime: 55314
Countdown: 0
SampleSet: Soft
StackLeniency: 0.7
Mode: 3
LetterboxInBreaks: 0
EpilepsyWarning: 1
SpecialStyle: 0
WidescreenStoryboard: 1

[Editor]
DistanceSpacing: 1
BeatDivisor: 4
GridSize: 16
TimelineZoom: 2

[Metadata]
Title:Utakata, Ai no Mahoroba
TitleUnicode:泡沫、哀のまほろば
Artist:senya
ArtistUnicode:senya
Creator:Kyousuke-
Version:Usagi's 5K IN
Source:東方Project
Tags:ExUsagi diicky Abyssus- Rayz141 Zan_- 8th Touhou game imperishable night in memories of phantasm 4 Fujiwara no Mokou 藤原妹紅 extra エクステンドアッシュ ~ 蓬莱人 extend ashe ~ houraijin 月まで届け、不死の煙 tsuki made todoke, fushi no kemuri
BeatmapID:529883
BeatmapSetID:186159

[Difficulty]
HPDrainRate:8
CircleSize:5
OverallDifficulty:8
ApproachRate:8
SliderMultiplier:2.1
SliderTickRate:1

[Events]
//Background and Video events
0,0,"BG.jpg",0,0
//Break Periods
//Storyboard Layer 0 (Background)
//Storyboard Layer 1 (Fail)
//Storyboard Layer 2 (Pass)
//Storyboard Layer 3 (Foreground)
//Storyboard Sound Samples

[TimingPoints]
1121,387.096774193548,4,2,0,30,1,0
7314,-100,4,2,1,30,0,0
27443,-100,4,2,0,30,0,0
39830,-100,4,2,1,30,0,0
55314,-100,4,2,1,30,0,1
80088,-100,4,2,1,30,0,0
83185,500,4,2,0,30,1,0
92185,545.454545454546,4,2,0,30,1,0
92457,705.882352941176,4,2,0,30,1,0
92809,710.059171597633,4,2,0,30,1,0
93164,857.142857142857,4,2,0,30,1,0
93592,571.428571428571,4,2,0,30,1,0
93592,-133.333333333333,4,2,0,30,0,0

[HitObjects]
64,192,1121,128,2,3250:0:0:0:0:
192,192,1314,1,0,0:0:0:0:
256,192,1508,1,0,0:0:0:0:
358,192,1701,128,0,2282:0:0:0:0:
192,192,2282,1,0,0:0:0:0:
320,192,2669,1,2,0:0:0:0:
256,192,2862,1,0,0:0:0:0:
320,192,3056,1,0,0:0:0:0:
448,192,3250,128,0,3830:0:0:0:0:
192,192,3830,1,0,0:0:0:0:
460,192,4217,1,2,0:0:0:0:
153,192,4411,1,0,0:0:0:0:
358,192,4604,1,0,0:0:0:0:
64,192,4798,128,0,5379:0:0:0:0:
256,192,5379,1,0,0:0:0:0:
153,192,5766,1,2,0:0:0:0:
460,192,5766,128,0,6153:0:0:0:0:
51,192,5959,1,0,0:0:0:0:
192,192,6153,1,2,0:0:0:0:
358,192,6153,128,0,6540:0:0:0:0:
460,192,6346,1,0,0:0:0:0:
256,192,6540,1,2,0:0:0:0:
51,192,6540,128,0,7314:0:0:0:0:
153,192,6733,1,0,0:0:0:0:
320,192,6927,1,2,0:0:0:0:
460,192,6927,128,0,7314:0:0:0:0:
358,192,7314,1,0,0:0:0:0:
153,192,7314,1,2,0:0:0:0:
256,192,7314,1,4,0:0:0:0:
64,192,7508,1,0,0:0:0:0:
192,192,7604,1,0,0:0:0:0:
256,192,7701,1,0,0:0:0:0:
448,192,7701,1,2,3:0:0:0:
192,192,7895,1,0,0:0:0:0:
192,192,8088,1,0,0:0:0:0:
320,192,8185,1,0,0:0:0:0:
192,192,8282,1,0,0:0:0:0:
64,192,8282,1,0,0:0:0:0:
320,192,8475,1,0,0:0:0:0:
448,192,8475,1,2,3:0:0:0:
256,192,8669,1,0,0:0:0:0:
320,192,8766,1,0,0:0:0:0:
448,192,8862,1,4,0:0:0:0:
192,192,8862,1,0,0:0:0:0:
64,192,8862,1,2,0:0:0:0:
256,192,9056,1,0,0:0:0:0:
460,192,9153,1,0,0:0:0:0:
358,192,9250,1,0,0:0:0:0:
153,192,9250,1,2,3:0:0:0:
51,192,9443,1,0,0:0:0:0:
51,192,9637,1,0,0:0:0:0:
448,192,9733,1,0,0:0:0:0:
320,192,9830,1,0,0:0:0:0:
64,192,9830,1,0,0:0:0:0:
448,192,10024,1,2,3:0:0:0:
256,192,10024,1,0,0:0:0:0:
256,192,10217,1,0,0:0:0:0:
64,192,10411,1,2,0:0:0:0:
320,192,10411,1,4,0:0:0:0:
448,192,10411,1,0,0:0:0:0:
153,192,10508,1,0,0:0:0:0:
256,192,10604,1,0,0:0:0:0:
358,192,10701,1,0,0:0:0:0:
460,186,10798,1,2,3:0:0:0:
51,192,10798,1,0,0:0:0:0:
153,192,10991,1,0,0:0:0:0:
51,192,11088,1,0,0:0:0:0:
448,192,11185,1,0,0:0:0:0:
256,192,11185,1,4,0:0:0:0:
358,192,11185,1,2,0:0:0:0:
51,192,11282,1,0,0:0:0:0:
153,192,11379,1,0,0:0:0:0:
256,192,11475,1,0,0:0:0:0:
51,192,11572,1,2,3:0:0:0:
358,192,11572,1,0,0:0:0:0:
358,192,11766,1,0,0:0:0:0:
153,192,11766,1,0,0:0:0:0:
460,192,11862,1,0,0:0:0:0:
51,192,11862,1,0,0:0:0:0:
256,192,11959,1,0,0:0:0:0:
358,192,11959,1,4,0:0:0:0:
153,192,11959,1,2,0:0:0:0:
51,192,12056,1,0,0:0:0:0:
153,192,12153,1,2,0:0:0:0:
358,192,12153,1,0,0:0:0:0:
51,192,12250,1,0,0:0:0:0:
448,192,12346,1,4,0:0:0:0:
153,192,12346,1,2,0:0:0:0:
256,192,12346,1,0,0:0:0:0:
51,192,12443,1,0,0:0:0:0:
358,192,12540,1,0,0:0:0:0:
153,192,12540,1,2,0:0:0:0:
51,192,12637,1,0,0:0:0:0:
358,192,12733,1,2,0:0:0:0:
256,192,12733,1,4,0:0:0:0:
448,192,12733,1,0,0:0:0:0:
153,192,12830,1,0,0:0:0:0:
51,192,12830,1,2,0:0:0:0:
256,192,12927,1,0,0:0:0:0:
358,192,12927,1,2,0:0:0:0:
153,192,13024,1,0,0:0:0:0:
51,192,13024,1,2,0:0:0:0:
358,192,13120,1,4,0:0:0:0:
256,192,13120,1,2,0:0:0:0:
460,192,13120,128,0,14282:0:0:0:0:
153,192,13217,1,0,0:0:0:0:
51,192,13217,1,2,0:0:0:0:
256,192,13314,1,2,0:0:0:0:
358,192,13314,1,0,0:0:0:0:
51,192,13411,1,2,0:0:0:0:
153,192,13411,1,0,0:0:0:0:
358,192,13508,1,4,0:0:0:0:
256,192,13508,128,2,14282:0:0:0:0:
64,192,14282,1,2,0:0:0:0:
358,192,14282,1,0,0:0:0:0:
455,192,14379,1,0,0:0:0:0:
51,192,14475,1,2,0:0:0:0:
153,192,14524,1,2,0:0:0:0:
256,192,14572,1,2,0:0:0:0:
358,192,14620,1,2,0:0:0:0:
460,192,14669,1,2,0:0:0:0:
64,192,14766,1,0,0:0:0:0:
153,192,14766,1,2,0:0:0:0:
448,192,14862,1,0,0:0:0:0:
358,192,14862,1,2,0:0:0:0:
64,192,14959,1,0,0:0:0:0:
153,192,14959,1,2,0:0:0:0:
320,192,15056,1,2,0:0:0:0:
256,192,15056,1,4,0:0:0:0:
460,192,15056,1,0,0:0:0:0:
256,192,15250,1,0,0:0:0:0:
358,192,15346,1,0,0:0:0:0:
460,192,15443,1,0,0:0:0:0:
153,192,15443,1,8,0:0:0:0:
448,192,15637,1,0,0:0:0:0:
320,192,15733,1,0,0:0:0:0:
64,192,15830,1,2,0:0:0:0:
192,192,15830,1,0,0:0:0:0:
192,192,16024,1,0,0:0:0:0:
358,192,16024,1,0,0:0:0:0:
64,192,16120,1,0,0:0:0:0:
256,192,16217,1,8,0:0:0:0:
448,192,16217,1,0,0:0:0:0:
320,192,16411,1,0,0:0:0:0:
153,192,16411,1,0,0:0:0:0:
460,192,16508,1,0,0:0:0:0:
51,192,16604,1,2,0:0:0:0:
256,192,16604,1,0,0:0:0:0:
64,192,16798,1,0,0:0:0:0:
192,192,16895,1,0,0:0:0:0:
256,192,16991,1,8,0:0:0:0:
448,192,16991,1,0,0:0:0:0:
256,192,17185,1,0,0:0:0:0:
320,192,17282,1,0,0:0:0:0:
51,192,17379,128,2,17572:1:0:0:0:
448,192,17379,1,2,0:0:0:0:
153,192,17379,1,0,0:0:0:0:
153,192,17572,1,0,0:0:0:0:
358,192,17572,1,0,0:0:0:0:
460,192,17669,1,0,0:0:0:0:
256,192,17766,1,8,0:0:0:0:
51,192,17766,1,0,0:0:0:0:
153,192,17959,1,0,0:0:0:0:
358,192,17959,1,0,0:0:0:0:
51,192,18056,1,0,0:0:0:0:
460,192,18153,1,2,0:0:0:0:
256,192,18153,1,0,0:0:0:0:
256,192,18346,1,0,0:0:0:0:
192,192,18443,1,0,0:0:0:0:
460,192,18540,1,0,0:0:0:0:
320,192,18540,1,8,0:0:0:0:
448,192,18733,1,0,0:0:0:0:
358,192,18830,1,0,0:0:0:0:
64,192,18927,1,2,0:0:0:0:
256,192,18927,1,0,0:0:0:0:
256,192,19120,1,0,0:0:0:0:
460,192,19217,1,0,0:0:0:0:
358,192,19314,1,8,0:0:0:0:
51,192,19314,128,0,19701:0:0:0:0:
153,192,19314,1,0,0:0:0:0:
256,192,19508,1,0,0:0:0:0:
153,192,19604,1,0,0:0:0:0:
358,192,19701,1,0,0:0:0:0:
448,192,19701,1,4,0:0:0:0:
256,192,19701,1,2,0:0:0:0:
153,192,19895,1,0,0:0:0:0:
256,192,19991,1,0,0:0:0:0:
51,192,20088,1,0,0:0:0:0:
448,192,20088,1,8,0:0:0:0:
192,192,20282,1,2,0:0:0:0:
448,192,20282,1,4,0:0:0:0:
64,192,20282,1,0,0:0:0:0:
320,192,20475,128,2,20669:1:0:0:0:
256,192,20475,1,0,0:0:0:0:
64,192,20669,1,0,0:0:0:0:
153,192,20669,1,8,0:0:0:0:
448,192,20766,1,0,0:0:0:0:
192,192,20862,1,8,0:0:0:0:
64,192,20862,1,0,0:0:0:0:
358,192,20959,1,0,0:0:0:0:
51,192,21056,1,0,0:0:0:0:
153,192,21056,1,8,0:0:0:0:
256,192,21153,1,0,0:0:0:0:
64,192,21250,1,4,0:0:0:0:
448,192,21250,1,2,0:0:0:0:
358,192,21250,1,0,0:0:0:0:
51,192,21443,1,0,0:0:0:0:
153,192,21540,1,0,0:0:0:0:
460,192,21637,1,0,0:0:0:0:
358,192,21637,1,8,0:0:0:0:
448,192,21830,1,0,0:0:0:0:
256,192,21927,1,0,0:0:0:0:
320,192,22024,1,2,0:0:0:0:
64,192,22024,1,0,0:0:0:0:
320,192,22217,1,0,0:0:0:0:
153,192,22217,1,0,0:0:0:0:
64,192,22314,1,0,0:0:0:0:
256,192,22411,1,8,0:0:0:0:
448,192,22411,1,0,0:0:0:0:
320,192,22604,1,0,0:0:0:0:
256,192,22604,1,0,0:0:0:0:
192,192,22701,1,0,0:0:0:0:
51,192,22798,1,0,0:0:0:0:
448,192,22798,1,2,0:0:0:0:
64,192,22991,1,0,0:0:0:0:
192,192,23088,1,0,0:0:0:0:
256,192,23185,1,8,0:0:0:0:
448,192,23185,1,0,0:0:0:0:
460,192,23379,1,2,0:0:0:0:
256,192,23379,1,0,0:0:0:0:
358,192,23572,1,0,0:0:0:0:
51,192,23572,128,2,23766:1:0:0:0:
460,192,23572,1,0,0:0:0:0:
358,192,23766,1,2,0:0:0:0:
256,192,23766,1,0,0:0:0:0:
256,192,23959,1,8,0:0:0:0:
153,192,23959,1,0,0:0:0:0:
51,192,24153,1,0,0:0:0:0:
153,192,24153,1,2,0:0:0:0:
153,192,24346,1,4,0:0:0:0:
460,192,24346,1,2,0:0:0:0:
320,192,24346,1,0,0:0:0:0:
448,192,24540,1,2,0:0:0:0:
64,192,24540,1,0,0:0:0:0:
320,192,24637,1,0,0:0:0:0:
192,192,24637,1,0,0:0:0:0:
256,192,24637,1,2,0:0:0:0:
64,192,24733,1,0,0:0:0:0:
460,192,24733,1,0,0:0:0:0:
192,192,24927,1,0,0:0:0:0:
51,192,24927,1,2,0:0:0:0:
256,192,24927,1,0,0:0:0:0:
448,192,25120,1,2,0:0:0:0:
358,192,25120,1,0,0:0:0:0:
256,192,25120,1,4,0:0:0:0:
153,192,25314,1,0,0:0:0:0:
460,192,25314,1,2,0:0:0:0:
51,192,25411,1,0,0:0:0:0:
358,192,25411,1,0,0:0:0:0:
256,192,25411,1,2,0:0:0:0:
153,192,25508,1,0,0:0:0:0:
460,192,25508,1,0,0:0:0:0:
256,192,25701,1,0,0:0:0:0:
358,192,25701,1,0,0:0:0:0:
460,192,25701,1,2,0:0:0:0:
256,192,25895,1,4,0:0:0:0:
153,192,25895,1,0,0:0:0:0:
51,192,25895,1,2,0:0:0:0:
460,192,26088,1,0,0:0:0:0:
256,192,26088,1,0,0:0:0:0:
64,192,26088,1,2,0:0:0:0:
320,192,26282,1,0,0:0:0:0:
153,192,26282,1,4,0:0:0:0:
64,192,26282,1,2,0:0:0:0:
448,192,26379,1,2,0:0:0:0:
192,192,26379,1,0,0:0:0:0:
358,192,26379,1,0,0:0:0:0:
256,192,26572,128,0,27443:0:0:0:0:
192,192,26572,1,4,0:0:0:0:
448,192,26572,1,2,0:0:0:0:
358,192,26572,1,0,0:0:0:0:
51,192,26572,1,0,0:0:0:0:
51,192,26862,1,0,0:0:0:0:
447,192,26862,1,8,0:0:0:0:
51,192,27056,1,0,0:0:0:0:
447,192,27056,1,8,0:0:0:0:
51,192,27250,1,0,0:0:0:0:
447,192,27250,1,8,0:0:0:0:
51,192,27443,5,6,0:0:0:0:
192,192,27637,5,0,0:0:0:0:
358,192,27830,1,0,0:0:0:0:
460,192,28024,128,0,28991:0:0:0:0:
192,192,28991,1,0,0:0:0:0:
64,192,29185,1,0,0:0:0:0:
256,192,29379,1,0,0:0:0:0:
448,192,29572,128,0,29959:0:0:0:0:
153,192,29959,1,0,0:0:0:0:
358,192,30153,1,0,0:0:0:0:
51,192,30153,1,0,0:0:0:0:
256,192,30346,1,0,0:0:0:0:
64,192,30540,1,0,0:0:0:0:
192,192,30733,1,0,0:0:0:0:
256,192,30927,1,0,0:0:0:0:
460,192,31120,128,0,32088:0:0:0:0:
358,192,31120,1,0,0:0:0:0:
358,192,31508,128,0,32088:0:0:0:0:
256,192,31508,1,0,0:0:0:0:
256,192,31895,128,0,32088:0:0:0:0:
153,192,31895,1,0,0:0:0:0:
51,192,32088,1,0,0:0:0:0:
153,192,32282,1,0,0:0:0:0:
256,192,32475,1,0,0:0:0:0:
448,192,32669,1,0,0:0:0:0:
51,192,32669,1,0,0:0:0:0:
320,192,32862,1,0,0:0:0:0:
51,192,32862,1,0,0:0:0:0:
51,192,33056,128,0,33637:0:0:0:0:
255,192,33056,128,0,33637:0:0:0:0:
460,192,33250,1,0,0:0:0:0:
320,192,33443,1,0,0:0:0:0:
153,192,33637,1,2,0:0:0:0:
64,192,33830,1,0,0:0:0:0:
320,192,34024,1,0,0:0:0:0:
448,192,34217,128,0,34604:0:0:0:0:
256,192,34604,1,0,0:0:0:0:
192,192,34798,1,0,0:0:0:0:
64,192,34991,1,0,0:0:0:0:
320,192,35185,1,0,0:0:0:0:
51,192,35379,1,0,0:0:0:0:
153,192,35572,1,0,0:0:0:0:
256,192,35766,128,0,36153:0:0:0:0:
460,192,35766,1,0,0:0:0:0:
192,192,36153,1,0,0:0:0:0:
448,192,36346,1,0,0:0:0:0:
64,192,36346,1,0,0:0:0:0:
256,192,36540,1,0,0:0:0:0:
153,192,36733,128,0,36927:0:0:0:0:
448,192,36733,1,0,0:0:0:0:
256,192,36927,128,0,37120:0:0:0:0:
320,192,37120,128,0,37314:0:0:0:0:
448,192,37314,128,0,38282:0:0:0:0:
64,192,37508,1,0,0:0:0:0:
256,192,37604,1,0,0:0:0:0:
64,192,37701,1,0,0:0:0:0:
256,192,37798,1,0,0:0:0:0:
320,192,37895,1,0,0:0:0:0:
192,192,37991,1,0,0:0:0:0:
320,192,38088,1,0,0:0:0:0:
192,192,38185,1,0,0:0:0:0:
64,192,38282,1,0,0:0:0:0:
256,192,38282,1,2,0:0:0:0:
358,192,38379,1,0,0:0:0:0:
460,192,38475,1,0,0:0:0:0:
153,192,38475,1,0,0:0:0:0:
256,192,38572,1,0,0:0:0:0:
358,192,38669,1,0,0:0:0:0:
51,192,38669,1,2,0:0:0:0:
153,192,38766,1,0,0:0:0:0:
460,192,38862,1,0,0:0:0:0:
256,192,38862,1,2,0:0:0:0:
153,192,38959,1,0,0:0:0:0:
358,192,39056,1,2,0:0:0:0:
51,192,39056,1,0,0:0:0:0:
256,192,39153,1,0,0:0:0:0:
460,192,39250,1,2,0:0:0:0:
153,192,39250,1,0,0:0:0:0:
358,192,39346,1,0,0:0:0:0:
51,192,39443,128,0,39540:0:0:0:0:
256,192,39443,1,0,0:0:0:0:
153,192,39540,128,0,39637:0:0:0:0:
358,192,39540,1,0,0:0:0:0:
256,192,39637,128,0,39733:0:0:0:0:
460,192,39637,1,0,0:0:0:0:
358,192,39733,128,0,39830:0:0:0:0:
51,192,39733,1,0,0:0:0:0:
460,192,39830,1,2,0:0:0:0:
153,192,39830,1,4,0:0:0:0:
256,192,39830,1,0,0:0:0:0:
51,192,40024,1,0,0:0:0:0:
153,192,40120,1,0,0:0:0:0:
256,192,40217,1,0,0:0:0:0:
460,192,40217,1,2,3:0:0:0:
358,192,40217,1,0,0:0:0:0:
51,192,40411,1,2,0:0:0:0:
256,192,40411,1,0,0:0:0:0:
153,192,40411,1,0,0:0:0:0:
153,192,40604,1,0,0:0:0:0:
358,192,40604,1,0,0:0:0:0:
256,192,40798,1,0,0:0:0:0:
460,192,40798,1,2,0:0:0:0:
358,192,40798,1,0,0:0:0:0:
153,192,40991,128,0,41185:0:0:0:0:
256,192,40991,128,8,41185:0:0:0:0:
358,192,40991,128,0,41185:0:0:0:0:
460,192,41379,1,2,0:0:0:0:
51,192,41379,1,0,0:0:0:0:
153,192,41379,1,4,0:0:0:0:
256,192,41572,1,0,0:0:0:0:
358,192,41669,1,0,0:0:0:0:
460,192,41766,1,0,0:0:0:0:
51,192,41766,1,2,3:0:0:0:
153,192,41766,1,0,0:0:0:0:
358,192,41959,1,0,0:0:0:0:
460,192,41959,1,2,0:0:0:0:
256,192,41959,1,0,0:0:0:0:
153,192,42153,1,0,0:0:0:0:
358,192,42153,1,0,0:0:0:0:
153,192,42346,1,0,0:0:0:0:
51,192,42346,1,2,0:0:0:0:
256,192,42346,1,0,0:0:0:0:
153,192,42540,128,0,42733:0:0:0:0:
256,192,42540,128,8,42733:0:0:0:0:
358,192,42540,128,0,42733:0:0:0:0:
460,192,42927,1,2,0:0:0:0:
256,192,42927,1,4,0:0:0:0:
51,192,42927,1,0,0:0:0:0:
153,192,43120,1,0,0:0:0:0:
358,192,43217,1,0,0:0:0:0:
51,192,43314,1,2,3:0:0:0:
460,192,43314,1,0,0:0:0:0:
256,192,43314,1,0,0:0:0:0:
256,192,43508,1,2,0:0:0:0:
51,192,43508,1,0,0:0:0:0:
153,192,43508,1,0,0:0:0:0:
153,192,43701,1,0,0:0:0:0:
358,192,43701,1,0,0:0:0:0:
256,192,43895,1,2,0:0:0:0:
460,192,43895,1,0,0:0:0:0:
358,192,43895,1,0,0:0:0:0:
51,192,44088,128,0,44282:0:0:0:0:
256,192,44088,128,8,44282:0:0:0:0:
460,192,44088,128,0,44282:0:0:0:0:
51,192,44475,1,0,0:0:0:0:
256,192,44475,1,4,0:0:0:0:
460,192,44475,1,2,0:0:0:0:
51,192,44669,1,0,0:0:0:0:
460,192,44669,1,0,0:0:0:0:
153,192,44766,1,0,0:0:0:0:
358,192,44766,1,0,0:0:0:0:
256,192,44862,1,0,0:0:0:0:
460,192,44862,1,2,0:0:0:0:
51,192,44862,1,0,0:0:0:0:
153,192,45056,128,0,45250:0:0:0:0:
358,188,45056,128,2,45250:0:0:0:0:
256,192,45250,1,0,0:0:0:0:
51,192,45250,1,4,0:0:0:0:
460,192,45250,1,0,0:0:0:0:
256,192,45443,128,2,45733:0:0:0:0:
358,192,45540,128,0,45830:0:0:0:0:
153,192,45540,128,0,45830:0:0:0:0:
51,192,45637,128,2,45927:0:0:0:0:
460,192,45637,128,4,45927:0:0:0:0:
256,192,45830,1,2,0:0:0:0:
153,192,45927,1,0,0:0:0:0:
358,192,45927,1,2,0:0:0:0:
460,192,46024,1,2,0:0:0:0:
51,192,46024,1,0,0:0:0:0:
256,192,46024,1,4,0:0:0:0:
358,192,46217,1,0,0:0:0:0:
256,192,46314,1,0,0:0:0:0:
460,192,46314,1,0,0:0:0:0:
153,192,46411,1,8,0:0:0:0:
358,192,46411,1,0,0:0:0:0:
51,192,46411,1,0,0:0:0:0:
153,192,46604,1,0,0:0:0:0:
51,192,46701,1,0,0:0:0:0:
256,192,46701,1,0,0:0:0:0:
153,192,46798,1,0,0:0:0:0:
358,192,46798,1,2,0:0:0:0:
460,192,46798,1,0,0:0:0:0:
256,192,46991,1,0,0:0:0:0:
153,192,47088,1,0,0:0:0:0:
358,192,47088,1,0,0:0:0:0:
51,192,47185,1,0,0:0:0:0:
460,192,47185,1,0,0:0:0:0:
256,192,47185,1,8,0:0:0:0:
51,192,47572,1,2,0:0:0:0:
256,192,47572,1,4,0:0:0:0:
460,192,47572,1,0,0:0:0:0:
256,192,47766,1,0,0:0:0:0:
51,192,47862,1,0,0:0:0:0:
460,192,47862,1,0,0:0:0:0:
358,192,47959,1,0,0:0:0:0:
153,192,47959,1,0,0:0:0:0:
256,192,47959,1,8,0:0:0:0:
153,192,48153,1,2,0:0:0:0:
358,192,48153,1,0,0:0:0:0:
256,192,48153,1,0,0:0:0:0:
256,192,48346,1,0,0:0:0:0:
153,192,48540,1,0,0:0:0:0:
51,192,48540,1,2,0:0:0:0:
256,192,48540,1,0,0:0:0:0:
256,192,48733,128,0,48927:0:0:0:0:
358,192,48733,128,8,48927:0:0:0:0:
460,192,48733,128,0,48927:0:0:0:0:
51,192,49120,1,2,0:0:0:0:
153,192,49120,1,4,0:0:0:0:
358,192,49120,1,0,0:0:0:0:
51,192,49314,1,2,0:0:0:0:
256,192,49314,1,0,0:0:0:0:
51,192,49508,1,2,0:0:0:0:
358,192,49508,1,0,0:0:0:0:
51,192,49701,1,2,0:0:0:0:
460,192,49701,1,0,0:0:0:0:
358,192,49895,1,0,0:0:0:0:
153,192,49895,1,2,0:0:0:0:
460,192,49895,1,0,0:0:0:0:
358,192,50088,1,4,0:0:0:0:
256,192,50088,128,0,50669:0:0:0:0:
51,192,50088,1,2,0:0:0:0:
153,192,50282,1,2,0:0:0:0:
460,192,50282,1,0,0:0:0:0:
51,192,50475,1,2,0:0:0:0:
358,192,50475,1,0,0:0:0:0:
460,192,50669,1,2,0:0:0:0:
358,192,50669,1,4,0:0:0:0:
153,192,50669,128,0,50766:0:0:0:0:
51,192,50766,128,0,50862:0:0:0:0:
256,192,50862,128,0,50959:0:0:0:0:
153,192,50959,128,0,51056:0:0:0:0:
358,192,51056,128,8,51153:0:0:0:0:
256,192,51153,128,0,51250:0:0:0:0:
460,192,51250,128,0,51830:0:0:0:0:
51,192,51250,1,2,0:0:0:0:
153,192,51250,1,4,0:0:0:0:
51,192,51637,128,0,51830:0:0:0:0:
153,192,51637,1,2,0:0:0:0:
256,192,51830,1,8,0:0:0:0:
358,192,51830,1,0,0:0:0:0:
256,192,52217,128,0,52314:0:0:0:0:
51,192,52217,1,4,0:0:0:0:
358,192,52217,1,2,0:0:0:0:
153,192,52314,128,0,52411:0:0:0:0:
460,192,52314,1,0,0:0:0:0:
51,192,52411,128,0,52508:0:0:0:0:
358,192,52411,1,0,0:0:0:0:
256,192,52508,128,0,52604:0:0:0:0:
153,192,52604,1,8,0:0:0:0:
460,192,52604,128,0,52701:0:0:0:0:
51,192,52701,1,0,0:0:0:0:
358,192,52701,128,0,52798:0:0:0:0:
256,192,52798,128,0,53088:0:0:0:0:
460,192,52798,1,4,0:0:0:0:
153,192,52798,1,2,0:0:0:0:
460,192,53185,5,2,0:0:0:0:
51,192,53185,128,4,53572:0:0:0:0:
153,192,53379,1,0,0:0:0:0:
358,192,53379,1,2,0:0:0:0:
256,192,53379,1,8,0:0:0:0:
256,192,53572,128,2,53766:0:0:0:0:
358,192,53766,1,4,0:0:0:0:
460,192,53766,128,0,54540:0:0:0:0:
153,192,53766,1,2,0:0:0:0:
51,192,53766,128,0,54153:0:0:0:0:
256,192,54540,1,2,0:0:0:0:
358,192,54540,1,0,0:0:0:0:
51,192,54637,1,0,0:0:0:0:
153,192,54637,1,2,0:0:0:0:
256,192,54830,1,2,0:0:0:0:
358,192,54830,1,0,0:0:0:0:
51,192,55024,1,0,0:0:0:0:
153,192,55024,1,2,0:0:0:0:
358,192,55120,1,2,0:0:0:0:
460,192,55120,1,0,0:0:0:0:
51,192,55217,1,0,0:0:0:0:
153,192,55217,1,2,0:0:0:0:
358,192,55314,1,4,0:0:0:0:
256,192,55314,1,2,0:0:0:0:
460,192,55314,1,0,0:0:0:0:
51,192,55508,1,0,0:0:0:0:
153,192,55508,1,0,0:0:0:0:
358,192,55604,1,0,0:0:0:0:
153,192,55701,1,8,0:0:0:0:
256,192,55701,1,0,0:0:0:0:
460,192,55701,1,0,0:0:0:0:
460,192,55895,1,0,0:0:0:0:
256,192,55895,1,0,0:0:0:0:
51,192,55991,1,0,0:0:0:0:
358,192,56088,1,2,0:0:0:0:
153,192,56088,1,0,0:0:0:0:
256,192,56282,1,0,0:0:0:0:
153,192,56282,1,0,0:0:0:0:
460,192,56379,1,0,0:0:0:0:
51,192,56475,1,0,0:0:0:0:
358,192,56475,1,8,0:0:0:0:
256,192,56475,1,0,0:0:0:0:
153,192,56669,1,0,0:0:0:0:
358,192,56669,1,0,0:0:0:0:
51,192,56766,1,0,0:0:0:0:
460,192,56862,1,0,0:0:0:0:
256,192,56862,1,2,0:0:0:0:
51,192,57056,1,0,0:0:0:0:
153,192,57056,1,0,0:0:0:0:
256,192,57153,1,0,0:0:0:0:
358,192,57250,1,0,0:0:0:0:
460,192,57250,1,0,0:0:0:0:
153,192,57250,1,8,0:0:0:0:
51,192,57443,1,0,0:0:0:0:
358,192,57443,1,0,0:0:0:0:
256,192,57540,1,0,0:0:0:0:
153,192,57637,1,2,0:0:0:0:
460,192,57637,128,2,57830:1:0:0:0:
51,192,57830,1,0,0:0:0:0:
153,192,57830,1,0,0:0:0:0:
256,192,57927,1,0,0:0:0:0:
153,192,58024,1,8,0:0:0:0:
358,192,58024,1,0,0:0:0:0:
460,192,58024,1,0,0:0:0:0:
358,192,58217,1,0,0:0:0:0:
51,192,58217,1,0,0:0:0:0:
153,192,58314,1,0,0:0:0:0:
256,192,58411,1,2,0:0:0:0:
460,192,58411,1,0,0:0:0:0:
256,192,58604,1,0,0:0:0:0:
358,192,58604,1,0,0:0:0:0:
51,192,58701,1,0,0:0:0:0:
153,192,58798,1,0,0:0:0:0:
256,192,58798,1,8,0:0:0:0:
460,192,58798,1,0,0:0:0:0:
153,192,58991,1,0,0:0:0:0:
358,192,58991,1,0,0:0:0:0:
460,192,59088,1,0,0:0:0:0:
51,192,59185,1,0,0:0:0:0:
256,192,59185,1,2,0:0:0:0:
153,192,59379,1,0,0:0:0:0:
256,192,59379,1,0,0:0:0:0:
358,192,59475,1,0,0:0:0:0:
51,192,59572,1,0,0:0:0:0:
153,192,59572,1,8,0:0:0:0:
460,192,59572,1,0,0:0:0:0:
51,192,59766,1,0,0:0:0:0:
358,192,59766,1,0,0:0:0:0:
256,192,59862,1,0,0:0:0:0:
153,192,59959,1,2,0:0:0:0:
460,192,59959,128,0,60346:0:0:0:0:
358,192,60153,1,0,0:0:0:0:
153,192,60153,1,0,0:0:0:0:
256,192,60250,1,0,0:0:0:0:
51,192,60346,1,0,0:0:0:0:
358,192,60346,128,0,60733:0:0:0:0:
153,192,60346,1,8,0:0:0:0:
51,192,60540,1,0,0:0:0:0:
460,192,60540,1,0,0:0:0:0:
256,192,60637,1,0,0:0:0:0:
153,192,60733,1,2,0:0:0:0:
460,192,60733,128,2,60927:1:0:0:0:
51,192,60733,128,0,61120:0:0:0:0:
153,192,60927,1,0,0:0:0:0:
358,192,60927,1,0,0:0:0:0:
256,192,61024,1,0,0:0:0:0:
358,192,61120,1,0,0:0:0:0:
153,192,61120,1,8,0:0:0:0:
460,192,61120,128,0,61508:0:0:0:0:
358,192,61314,1,0,0:0:0:0:
256,192,61314,1,0,0:0:0:0:
153,192,61411,1,0,0:0:0:0:
256,192,61508,1,4,0:0:0:0:
358,192,61508,1,2,0:0:0:0:
51,192,61508,1,0,0:0:0:0:
460,192,61701,1,0,0:0:0:0:
153,192,61701,1,0,0:0:0:0:
51,192,61798,1,0,0:0:0:0:
153,192,61895,1,0,0:0:0:0:
358,192,61895,1,0,0:0:0:0:
256,192,61895,1,8,0:0:0:0:
153,192,62088,1,0,0:0:0:0:
358,192,62088,1,0,0:0:0:0:
256,192,62185,1,0,0:0:0:0:
460,192,62282,1,2,0:0:0:0:
153,192,62282,128,2,62475:1:0:0:0:
460,192,62475,1,0,0:0:0:0:
256,192,62475,1,0,0:0:0:0:
358,192,62572,1,0,0:0:0:0:
460,192,62669,1,0,0:0:0:0:
51,192,62669,1,0,0:0:0:0:
153,192,62669,1,8,0:0:0:0:
153,192,62862,1,0,0:0:0:0:
358,192,62862,1,0,0:0:0:0:
256,192,62959,1,0,0:0:0:0:
153,192,63056,1,0,0:0:0:0:
460,192,63056,1,2,0:0:0:0:
256,192,63250,1,0,0:0:0:0:
153,192,63250,1,0,0:0:0:0:
358,192,63346,1,0,0:0:0:0:
51,192,63443,1,0,0:0:0:0:
460,192,63443,1,0,0:0:0:0:
256,192,63443,1,8,0:0:0:0:
256,192,63637,1,0,0:0:0:0:
51,192,63637,1,0,0:0:0:0:
153,192,63733,1,0,0:0:0:0:
51,192,63830,1,2,0:0:0:0:
460,192,63830,128,2,64024:1:0:0:0:
153,192,64024,1,0,0:0:0:0:
358,192,64024,1,0,0:0:0:0:
256,192,64120,1,0,0:0:0:0:
51,192,64217,1,0,0:0:0:0:
358,192,64217,1,8,0:0:0:0:
460,192,64217,1,0,0:0:0:0:
51,192,64411,1,0,0:0:0:0:
256,192,64411,1,0,0:0:0:0:
153,192,64508,1,0,0:0:0:0:
51,192,64604,1,0,0:0:0:0:
460,192,64604,1,2,0:0:0:0:
358,192,64798,1,0,0:0:0:0:
153,192,64798,1,0,0:0:0:0:
256,192,64895,1,0,0:0:0:0:
358,192,64991,1,0,0:0:0:0:
51,192,64991,1,0,0:0:0:0:
153,192,64991,1,8,0:0:0:0:
358,192,65185,1,0,0:0:0:0:
153,192,65185,1,0,0:0:0:0:
256,192,65282,1,0,0:0:0:0:
51,192,65379,1,0,0:0:0:0:
153,192,65379,1,2,0:0:0:0:
153,192,65572,1,0,0:0:0:0:
256,192,65572,1,0,0:0:0:0:
358,192,65669,1,0,0:0:0:0:
460,192,65766,1,0,0:0:0:0:
51,192,65766,1,0,0:0:0:0:
256,192,65766,1,8,0:0:0:0:
51,192,65959,1,0,0:0:0:0:
460,192,65959,1,0,0:0:0:0:
358,192,66056,1,0,0:0:0:0:
256,192,66153,1,2,0:0:0:0:
153,192,66153,1,0,0:0:0:0:
358,192,66346,1,0,0:0:0:0:
51,192,66346,1,0,0:0:0:0:
153,192,66443,1,0,0:0:0:0:
256,192,66540,1,0,0:0:0:0:
460,192,66540,1,0,0:0:0:0:
358,192,66540,1,8,0:0:0:0:
460,192,66733,1,0,0:0:0:0:
153,192,66733,1,0,0:0:0:0:
256,192,66830,1,0,0:0:0:0:
460,192,66927,1,2,0:0:0:0:
358,192,66927,1,0,0:0:0:0:
51,192,66927,128,2,67120:1:0:0:0:
153,192,67120,1,0,0:0:0:0:
358,192,67120,1,0,0:0:0:0:
256,192,67217,1,0,0:0:0:0:
51,192,67314,1,8,0:0:0:0:
460,192,67314,1,0,0:0:0:0:
51,192,67508,1,8,0:0:0:0:
460,192,67508,1,0,0:0:0:0:
256,192,67508,1,0,0:0:0:0:
51,192,67701,1,0,0:0:0:0:
358,192,67701,1,4,0:0:0:0:
460,192,67701,1,0,0:0:0:0:
153,192,67701,1,2,0:0:0:0:
256,192,67895,1,0,0:0:0:0:
51,192,67895,1,0,0:0:0:0:
153,192,67991,1,0,0:0:0:0:
51,192,68088,1,0,0:0:0:0:
256,192,68088,1,8,0:0:0:0:
460,192,68088,1,0,0:0:0:0:
460,192,68282,1,0,0:0:0:0:
256,192,68282,1,0,0:0:0:0:
358,192,68379,1,0,0:0:0:0:
256,192,68475,1,0,0:0:0:0:
460,192,68475,128,2,68669:0:0:0:0:
51,192,68475,1,2,1:0:0:0:
358,192,68669,1,0,0:0:0:0:
153,192,68669,1,0,0:0:0:0:
256,192,68766,1,0,0:0:0:0:
358,192,68862,1,0,0:0:0:0:
51,192,68862,1,8,0:0:0:0:
460,192,68862,1,0,0:0:0:0:
460,192,69056,1,0,0:0:0:0:
153,192,69056,1,0,0:0:0:0:
358,192,69153,1,0,0:0:0:0:
460,192,69250,1,0,0:0:0:0:
51,192,69250,1,0,0:0:0:0:
256,192,69250,1,2,0:0:0:0:
153,192,69443,1,0,0:0:0:0:
460,192,69443,1,0,0:0:0:0:
256,192,69540,1,0,0:0:0:0:
51,192,69637,1,8,0:0:0:0:
460,192,69637,1,0,0:0:0:0:
153,192,69637,1,0,0:0:0:0:
51,192,69830,1,0,0:0:0:0:
358,192,69830,1,0,0:0:0:0:
256,192,69927,1,0,0:0:0:0:
460,192,70024,1,2,0:0:0:0:
153,192,70024,128,2,70217:1:0:0:0:
358,192,70024,1,0,0:0:0:0:
460,192,70217,1,0,0:0:0:0:
358,192,70217,1,0,0:0:0:0:
256,192,70314,1,0,0:0:0:0:
51,192,70411,1,8,0:0:0:0:
153,192,70411,1,0,0:0:0:0:
460,192,70411,1,0,0:0:0:0:
460,192,70604,1,0,0:0:0:0:
51,192,70604,1,0,0:0:0:0:
256,192,70701,1,0,0:0:0:0:
460,192,70798,1,2,0:0:0:0:
358,192,70798,1,4,0:0:0:0:
153,192,70798,1,0,0:0:0:0:
51,192,70798,1,0,0:0:0:0:
153,192,70991,1,0,0:0:0:0:
358,192,70991,1,0,0:0:0:0:
51,192,71088,1,0,0:0:0:0:
460,192,71088,1,0,0:0:0:0:
153,192,71185,1,8,0:0:0:0:
358,192,71185,1,0,0:0:0:0:
153,192,71379,1,0,0:0:0:0:
358,192,71379,1,0,0:0:0:0:
51,192,71475,1,0,0:0:0:0:
460,192,71475,1,0,0:0:0:0:
358,192,71572,1,2,0:0:0:0:
153,192,71572,1,4,0:0:0:0:
256,192,71572,128,0,71959:0:0:0:0:
460,192,71959,1,4,0:0:0:0:
51,192,71959,1,2,0:0:0:0:
358,192,71959,1,0,0:0:0:0:
153,192,71959,1,8,0:0:0:0:
51,192,72153,1,2,0:0:0:0:
153,192,72153,1,4,0:0:0:0:
358,192,72153,1,0,0:0:0:0:
256,192,72153,1,0,0:0:0:0:
51,192,72346,1,4,0:0:0:0:
153,192,72346,1,0,0:0:0:0:
460,192,72346,128,0,72733:0:0:0:0:
358,192,72346,1,2,0:0:0:0:
51,192,72540,1,0,0:0:0:0:
358,192,72540,1,0,0:0:0:0:
256,192,72637,1,0,0:0:0:0:
153,192,72733,1,8,0:0:0:0:
358,192,72733,128,0,73120:0:0:0:0:
51,192,72927,1,0,0:0:0:0:
460,192,72927,1,0,0:0:0:0:
256,192,73024,1,0,0:0:0:0:
51,192,73120,128,2,73508:1:0:0:0:
153,192,73120,1,4,0:0:0:0:
460,192,73120,1,2,0:0:0:0:
358,192,73314,1,0,0:0:0:0:
153,192,73314,1,0,0:0:0:0:
256,192,73411,1,0,0:0:0:0:
153,192,73508,128,0,73895:0:0:0:0:
460,192,73508,1,2,0:0:0:0:
358,192,73508,1,4,0:0:0:0:
358,192,73701,1,4,0:0:0:0:
460,192,73701,1,2,0:0:0:0:
51,192,73895,1,0,0:0:0:0:
256,192,73895,1,4,0:0:0:0:
460,192,73895,1,2,0:0:0:0:
358,192,73895,128,0,76991:0:0:0:0:
153,192,74088,1,0,0:0:0:0:
460,192,74088,1,0,0:0:0:0:
51,192,74185,1,0,0:0:0:0:
256,192,74185,1,0,0:0:0:0:
153,192,74282,1,0,0:0:0:0:
460,192,74282,1,0,0:0:0:0:
256,192,74475,1,0,0:0:0:0:
51,192,74475,1,0,0:0:0:0:
256,192,74669,1,2,0:0:0:0:
153,192,74669,1,4,0:0:0:0:
51,192,74669,1,0,0:0:0:0:
51,192,74862,1,0,0:0:0:0:
256,192,74862,1,0,0:0:0:0:
153,192,74959,1,0,0:0:0:0:
460,192,74959,1,0,0:0:0:0:
256,192,75056,1,0,0:0:0:0:
51,192,75056,1,0,0:0:0:0:
256,192,75250,1,0,0:0:0:0:
153,192,75250,1,0,0:0:0:0:
51,192,75443,1,4,0:0:0:0:
256,192,75443,1,2,0:0:0:0:
458,192,75443,1,0,0:0:0:0:
460,192,75637,1,0,0:0:0:0:
153,192,75637,1,0,0:0:0:0:
256,192,75733,1,0,0:0:0:0:
51,192,75733,1,0,0:0:0:0:
460,192,75830,1,0,0:0:0:0:
153,192,75830,1,0,0:0:0:0:
51,192,76024,1,0,0:0:0:0:
460,192,76024,1,0,0:0:0:0:
256,192,76120,1,0,0:0:0:0:
153,192,76217,128,0,76991:0:0:0:0:
460,192,76217,1,2,0:0:0:0:
51,192,76217,1,4,0:0:0:0:
51,192,76604,1,0,0:0:0:0:
256,192,76604,1,4,0:0:0:0:
460,192,76604,1,2,0:0:0:0:
51,192,76991,1,0,0:0:0:0:
256,192,76991,1,4,0:0:0:0:
460,192,76991,1,2,0:0:0:0:
256,192,77185,1,0,0:0:0:0:
358,192,77185,1,0,0:0:0:0:
460,192,77185,1,2,0:0:0:0:
358,192,77379,1,2,0:0:0:0:
153,192,77379,1,0,0:0:0:0:
256,192,77379,1,0,0:0:0:0:
51,192,77572,1,0,0:0:0:0:
153,192,77572,1,0,0:0:0:0:
256,192,77572,1,2,0:0:0:0:
153,192,77766,1,2,0:0:0:0:
51,192,77766,1,0,0:0:0:0:
358,192,77862,1,2,0:0:0:0:
460,192,77862,1,0,0:0:0:0:
51,192,77959,1,0,0:0:0:0:
153,192,77959,1,2,0:0:0:0:
358,192,78056,1,2,0:0:0:0:
460,192,78056,1,0,0:0:0:0:
153,192,78153,1,2,0:0:0:0:
51,192,78153,1,0,0:0:0:0:
256,192,78346,1,2,0:0:0:0:
153,192,78346,1,0,0:0:0:0:
358,192,78346,1,0,0:0:0:0:
51,192,78540,1,2,0:0:0:0:
460,192,78540,1,0,0:0:0:0:
256,192,78540,1,0,0:0:0:0:
51,192,78733,1,0,0:0:0:0:
153,192,78733,1,0,0:0:0:0:
358,192,78733,1,2,0:0:0:0:
153,192,78927,1,0,0:0:0:0:
358,192,78927,1,2,0:0:0:0:
460,192,78927,1,0,0:0:0:0:
51,192,79120,1,0,0:0:0:0:
256,192,79120,1,0,0:0:0:0:
460,192,79120,1,2,0:0:0:0:
460,192,79314,1,2,0:0:0:0:
51,192,79314,1,2,1:0:0:0:
358,192,79411,1,2,0:0:0:0:
153,192,79411,1,0,0:0:0:0:
460,192,79508,1,2,0:0:0:0:
51,192,79508,1,0,0:0:0:0:
256,192,79508,1,0,0:0:0:0:
358,192,79604,1,2,0:0:0:0:
153,192,79604,1,0,0:0:0:0:
460,192,79701,1,2,0:0:0:0:
51,192,79701,1,0,0:0:0:0:
256,192,79701,1,0,0:0:0:0:
358,192,79798,1,2,0:0:0:0:
153,192,79798,1,0,0:0:0:0:
460,192,79895,1,2,0:0:0:0:
51,192,79895,1,0,0:0:0:0:
256,192,79895,1,0,0:0:0:0:
153,192,79991,1,0,0:0:0:0:
358,192,79991,1,2,0:0:0:0:
256,192,80088,128,4,81637:0:0:0:0:
51,192,80088,128,0,81637:0:0:0:0:
460,192,80088,128,0,81637:0:0:0:0:
153,192,81637,128,0,83185:0:0:0:0:
358,192,81637,128,0,83185:0:0:0:0:
256,192,82411,128,2,83185:1:0:0:0:
51,192,83185,1,2,0:0:0:0:
153,192,83435,1,2,0:0:0:0:
256,192,83685,1,2,0:0:0:0:
51,192,83935,1,2,0:0:0:0:
460,192,84185,1,2,0:0:0:0:
358,192,84185,1,2,0:0:0:0:
51,192,84435,1,2,0:0:0:0:
256,192,84685,1,2,0:0:0:0:
460,192,84935,1,2,0:0:0:0:
358,192,85185,1,2,0:0:0:0:
153,192,85185,1,2,0:0:0:0:
51,192,85435,1,2,0:0:0:0:
256,192,85685,1,2,0:0:0:0:
51,192,85935,1,2,0:0:0:0:
153,192,86185,1,2,0:0:0:0:
358,192,86185,1,2,0:0:0:0:
51,192,86435,1,2,0:0:0:0:
256,192,86685,1,2,0:0:0:0:
460,192,86935,1,2,0:0:0:0:
256,192,87185,1,2,0:0:0:0:
358,192,87185,1,2,0:0:0:0:
51,192,87435,1,2,0:0:0:0:
153,192,87685,1,2,0:0:0:0:
256,192,87935,1,2,0:0:0:0:
358,192,88185,1,2,0:0:0:0:
153,192,88435,1,2,0:0:0:0:
51,192,88685,1,2,0:0:0:0:
256,192,88935,1,2,0:0:0:0:
358,192,89185,1,2,0:0:0:0:
51,192,89435,1,2,0:0:0:0:
256,192,89685,1,2,0:0:0:0:
153,192,89935,1,2,0:0:0:0:
460,192,90185,1,2,0:0:0:0:
358,192,90435,1,2,0:0:0:0:
256,192,90685,1,2,0:0:0:0:
153,192,90935,1,2,0:0:0:0:
51,192,91185,1,2,0:0:0:0:
256,192,91435,1,2,0:0:0:0:
153,192,91685,1,2,0:0:0:0:
460,192,91935,1,2,0:0:0:0:
256,192,92185,1,2,0:0:0:0:
51,192,92457,128,2,92809:0:0:0:0:
256,192,92809,128,2,93164:0:0:0:0:
460,192,93164,128,2,93592:0:0:0:0:
51,192,93592,1,2,0:0:0:0:
153,192,93687,1,2,0:0:0:0:
256,192,93782,128,2,101020:0:0:0:0:
