osu file format v11

[General]
AudioFilename: Utakata, Ai no Mahoroba.mp3
AudioLeadIn: 2500
PreviewTime: 54393
Countdown: 0
SampleSet: Soft
StackLeniency: 0.7
Mode: 0
LetterboxInBreaks: 0

[Editor]
DistanceSpacing: 1.2
BeatDivisor: 4
GridSize: 4

[Metadata]
Title:Utakata, Ai no Mahoroba
TitleUnicode:泡沫、哀のまほろば
Artist:senya
ArtistUnicode:senya
Creator:BeatofIke
Version:Normal
Source:Touhou
Tags:opening jonathanlfj th08 Imperishable Night Yuuhei Satellite Fujiwara Mokou Rewrite LoliSora Reach for the Moon Immortal Smoke
BeatmapID:188690
BeatmapSetID:60950

[Difficulty]
HPDrainRate:4
CircleSize:3
OverallDifficulty:4
ApproachRate:5
SliderMultiplier:1.2
SliderTickRate:1

[Events]
//Background and Video events
0,0,"Touhou BG.jpg"
Video,25,"Touhou Video.avi"
//Break Periods
2,14125,25322
2,79367,81059
//Storyboard Layer 0 (Background)
//Storyboard Layer 1 (Fail)
//Storyboard Layer 2 (Pass)
//Storyboard Layer 3 (Foreground)
//Storyboard Sound Samples
//Background Colour Transformations
3,100,163,162,255

[TimingPoints]
200,387.096774193548,4,2,0,60,1,0
14135,-100,4,2,1,60,0,0
38909,-100,4,2,2,70,0,0
50329,-100,4,2,0,70,0,0
54393,-100,4,2,2,75,0,1
64264,-100,4,2,0,75,0,1
66780,-100,4,2,2,75,0,1
79167,-100,4,2,1,60,0,0
82259,500,4,2,0,50,1,0
91259,631.578947368421,4,2,0,45,1,0
91890,769.230769230769,4,2,0,40,1,0
92274,789.473684210526,4,2,0,40,1,8
92668,705.882352941176,4,2,1,35,1,0

[Colours]
Combo1 : 231,165,218
Combo2 : 118,10,102
Combo3 : 170,170,255
Combo4 : 13,92,164
Combo5 : 64,0,128

[HitObjects]
416,120,200,6,0,B|356:152|308:100,1,120,2|0,0:0|0:0,2:2:0
256,52,780,1,2,2:2:0
204,100,974,2,0,B|156:152|96:120,1,120,0|2,0:0|0:0,2:2:0
96,264,1748,6,0,B|156:232|204:284,1,120,2|0,0:0|0:0,2:2:0
256,332,2329,1,2,2:2:0
308,284,2522,2,0,B|356:232|416:264,1,120,0|2,0:0|0:0,2:2:0
376,124,3296,6,0,B|256:124,1,120,2|0,0:0|0:0,2:2:0
204,76,3877,1,2,2:2:0
148,32,4070,2,0,B|28:32,1,120,0|2,0:0|0:0,2:2:0
28,176,4845,6,0,B|148:176,1,120,2|0,0:0|0:0,2:2:0
200,224,5425,1,2,2:2:0
256,268,5619,2,0,B|376:268,1,120,0|2,0:0|0:0,2:2:0
476,200,6393,5,4,2:2:0
408,100,6780,1,2,2:2:0
308,168,7167,1,0,2:2:0
256,60,7554,1,2,2:2:0
204,168,7941,5,4,2:2:0
104,100,8329,1,2,2:2:0
36,200,8716,1,0,2:2:0
136,268,9103,1,2,2:2:0
256,192,9490,12,4,12587,2:2:0
192,232,26522,6,0,B|124:232|104:300,2,120,2|0|0,0:0|0:0|0:0,2:2:0
256,304,27683,1,0,2:2:0
320,232,28070,2,0,B|388:232|408:300,2,120,2|0|0,0:0|0:0|0:0,2:2:0
256,160,29232,1,0,2:2:0
160,160,29619,6,0,B|96:160|96:160|56:120,1,120,2|0,0:0|0:0,2:2:0
104,36,30393,2,0,B|168:36|168:36|208:76,1,120,0|0,0:0|0:0,2:2:0
304,76,31167,2,0,B|344:36|344:36|408:36,1,120,2|0,0:0|0:0,2:2:0
456,120,31941,2,0,B|416:160|416:160|352:160,1,120,0|0,0:0|0:0,2:2:0
256,160,32716,5,2,2:2:0
176,216,33103,1,0,2:2:0
100,272,33490,2,0,B|144:328|208:304,1,120,0|0,0:2|0:2,2:2:0
305,304,34264,2,0,B|368:328|412:272,1,120,2|0,0:0|0:0,2:2:0
336,216,35038,1,0,2:2:0
256,160,35425,1,0,2:2:0
160,160,35812,5,2,2:2:0
88,96,36199,1,0,2:2:0
160,32,36587,1,0,2:2:0
352,32,37361,1,2,2:2:0
424,96,37748,1,2,2:2:0
352,160,38135,1,2,2:2:0
192,264,38909,6,0,B|148:252|148:252|124:284|84:288,1,120,4|8,0:0|0:0,2:2:0
72,192,39683,2,0,B|8:192,2,60,0|0|8,0:0|0:0|0:0,2:2:0
85,96,40458,2,0,B|124:100|148:132|148:132|192:120,1,120,4|8,0:0|0:0,2:2:0
239,119,41038,2,0,P|257:54|310:57,1,120
348,52,41619,1,8,2:2:0
432,96,42006,6,0,P|456:148|432:204,1,120,4|8,0:0|0:0,0:0:0
412,296,42780,2,0,P|360:272|304:296,1,120,0|8,0:0|0:0,0:0:0
208,296,43554,2,0,P|153:273|101:297,1,120,4|8,0:0|0:0,0:0:0
78,202,44329,2,0,P|56:148|80:96,1,120,4|8,0:0|0:0,0:0:0
112,60,44909,1,0,2:2:0
160,48,45103,5,4,2:2:0
256,48,45490,1,8,2:2:0
352,48,45877,2,0,B|412:48,2,60,0|0|8,0:0|0:0|0:0,2:2:0
352,144,46651,2,0,B|364:212|304:244,1,120,4|8,0:0|0:0,2:2:0
208,244,47425,2,0,B|148:212|160:144,1,120,0|8,0:0|0:0,2:2:0
208,60,48199,6,0,B|148:60,2,60,6|0|8,0:0|0:0|0:0,2:2:0
304,60,48974,2,0,B|364:60,2,60,2|0|8,0:0|0:0|0:0,2:2:0
328,152,49748,2,0,P|256:198|184:152,2,180,4|4|8,0:0|0:0|0:0,0:0:0
256,192,51296,12,4,52845,2:2:0
12,248,54393,6,0,B|68:284|124:248,1,120,4|8,0:2|0:0,2:2:0
200,304,55167,2,0,B|236:248|200:192,1,120,0|8,0:2|0:2,2:2:0
256,116,55941,2,0,B|200:80|144:116,1,120,2|8,0:2|0:2,2:2:0
68,60,56716,2,0,B|32:116|68:172,1,120,0|8,0:2|0:2,2:2:0
108,260,57490,6,0,B|156:284|156:284|180:260|216:260,1,120,2|8,0:0|0:0,2:2:0
256,288,58070,2,0,B|256:348,2,60,0|0|0,0:2|0:2|0:2,2:2:0
296,260,58651,2,0,B|332:260|356:284|356:284|404:260,1,120,8|0,0:0|0:0,2:2:0
472,192,59425,1,8,2:2:0
452,148,59619,1,0,2:2:0
432,104,59812,1,2,2:2:0
336,104,60199,1,10,2:2:0
256,48,60587,6,0,B|136:48,1,120,4|8,0:2|0:2,2:2:0
100,136,61361,2,0,B|40:136,2,60,0|0|8,0:2|0:2|0:2,2:2:0
196,136,62135,2,0,B|316:136,1,120,2|8,0:2|0:2,2:2:0
356,224,62909,2,0,B|416:224,2,60,2|0|8,0:2|0:2|0:2,2:2:0
340,320,63683,6,0,B|256:376|172:320,2,180,2|0|8,0:2|0:2|0:2,2:2:0
424,272,65232,1,0,2:2:0
476,192,65619,1,8,2:2:0
424,112,66006,1,2,2:2:0
328,132,66393,1,8,2:2:0
256,72,66780,5,4,2:2:0
184,132,67167,1,8,0:0:0
88,112,67554,1,0,0:0:0
36,192,67941,1,8,0:0:0
96,264,68329,2,0,B|160:244|208:292,1,120,2|8,0:0|0:0,0:0:0
304,292,69103,2,0,B|350:245|414:265,1,120,0|8,0:0|0:0,0:0:0
424,172,69877,5,2,0:0:0
376,88,70264,1,8,0:0:0
304,152,70651,1,0,0:0:0
256,68,71038,1,8,0:0:0
208,152,71425,1,2,0:0:0
136,88,71812,1,8,0:0:0
88,172,72200,2,0,B|40:284,1,120,2|8,0:0|0:0,0:0:0
112,344,72974,5,6,0:0:0
200,304,73361,1,8,0:0:0
256,228,73748,1,0,0:0:0
312,304,74135,1,8,0:0:0
400,344,74522,1,4,0:0:0
471,282,74909,2,0,B|424:172,2,120,8|4|8,0:0|0:0|0:0,0:0:0
256,192,76070,12,4,79167,2:2:0
416,120,82259,6,0,B|356:152|308:100,1,120,2|0,0:0|0:0,2:2:0
256,52,83009,1,0,2:2:0
204,100,83259,2,0,B|156:152|96:120,1,120,2|0,0:0|0:0,2:2:0
96,264,84259,6,0,B|156:232|204:284,1,120,2|0,0:0|0:0,2:2:0
256,332,85009,1,0,2:2:0
308,284,85259,2,0,B|356:232|416:264,1,120,2|0,0:0|0:0,2:2:0
256,192,86259,12,4,92668,0:0:0
