osu file format v12

[General]
AudioFilename: Senya- Tsuki Ni Murakumo Hana Ni Kaze.mp3
AudioLeadIn: 1500
PreviewTime: 75060
Countdown: 0
SampleSet: Normal
StackLeniency: 0.7
Mode: 1
LetterboxInBreaks: 0

[Editor]
Bookmarks: 14332,26332,37582,49207,63082,87082
DistanceSpacing: 1
BeatDivisor: 4
GridSize: 8

[Metadata]
Title:Tsuki ni Murakumo Hana ni Kaze (Short ver.)
TitleUnicode:月に叢雲華に風 (short ver.)
Artist:senya
ArtistUnicode:senya
Creator:Uchiha_sorayuki
Version:Oni
Source:Touhou
Tags:subterranean animism koishi komeji sister extra stage boss Yuuhei satellite memories phantasm taiko zun
BeatmapID:252981
BeatmapSetID:93880

[Difficulty]
HPDrainRate:5
CircleSize:4
OverallDifficulty:5
ApproachRate:5
SliderMultiplier:1.4
SliderTickRate:1

[Events]
//Background and Video events
0,0,"annoying bg lol.jpg",0,0
//Break Periods
//Storyboard Layer 0 (Background)
//Storyboard Layer 1 (Fail)
//Storyboard Layer 2 (Pass)
//Storyboard Layer 3 (Foreground)
//Storyboard Sound Samples
//Background Colour Transformations
3,100,163,162,255

[TimingPoints]
82,375,4,1,0,90,1,8
63082,-100,4,1,0,90,0,1
87082,-100,4,1,0,80,0,0

[HitObjects]
208,176,1582,1,0,0:0:0:0:
208,176,1957,1,8,0:0:0:0:
208,176,2332,1,0,0:0:0:0:
208,176,2519,1,0,0:0:0:0:
208,176,2707,1,8,0:0:0:0:
208,176,3082,1,0,0:0:0:0:
208,176,3269,1,0,0:0:0:0:
208,176,3457,1,8,0:0:0:0:
208,176,3644,1,0,0:0:0:0:
208,176,3832,1,0,0:0:0:0:
208,176,3925,1,0,0:0:0:0:
208,176,4019,1,8,0:0:0:0:
208,176,4207,1,0,0:0:0:0:
208,176,4300,1,0,0:0:0:0:
208,176,4394,1,0,0:0:0:0:
208,176,4582,1,8,0:0:0:0:
208,176,4957,1,0,0:0:0:0:
208,176,5144,1,0,0:0:0:0:
208,176,5332,1,8,0:0:0:0:
208,176,5613,1,8,0:0:0:0:
208,176,5894,1,0,0:0:0:0:
208,176,5988,1,0,0:0:0:0:
208,176,6082,1,8,0:0:0:0:
208,176,6363,1,8,0:0:0:0:
208,176,6644,1,0,0:0:0:0:
208,176,7019,1,0,0:0:0:0:
208,176,7207,1,8,0:0:0:0:
208,176,7394,1,8,0:0:0:0:
208,176,7582,1,0,0:0:0:0:
208,176,7769,1,8,0:0:0:0:
208,176,7863,1,8,0:0:0:0:
208,176,7957,1,0,0:0:0:0:
208,176,8144,1,8,0:0:0:0:
208,176,8332,1,0,0:0:0:0:
208,176,8519,1,8,0:0:0:0:
208,176,8707,1,0,0:0:0:0:
208,176,8894,1,8,0:0:0:0:
208,176,9082,1,0,0:0:0:0:
208,176,9175,1,0,0:0:0:0:
208,176,9269,1,8,0:0:0:0:
208,176,9457,1,8,0:0:0:0:
208,176,9832,1,0,0:0:0:0:
208,176,10019,1,0,0:0:0:0:
208,176,10207,1,8,0:0:0:0:
208,176,10394,1,0,0:0:0:0:
256,192,10582,12,0,13207,0:0:0:0:
224,176,13582,5,0,0:0:0:0:
224,176,13769,5,0,0:0:0:0:
224,176,13957,1,0,0:0:0:0:
224,176,14144,1,8,0:0:0:0:
224,176,14332,1,0,0:0:0:0:
224,176,14519,1,0,0:0:0:0:
224,176,14707,1,8,0:0:0:0:
224,176,14894,2,0,L|440:176,2,210
232,176,16394,1,8,0:0:0:0:
232,176,16769,1,8,0:0:0:0:
232,176,16957,1,8,0:0:0:0:
232,176,17144,1,0,0:0:0:0:
232,176,17332,1,8,0:0:0:0:
232,176,17519,1,0,0:0:0:0:
232,176,17707,1,0,0:0:0:0:
232,176,17894,1,8,0:0:0:0:
232,176,18269,1,0,0:0:0:0:
232,176,18457,1,8,0:0:0:0:
232,176,18644,1,0,0:0:0:0:
232,176,18832,1,0,0:0:0:0:
232,176,18925,1,0,0:0:0:0:
232,176,19019,1,0,0:0:0:0:
232,176,19207,1,8,0:0:0:0:
232,176,19582,1,0,0:0:0:0:
232,176,19769,1,0,0:0:0:0:
232,176,19957,1,0,0:0:0:0:
232,176,20144,1,8,0:0:0:0:
232,176,20519,1,0,0:0:0:0:
232,176,20707,1,0,0:0:0:0:
232,176,20894,1,8,0:0:0:0:
232,176,21269,1,0,0:0:0:0:
232,176,21644,1,8,0:0:0:0:
232,176,21738,1,8,0:0:0:0:
232,176,21832,1,0,0:0:0:0:
232,176,22019,1,8,0:0:0:0:
232,176,22207,1,0,0:0:0:0:
232,176,22394,1,8,0:0:0:0:
232,176,22582,1,8,0:0:0:0:
232,176,22675,1,8,0:0:0:0:
232,176,22769,1,0,0:0:0:0:
232,176,22863,1,0,0:0:0:0:
232,176,22957,1,0,0:0:0:0:
232,176,23050,1,0,0:0:0:0:
232,176,23144,1,8,0:0:0:0:
232,176,23519,1,0,0:0:0:0:
232,176,23894,1,0,0:0:0:0:
232,176,24082,1,8,0:0:0:0:
232,176,24175,1,8,0:0:0:0:
232,176,24269,1,0,0:0:0:0:
232,176,24363,1,0,0:0:0:0:
232,176,24457,1,0,0:0:0:0:
232,176,24550,1,0,0:0:0:0:
232,176,24644,1,8,0:0:0:0:
232,176,24738,1,8,0:0:0:0:
232,176,24832,1,0,0:0:0:0:
232,176,24925,1,0,0:0:0:0:
232,176,25019,1,0,0:0:0:0:
232,176,25113,1,0,0:0:0:0:
232,176,25207,1,8,0:0:0:0:
232,176,25582,1,8,0:0:0:0:
232,176,25957,1,0,0:0:0:0:
232,176,26144,1,0,0:0:0:0:
232,176,26332,1,8,0:0:0:0:
232,176,26519,1,0,0:0:0:0:
232,176,26707,1,0,0:0:0:0:
232,176,27082,1,8,0:0:0:0:
232,176,27269,1,0,0:0:0:0:
232,176,27457,1,8,0:0:0:0:
232,176,27550,1,8,0:0:0:0:
232,176,27644,1,0,0:0:0:0:
232,176,28207,1,8,0:0:0:0:
232,176,28394,1,0,0:0:0:0:
232,176,28582,1,8,0:0:0:0:
232,176,28675,1,0,0:0:0:0:
232,176,28769,1,0,0:0:0:0:
232,176,28863,1,0,0:0:0:0:
232,176,28957,1,8,0:0:0:0:
232,176,29144,1,0,0:0:0:0:
232,176,29332,1,8,0:0:0:0:
232,176,29519,1,0,0:0:0:0:
232,176,29707,1,8,0:0:0:0:
232,176,29894,1,0,0:0:0:0:
232,176,30082,1,0,0:0:0:0:
232,176,30269,1,8,0:0:0:0:
232,176,30363,1,8,0:0:0:0:
232,176,30457,1,8,0:0:0:0:
232,176,30644,1,0,0:0:0:0:
232,176,31207,1,0,0:0:0:0:
232,176,31394,1,0,0:0:0:0:
232,176,31582,1,8,0:0:0:0:
232,176,31769,1,0,0:0:0:0:
232,176,31957,1,0,0:0:0:0:
232,176,32144,1,8,0:0:0:0:
232,176,32519,1,0,0:0:0:0:
232,176,32707,1,8,0:0:0:0:
232,176,33082,1,8,0:0:0:0:
232,176,33269,1,0,0:0:0:0:
232,176,33457,1,0,0:0:0:0:
232,176,33644,1,0,0:0:0:0:
232,176,33832,1,8,0:0:0:0:
232,176,34019,1,0,0:0:0:0:
232,176,34207,1,8,0:0:0:0:
232,176,34394,1,0,0:0:0:0:
232,176,34582,1,0,0:0:0:0:
232,176,34675,1,0,0:0:0:0:
232,176,34769,1,0,0:0:0:0:
232,176,34957,1,8,0:0:0:0:
232,176,35144,1,0,0:0:0:0:
232,176,35519,1,0,0:0:0:0:
232,176,35707,1,8,0:0:0:0:
232,176,35894,1,0,0:0:0:0:
232,176,36082,1,8,0:0:0:0:
232,176,36175,1,0,0:0:0:0:
232,176,36269,1,0,0:0:0:0:
232,176,36363,1,0,0:0:0:0:
232,176,36457,1,8,0:0:0:0:
232,176,36644,1,0,0:0:0:0:
232,176,36832,1,8,0:0:0:0:
232,176,37019,1,0,0:0:0:0:
232,176,37207,1,8,0:0:0:0:
232,176,37300,1,8,0:0:0:0:
232,176,37394,1,8,0:0:0:0:
232,176,37488,1,8,0:0:0:0:
232,176,37582,1,0,0:0:0:0:
232,176,37769,1,0,0:0:0:0:
232,176,37957,1,8,0:0:0:0:
232,176,38144,1,0,0:0:0:0:
232,176,38332,1,0,0:0:0:0:
232,176,38519,1,0,0:0:0:0:
232,176,38707,1,8,0:0:0:0:
232,176,38894,1,0,0:0:0:0:
232,176,39082,1,8,0:0:0:0:
232,176,39175,1,0,0:0:0:0:
232,176,39269,1,0,0:0:0:0:
232,176,39363,1,0,0:0:0:0:
232,176,39457,1,8,0:0:0:0:
232,176,39644,1,0,0:0:0:0:
232,176,40019,1,8,0:0:0:0:
232,176,40207,1,8,0:0:0:0:
232,176,40582,1,0,0:0:0:0:
232,176,40675,1,0,0:0:0:0:
232,176,40769,1,0,0:0:0:0:
232,176,40957,1,0,0:0:0:0:
232,176,41144,1,8,0:0:0:0:
232,176,41332,1,0,0:0:0:0:
232,176,41519,1,8,0:0:0:0:
232,176,41707,1,8,0:0:0:0:
232,176,42082,1,8,0:0:0:0:
232,176,42175,1,8,0:0:0:0:
232,176,42269,1,0,0:0:0:0:
232,176,42457,1,0,0:0:0:0:
232,176,42550,1,0,0:0:0:0:
232,176,42644,1,8,0:0:0:0:
232,176,42832,1,8,0:0:0:0:
232,176,43207,1,0,0:0:0:0:
232,176,43394,1,0,0:0:0:0:
232,176,43582,1,0,0:0:0:0:
232,176,43675,1,0,0:0:0:0:
232,176,43769,1,8,0:0:0:0:
232,176,43863,1,0,0:0:0:0:
232,176,43957,1,0,0:0:0:0:
232,176,44144,1,0,0:0:0:0:
232,176,44332,1,8,0:0:0:0:
232,176,44613,1,0,0:0:0:0:
232,176,44707,1,0,0:0:0:0:
232,176,44894,1,8,0:0:0:0:
232,176,45082,1,0,0:0:0:0:
232,176,45269,1,0,0:0:0:0:
232,176,45363,1,0,0:0:0:0:
232,176,45457,1,0,0:0:0:0:
232,176,45644,1,0,0:0:0:0:
232,176,45832,1,8,0:0:0:0:
232,176,46019,1,0,0:0:0:0:
232,176,46207,1,8,0:0:0:0:
232,176,46300,1,8,0:0:0:0:
232,176,46394,1,0,0:0:0:0:
232,176,46582,1,8,0:0:0:0:
232,176,46769,1,0,0:0:0:0:
232,176,46957,1,0,0:0:0:0:
232,176,47144,1,8,0:0:0:0:
232,176,47519,1,0,0:0:0:0:
232,176,47707,1,8,0:0:0:0:
232,176,47894,1,0,0:0:0:0:
232,176,48082,1,0,0:0:0:0:
232,176,48175,1,0,0:0:0:0:
232,176,48269,1,8,0:0:0:0:
232,176,48363,1,0,0:0:0:0:
232,176,48457,1,8,0:0:0:0:
232,176,48644,1,0,0:0:0:0:
232,176,48832,1,8,0:0:0:0:
232,176,49019,1,0,0:0:0:0:
232,176,49207,1,8,0:0:0:0:
232,176,49300,1,8,0:0:0:0:
232,176,49394,1,8,0:0:0:0:
232,176,49488,1,8,0:0:0:0:
232,176,49582,1,0,0:0:0:0:
232,176,50144,1,4,0:0:0:0:
232,176,50332,1,0,0:0:0:0:
232,176,50519,1,0,0:0:0:0:
232,176,50707,1,8,0:0:0:0:
232,176,50894,1,0,0:0:0:0:
232,176,51269,1,0,0:0:0:0:
232,176,51644,1,0,0:0:0:0:
232,176,51738,1,0,0:0:0:0:
232,176,51832,1,0,0:0:0:0:
232,176,52019,1,0,0:0:0:0:
232,176,52207,1,8,0:0:0:0:
232,176,52394,1,8,0:0:0:0:
232,176,52582,1,4,0:0:0:0:
232,176,52957,1,0,0:0:0:0:
232,176,53144,1,8,0:0:0:0:
232,176,53519,1,0,0:0:0:0:
232,176,53707,1,0,0:0:0:0:
232,176,53894,1,8,0:0:0:0:
232,176,54269,1,0,0:0:0:0:
232,176,54644,1,0,0:0:0:0:
232,176,54738,1,0,0:0:0:0:
232,176,54832,1,0,0:0:0:0:
232,176,55019,1,0,0:0:0:0:
232,176,55207,1,8,0:0:0:0:
232,176,55300,1,0,0:0:0:0:
232,176,55394,1,0,0:0:0:0:
232,176,55582,1,12,0:0:0:0:
232,176,55957,1,0,0:0:0:0:
232,176,56144,1,8,0:0:0:0:
232,176,56519,1,0,0:0:0:0:
232,176,56707,1,8,0:0:0:0:
232,176,56894,1,8,0:0:0:0:
232,176,57269,1,4,0:0:0:0:
232,176,57644,1,0,0:0:0:0:
232,176,57738,1,0,0:0:0:0:
232,176,57832,1,0,0:0:0:0:
232,176,58019,1,0,0:0:0:0:
232,176,58207,1,8,0:0:0:0:
232,176,58394,1,8,0:0:0:0:
232,176,58582,1,0,0:0:0:0:
232,176,58675,1,0,0:0:0:0:
232,176,58769,1,0,0:0:0:0:
232,176,58863,1,0,0:0:0:0:
232,176,58957,1,8,0:0:0:0:
232,176,59144,1,0,0:0:0:0:
232,176,59332,1,8,0:0:0:0:
232,176,59425,1,8,0:0:0:0:
232,176,59519,1,0,0:0:0:0:
232,176,59613,1,0,0:0:0:0:
232,176,59707,1,8,0:0:0:0:
232,176,59800,1,0,0:0:0:0:
232,176,59894,1,8,0:0:0:0:
232,176,60082,1,0,0:0:0:0:
232,176,60269,1,0,0:0:0:0:
232,176,60457,1,8,0:0:0:0:
232,176,60644,1,0,0:0:0:0:
232,176,60832,1,8,0:0:0:0:
232,176,61019,1,8,0:0:0:0:
232,176,61207,1,8,0:0:0:0:
232,176,61300,1,8,0:0:0:0:
232,176,61394,1,8,0:0:0:0:
232,176,61582,1,4,0:0:0:0:
232,176,61957,1,4,0:0:0:0:
232,176,62332,1,4,0:0:0:0:
232,176,62707,1,4,0:0:0:0:
232,176,63082,1,4,0:0:0:0:
232,176,63269,1,0,0:0:0:0:
232,176,63457,1,8,0:0:0:0:
232,176,63644,1,0,0:0:0:0:
232,176,63832,1,0,0:0:0:0:
232,176,64207,1,8,0:0:0:0:
232,176,64582,1,0,0:0:0:0:
232,176,64769,1,0,0:0:0:0:
232,176,64957,1,8,0:0:0:0:
232,176,65144,1,0,0:0:0:0:
232,176,65332,1,0,0:0:0:0:
232,176,65425,1,0,0:0:0:0:
232,176,65519,1,8,0:0:0:0:
232,176,65707,1,0,0:0:0:0:
232,176,65800,1,0,0:0:0:0:
232,176,65894,1,0,0:0:0:0:
232,176,66082,1,8,0:0:0:0:
232,176,66457,1,0,0:0:0:0:
232,176,66644,1,0,0:0:0:0:
232,176,66832,1,8,0:0:0:0:
232,176,67113,1,8,0:0:0:0:
232,176,67394,1,0,0:0:0:0:
232,176,67488,1,0,0:0:0:0:
232,176,67582,1,8,0:0:0:0:
232,176,67863,1,8,0:0:0:0:
232,176,68144,1,0,0:0:0:0:
232,176,68707,1,0,0:0:0:0:
232,176,68894,1,0,0:0:0:0:
232,176,69082,1,8,0:0:0:0:
232,176,69175,1,8,0:0:0:0:
232,176,69269,1,0,0:0:0:0:
232,176,69363,1,0,0:0:0:0:
232,176,69457,1,8,0:0:0:0:
232,176,69644,1,0,0:0:0:0:
232,176,69832,1,8,0:0:0:0:
232,176,70019,1,0,0:0:0:0:
232,176,70207,1,0,0:0:0:0:
232,176,70394,1,8,0:0:0:0:
232,176,70582,1,0,0:0:0:0:
232,176,70675,1,0,0:0:0:0:
232,176,70769,1,0,0:0:0:0:
232,176,70957,1,8,0:0:0:0:
232,176,71519,1,8,0:0:0:0:
232,176,71707,1,0,0:0:0:0:
232,176,71894,1,8,0:0:0:0:
232,176,72082,1,0,0:0:0:0:
232,176,72269,1,0,0:0:0:0:
232,176,72457,1,8,0:0:0:0:
232,176,72644,1,0,0:0:0:0:
232,176,72738,1,0,0:0:0:0:
232,176,72832,1,0,0:0:0:0:
232,176,73019,1,0,0:0:0:0:
232,176,73113,1,0,0:0:0:0:
232,176,73207,1,8,0:0:0:0:
232,176,73394,1,0,0:0:0:0:
232,176,73582,1,0,0:0:0:0:
232,176,73769,1,8,0:0:0:0:
232,176,73957,1,8,0:0:0:0:
232,176,74144,1,0,0:0:0:0:
232,176,74332,1,0,0:0:0:0:
232,176,74425,1,0,0:0:0:0:
232,176,74519,1,8,0:0:0:0:
232,176,74613,1,8,0:0:0:0:
232,176,74707,1,0,0:0:0:0:
232,176,74800,1,0,0:0:0:0:
232,176,74894,1,8,0:0:0:0:
232,176,74988,1,0,0:0:0:0:
232,176,75082,1,8,0:0:0:0:
232,176,75457,1,0,0:0:0:0:
232,176,75832,1,0,0:0:0:0:
232,176,76019,1,0,0:0:0:0:
232,176,76207,1,8,0:0:0:0:
208,176,76582,1,0,0:0:0:0:
208,176,76769,1,0,0:0:0:0:
208,176,76957,1,8,0:0:0:0:
208,176,77144,1,0,0:0:0:0:
208,176,77332,1,0,0:0:0:0:
208,176,77425,1,0,0:0:0:0:
208,176,77519,1,8,0:0:0:0:
208,176,77707,1,8,0:0:0:0:
208,176,77800,1,8,0:0:0:0:
208,176,77894,1,0,0:0:0:0:
208,176,78082,1,8,0:0:0:0:
208,176,78457,1,0,0:0:0:0:
208,176,78644,1,0,0:0:0:0:
208,176,78832,1,8,0:0:0:0:
208,176,79113,1,8,0:0:0:0:
208,176,79394,1,0,0:0:0:0:
208,176,79488,1,0,0:0:0:0:
208,176,79582,1,8,0:0:0:0:
208,176,79863,1,8,0:0:0:0:
208,176,80144,1,0,0:0:0:0:
208,176,80519,1,0,0:0:0:0:
208,176,80613,1,0,0:0:0:0:
208,176,80707,1,0,0:0:0:0:
232,176,81082,1,0,0:0:0:0:
232,176,81269,1,0,0:0:0:0:
232,176,81457,1,0,0:0:0:0:
232,176,81550,1,0,0:0:0:0:
232,176,81644,1,8,0:0:0:0:
232,176,81832,1,0,0:0:0:0:
232,176,82019,1,8,0:0:0:0:
232,176,82207,1,8,0:0:0:0:
232,176,82394,1,0,0:0:0:0:
232,176,82582,1,8,0:0:0:0:
232,176,82675,1,0,0:0:0:0:
232,176,82769,1,0,0:0:0:0:
232,176,82863,1,0,0:0:0:0:
232,176,82957,1,8,0:0:0:0:
232,176,83332,1,0,0:0:0:0:
232,176,83519,1,8,0:0:0:0:
232,176,83707,1,0,0:0:0:0:
232,176,83894,1,0,0:0:0:0:
232,176,84082,1,0,0:0:0:0:
232,176,84175,1,0,0:0:0:0:
232,176,84269,1,0,0:0:0:0:
232,176,84457,1,8,0:0:0:0:
232,176,84644,1,0,0:0:0:0:
232,176,84738,1,0,0:0:0:0:
232,176,84832,1,8,0:0:0:0:
232,176,85019,1,0,0:0:0:0:
232,176,85207,1,8,0:0:0:0:
232,176,85394,1,0,0:0:0:0:
232,176,85582,1,0,0:0:0:0:
232,176,85675,1,0,0:0:0:0:
232,176,85769,1,8,0:0:0:0:
232,176,85863,1,0,0:0:0:0:
232,176,85957,1,8,0:0:0:0:
232,176,86050,1,0,0:0:0:0:
232,176,86144,1,0,0:0:0:0:
232,176,86238,1,0,0:0:0:0:
232,176,86332,1,8,0:0:0:0:
232,176,86425,1,8,0:0:0:0:
232,176,86519,1,8,0:0:0:0:
232,176,86613,1,0,0:0:0:0:
232,176,86707,1,8,0:0:0:0:
232,176,86800,1,0,0:0:0:0:
232,176,86894,1,8,0:0:0:0:
232,176,86988,1,8,0:0:0:0:
232,176,87082,1,0,0:0:0:0:
232,176,87457,1,0,0:0:0:0:
232,176,87832,1,8,0:0:0:0:
232,176,88019,1,0,0:0:0:0:
232,176,88207,1,0,0:0:0:0:
232,176,88394,1,0,0:0:0:0:
232,176,88582,1,8,0:0:0:0:
232,176,88863,1,0,0:0:0:0:
232,176,89144,1,0,0:0:0:0:
232,176,89519,1,8,0:0:0:0:
232,176,89613,1,8,0:0:0:0:
232,176,89707,1,0,0:0:0:0:
232,176,90082,1,0,0:0:0:0:
232,176,90269,1,0,0:0:0:0:
232,176,90457,1,8,0:0:0:0:
232,176,90644,1,0,0:0:0:0:
232,176,90832,1,0,0:0:0:0:
232,176,91113,1,0,0:0:0:0:
232,176,91394,1,0,0:0:0:0:
232,176,91582,1,8,0:0:0:0:
232,176,91863,1,0,0:0:0:0:
232,176,92144,1,0,0:0:0:0:
232,176,92519,1,0,0:0:0:0:
232,176,92613,1,0,0:0:0:0:
232,176,92707,1,0,0:0:0:0:
232,176,93082,1,0,0:0:0:0:
232,176,93269,1,0,0:0:0:0:
232,176,93457,1,0,0:0:0:0:
232,176,93644,1,8,0:0:0:0:
232,176,94019,1,0,0:0:0:0:
232,176,94207,1,0,0:0:0:0:
232,176,94394,1,0,0:0:0:0:
232,176,94582,1,8,0:0:0:0:
232,176,94769,1,0,0:0:0:0:
232,176,94957,1,8,0:0:0:0:
232,176,95050,1,8,0:0:0:0:
232,176,95144,1,0,0:0:0:0:
232,176,95519,1,0,0:0:0:0:
232,176,95707,1,8,0:0:0:0:
232,176,95894,1,0,0:0:0:0:
232,176,96082,1,0,0:0:0:0:
