osu file format v12

[General]
AudioFilename: Senya- Tsuki Ni Murakumo Hana Ni Kaze.mp3
AudioLeadIn: 1511
PreviewTime: 75060
Countdown: 0
SampleSet: Normal
StackLeniency: 0.7
Mode: 1
LetterboxInBreaks: 0

[Editor]
Bookmarks: 14332,26332,37582,49207,63082,75082,87082
DistanceSpacing: 1
BeatDivisor: 4
GridSize: 8

[Metadata]
Title:Tsuki ni Murakumo Hana ni Kaze (Short ver.)
TitleUnicode:月に叢雲華に風 (Short ver.)
Artist:senya
ArtistUnicode:senya
Creator:Uchiha_sorayuki
Version:Muzukashii
Source:Touhou
Tags:subterranean animism koishi komeji sister extra stage boss Yuuhei satellite memories phantasm taiko zun
BeatmapID:252980
BeatmapSetID:93880

[Difficulty]
HPDrainRate:4
CircleSize:4
OverallDifficulty:4
ApproachRate:3
SliderMultiplier:1.4
SliderTickRate:1

[Events]
//Background and Video events
0,0,"annoying bg lol.jpg",0,0
//Break Periods
//Storyboard Layer 0 (Background)
//Storyboard Layer 1 (Fail)
//Storyboard Layer 2 (Pass)
//Storyboard Layer 3 (Foreground)
//Storyboard Sound Samples
//Background Colour Transformations
3,100,163,162,255

[TimingPoints]
82,375,4,1,0,90,1,0
63082,-100,4,1,0,90,0,1
87082,-100,4,1,0,80,0,0

[HitObjects]
168,192,1582,1,0,0:0:0:0:
168,192,1769,1,0,0:0:0:0:
168,192,1957,1,8,0:0:0:0:
168,192,2144,1,0,0:0:0:0:
168,192,2332,1,0,0:0:0:0:
168,192,2707,1,0,0:0:0:0:
168,192,3082,1,8,0:0:0:0:
168,192,3363,1,0,0:0:0:0:
168,192,3644,1,0,0:0:0:0:
168,192,4019,1,8,0:0:0:0:
168,192,4207,1,0,0:0:0:0:
168,192,4582,1,0,0:0:0:0:
168,192,4769,1,0,0:0:0:0:
168,192,4957,1,8,0:0:0:0:
168,192,5144,1,0,0:0:0:0:
168,192,5332,1,0,0:0:0:0:
168,192,5707,1,0,0:0:0:0:
168,192,6082,1,8,0:0:0:0:
168,192,6363,1,0,0:0:0:0:
168,192,6644,1,0,0:0:0:0:
168,192,7019,1,0,0:0:0:0:
168,192,7207,1,8,0:0:0:0:
168,192,7582,1,0,0:0:0:0:
168,192,7957,1,0,0:0:0:0:
168,192,8144,1,8,0:0:0:0:
168,192,8519,1,8,0:0:0:0:
168,192,8707,1,8,0:0:0:0:
168,192,8894,1,0,0:0:0:0:
168,192,9082,1,0,0:0:0:0:
168,192,9269,1,0,0:0:0:0:
168,192,9457,1,8,0:0:0:0:
168,192,10019,1,0,0:0:0:0:
168,192,10207,1,8,0:0:0:0:
168,192,10394,1,0,0:0:0:0:
256,192,10582,12,0,13207,0:0:0:0:
240,160,13582,5,0,0:0:0:0:
240,160,13769,1,0,0:0:0:0:
240,160,13957,1,0,0:0:0:0:
240,160,14144,1,8,0:0:0:0:
240,160,14519,1,0,0:0:0:0:
128,256,14894,2,0,L|408:264,2,280
184,176,16769,1,0,0:0:0:0:
184,176,16957,1,0,0:0:0:0:
184,176,17144,1,8,0:0:0:0:
184,176,17332,1,0,0:0:0:0:
184,176,17707,1,0,0:0:0:0:
184,176,17894,1,0,0:0:0:0:
184,176,18269,1,0,0:0:0:0:
184,176,18644,1,0,0:0:0:0:
184,176,18832,1,8,0:0:0:0:
184,176,18925,1,0,0:0:0:0:
184,176,19207,1,8,0:0:0:0:
184,176,19394,1,0,0:0:0:0:
184,176,19582,1,8,0:0:0:0:
184,176,19957,1,0,0:0:0:0:
184,176,20144,1,8,0:0:0:0:
184,176,20332,1,0,0:0:0:0:
184,176,20519,1,0,0:0:0:0:
184,176,20707,1,8,0:0:0:0:
184,176,21082,1,0,0:0:0:0:
184,176,21457,1,8,0:0:0:0:
184,176,21832,1,0,0:0:0:0:
184,176,22207,1,0,0:0:0:0:
184,176,22582,1,4,0:0:0:0:
184,176,22957,1,0,0:0:0:0:
184,176,23050,1,0,0:0:0:0:
184,176,23144,1,0,0:0:0:0:
184,176,23519,1,0,0:0:0:0:
184,176,23894,1,0,0:0:0:0:
184,176,24082,1,8,0:0:0:0:
184,176,24269,1,0,0:0:0:0:
184,176,24457,1,8,0:0:0:0:
184,176,24644,1,0,0:0:0:0:
184,176,24738,1,0,0:0:0:0:
184,176,24832,1,0,0:0:0:0:
184,176,25019,1,8,0:0:0:0:
184,176,25113,1,8,0:0:0:0:
184,176,25207,1,8,0:0:0:0:
184,176,25394,1,0,0:0:0:0:
184,176,25582,1,12,0:0:0:0:
184,176,26332,1,0,0:0:0:0:
184,176,27082,1,0,0:0:0:0:
184,176,27269,1,0,0:0:0:0:
184,176,27457,1,8,0:0:0:0:
184,176,27644,1,0,0:0:0:0:
184,176,28207,1,8,0:0:0:0:
184,176,28394,1,0,0:0:0:0:
184,176,28582,1,0,0:0:0:0:
184,176,28957,1,0,0:0:0:0:
184,176,29144,1,8,0:0:0:0:
184,176,29707,1,0,0:0:0:0:
184,176,30082,1,0,0:0:0:0:
184,176,30269,1,0,0:0:0:0:
184,176,30457,1,8,0:0:0:0:
184,176,30644,1,0,0:0:0:0:
184,176,31207,1,0,0:0:0:0:
184,176,31394,1,8,0:0:0:0:
184,176,31582,1,0,0:0:0:0:
184,176,31957,1,0,0:0:0:0:
184,176,32144,1,8,0:0:0:0:
184,176,32707,1,0,0:0:0:0:
184,176,33082,1,8,0:0:0:0:
184,176,33457,1,8,0:0:0:0:
184,176,33832,1,0,0:0:0:0:
184,176,34207,1,8,0:0:0:0:
184,176,34582,1,0,0:0:0:0:
184,176,34769,1,0,0:0:0:0:
184,176,34957,1,8,0:0:0:0:
184,176,35144,1,0,0:0:0:0:
184,176,35519,1,0,0:0:0:0:
184,176,35707,1,8,0:0:0:0:
184,176,36082,1,0,0:0:0:0:
184,176,36457,1,8,0:0:0:0:
184,176,36832,1,0,0:0:0:0:
184,176,37019,1,8,0:0:0:0:
184,176,37113,1,8,0:0:0:0:
184,176,37207,1,8,0:0:0:0:
184,176,37582,1,0,0:0:0:0:
184,176,37769,1,0,0:0:0:0:
184,176,37957,1,8,0:0:0:0:
184,176,38144,1,0,0:0:0:0:
184,176,38332,1,0,0:0:0:0:
184,176,38519,1,8,0:0:0:0:
184,176,38707,1,0,0:0:0:0:
184,176,39082,1,0,0:0:0:0:
184,176,39269,1,8,0:0:0:0:
184,176,39457,1,8,0:0:0:0:
184,176,39644,1,0,0:0:0:0:
184,176,40019,1,8,0:0:0:0:
184,176,40207,1,0,0:0:0:0:
184,176,40394,1,0,0:0:0:0:
184,176,40582,1,8,0:0:0:0:
184,176,40769,1,8,0:0:0:0:
184,176,40957,1,0,0:0:0:0:
184,176,41144,1,0,0:0:0:0:
184,176,41332,1,8,0:0:0:0:
184,176,41519,1,0,0:0:0:0:
184,176,41707,1,8,0:0:0:0:
184,176,42082,1,0,0:0:0:0:
184,176,42269,1,0,0:0:0:0:
184,176,42457,1,8,0:0:0:0:
184,176,42644,1,8,0:0:0:0:
184,176,42832,1,8,0:0:0:0:
184,176,43207,1,0,0:0:0:0:
184,176,43394,1,0,0:0:0:0:
184,176,43582,1,8,0:0:0:0:
184,176,43769,1,8,0:0:0:0:
184,176,43957,1,0,0:0:0:0:
184,176,44144,1,8,0:0:0:0:
184,176,44332,1,8,0:0:0:0:
184,176,44707,1,0,0:0:0:0:
184,176,44894,1,8,0:0:0:0:
184,176,45269,1,8,0:0:0:0:
184,176,45457,1,8,0:0:0:0:
184,176,45832,1,8,0:0:0:0:
184,176,46019,1,8,0:0:0:0:
184,176,46207,1,0,0:0:0:0:
184,176,46394,1,0,0:0:0:0:
256,192,46582,12,0,49207,0:0:0:0:
192,176,49582,5,0,0:0:0:0:
192,176,49957,1,0,0:0:0:0:
192,176,50144,1,8,0:0:0:0:
192,176,50519,1,0,0:0:0:0:
192,176,50707,1,8,0:0:0:0:
192,176,50894,1,0,0:0:0:0:
192,176,51269,1,0,0:0:0:0:
192,176,51644,1,8,0:0:0:0:
192,176,51832,1,0,0:0:0:0:
192,176,52019,1,0,0:0:0:0:
192,176,52207,1,8,0:0:0:0:
192,176,52394,1,0,0:0:0:0:
192,176,52582,1,0,0:0:0:0:
192,176,52957,1,0,0:0:0:0:
192,176,53144,1,8,0:0:0:0:
192,176,53519,1,0,0:0:0:0:
192,176,53707,1,0,0:0:0:0:
192,176,53894,1,8,0:0:0:0:
192,176,54269,1,0,0:0:0:0:
192,176,54644,1,8,0:0:0:0:
192,176,54832,1,0,0:0:0:0:
192,176,55019,1,0,0:0:0:0:
192,176,55207,1,8,0:0:0:0:
192,176,55394,1,0,0:0:0:0:
192,176,55582,1,8,0:0:0:0:
192,176,55957,1,0,0:0:0:0:
192,176,56144,1,0,0:0:0:0:
192,176,56519,1,0,0:0:0:0:
192,176,56707,1,8,0:0:0:0:
192,176,56894,1,0,0:0:0:0:
192,176,57269,1,0,0:0:0:0:
192,176,57644,1,8,0:0:0:0:
192,176,57832,1,0,0:0:0:0:
192,176,58019,1,0,0:0:0:0:
192,176,58207,1,8,0:0:0:0:
192,176,58394,1,8,0:0:0:0:
192,176,58582,1,0,0:0:0:0:
192,176,58863,1,0,0:0:0:0:
192,176,59144,1,0,0:0:0:0:
192,176,59332,1,8,0:0:0:0:
192,176,59613,1,0,0:0:0:0:
192,176,59894,1,8,0:0:0:0:
192,176,60082,1,0,0:0:0:0:
192,176,60457,1,8,0:0:0:0:
192,176,60644,1,0,0:0:0:0:
192,176,60832,1,8,0:0:0:0:
192,176,61019,1,0,0:0:0:0:
192,176,61207,1,8,0:0:0:0:
192,176,61300,1,8,0:0:0:0:
192,176,61394,1,8,0:0:0:0:
192,176,61582,1,4,0:0:0:0:
192,176,61957,1,0,0:0:0:0:
192,176,62332,1,8,0:0:0:0:
192,176,62707,1,8,0:0:0:0:
192,176,63082,1,4,0:0:0:0:
192,176,63269,1,0,0:0:0:0:
192,176,63457,1,8,0:0:0:0:
192,176,63644,1,0,0:0:0:0:
192,176,63832,1,0,0:0:0:0:
192,176,64207,1,8,0:0:0:0:
192,176,64582,1,0,0:0:0:0:
192,176,64769,1,0,0:0:0:0:
192,176,64957,1,8,0:0:0:0:
192,176,65144,1,0,0:0:0:0:
192,176,65238,1,0,0:0:0:0:
192,176,65332,1,0,0:0:0:0:
192,176,65519,1,0,0:0:0:0:
192,176,65707,1,8,0:0:0:0:
192,176,66082,1,0,0:0:0:0:
192,176,66269,1,0,0:0:0:0:
192,176,66457,1,8,0:0:0:0:
192,176,66644,1,0,0:0:0:0:
192,176,66832,1,0,0:0:0:0:
192,176,67207,1,8,0:0:0:0:
192,176,67582,1,0,0:0:0:0:
192,176,67769,1,0,0:0:0:0:
192,176,67957,1,8,0:0:0:0:
192,176,68144,1,0,0:0:0:0:
192,176,68238,1,0,0:0:0:0:
192,176,68332,1,0,0:0:0:0:
192,176,68519,1,0,0:0:0:0:
192,176,68707,1,0,0:0:0:0:
192,176,69082,1,8,0:0:0:0:
192,176,69269,1,0,0:0:0:0:
192,176,69457,1,0,0:0:0:0:
192,176,69644,1,8,0:0:0:0:
192,176,69832,1,0,0:0:0:0:
192,176,70019,1,0,0:0:0:0:
192,176,70207,1,0,0:0:0:0:
192,176,70582,1,8,0:0:0:0:
192,176,70769,1,8,0:0:0:0:
192,176,70957,1,8,0:0:0:0:
192,176,71332,1,0,0:0:0:0:
192,176,71519,1,0,0:0:0:0:
192,176,71707,1,8,0:0:0:0:
192,176,71894,1,0,0:0:0:0:
192,176,72082,1,0,0:0:0:0:
192,176,72457,1,8,0:0:0:0:
192,176,72832,1,0,0:0:0:0:
192,176,73207,1,8,0:0:0:0:
192,176,73394,1,0,0:0:0:0:
192,176,73769,1,0,0:0:0:0:
192,176,73957,1,8,0:0:0:0:
192,176,74144,1,0,0:0:0:0:
192,176,74332,1,0,0:0:0:0:
192,176,74519,1,8,0:0:0:0:
192,176,74613,1,8,0:0:0:0:
192,176,74707,1,8,0:0:0:0:
192,176,74894,1,0,0:0:0:0:
192,176,75082,1,0,0:0:0:0:
192,176,75457,1,0,0:0:0:0:
192,176,75832,1,8,0:0:0:0:
192,176,76207,1,0,0:0:0:0:
192,176,76582,1,8,0:0:0:0:
192,176,76769,1,0,0:0:0:0:
192,176,76957,1,0,0:0:0:0:
192,176,77144,1,8,0:0:0:0:
192,176,77238,1,8,0:0:0:0:
192,176,77332,1,8,0:0:0:0:
192,176,77519,1,0,0:0:0:0:
192,176,77707,1,8,0:0:0:0:
192,176,78082,1,0,0:0:0:0:
192,176,78269,1,0,0:0:0:0:
192,176,78457,1,8,0:0:0:0:
192,176,78644,1,0,0:0:0:0:
192,176,78832,1,0,0:0:0:0:
192,176,79207,1,8,0:0:0:0:
192,176,79582,1,8,0:0:0:0:
192,176,79769,1,0,0:0:0:0:
192,176,79957,1,0,0:0:0:0:
192,176,80144,1,8,0:0:0:0:
192,176,80238,1,8,0:0:0:0:
192,176,80332,1,8,0:0:0:0:
192,176,80519,1,0,0:0:0:0:
192,176,80707,1,0,0:0:0:0:
192,176,81082,1,0,0:0:0:0:
192,176,81457,1,8,0:0:0:0:
192,176,81644,1,0,0:0:0:0:
192,176,81832,1,0,0:0:0:0:
192,176,82019,1,0,0:0:0:0:
192,176,82207,1,8,0:0:0:0:
192,176,82394,1,0,0:0:0:0:
192,176,82582,1,8,0:0:0:0:
192,176,82957,1,8,0:0:0:0:
192,176,83332,1,0,0:0:0:0:
192,176,83707,1,0,0:0:0:0:
192,176,84082,1,0,0:0:0:0:
192,176,84269,1,0,0:0:0:0:
192,176,84457,1,8,0:0:0:0:
192,176,84644,1,0,0:0:0:0:
192,176,84832,1,0,0:0:0:0:
192,176,85019,1,0,0:0:0:0:
192,176,85207,1,8,0:0:0:0:
192,176,85394,1,0,0:0:0:0:
192,176,85582,2,0,L|280:176,8,70
192,176,87832,1,0,0:0:0:0:
192,176,88207,1,8,0:0:0:0:
192,176,88582,1,0,0:0:0:0:
192,176,88863,1,0,0:0:0:0:
192,176,89144,1,0,0:0:0:0:
192,176,89519,1,0,0:0:0:0:
192,176,89707,1,8,0:0:0:0:
192,176,90082,1,0,0:0:0:0:
192,176,90269,1,0,0:0:0:0:
192,176,90457,1,8,0:0:0:0:
192,176,90644,1,0,0:0:0:0:
192,176,90832,1,0,0:0:0:0:
192,176,91207,1,0,0:0:0:0:
192,176,91582,1,0,0:0:0:0:
192,176,91863,1,0,0:0:0:0:
192,176,92144,1,8,0:0:0:0:
192,176,92519,1,0,0:0:0:0:
192,176,92707,1,8,0:0:0:0:
192,176,93082,1,0,0:0:0:0:
192,176,93457,1,0,0:0:0:0:
192,176,93644,1,8,0:0:0:0:
192,176,94019,1,0,0:0:0:0:
192,176,94207,1,8,0:0:0:0:
192,176,94394,1,0,0:0:0:0:
192,176,94582,1,8,0:0:0:0:
192,176,94769,1,0,0:0:0:0:
192,176,94957,1,0,0:0:0:0:
192,176,95050,1,0,0:0:0:0:
192,176,95144,1,0,0:0:0:0:
192,176,95519,1,0,0:0:0:0:
192,176,95707,1,8,0:0:0:0:
192,176,95894,1,0,0:0:0:0:
192,176,96082,1,0,0:0:0:0:
