osu file format v12

[General]
AudioFilename: Senya- Tsuki Ni Murakumo Hana Ni Kaze.mp3
AudioLeadIn: 1522
PreviewTime: 75060
Countdown: 0
SampleSet: Normal
StackLeniency: 0.7
Mode: 1
LetterboxInBreaks: 0

[Editor]
Bookmarks: 14332,63082,87082
DistanceSpacing: 1
BeatDivisor: 2
GridSize: 8

[Metadata]
Title:Tsuki ni Murakumo Hana ni Kaze (Short ver.)
TitleUnicode:月に叢雲華に風 (Short ver.)
Artist:senya
ArtistUnicode:senya
Creator:Uchiha_sorayuki
Version:Kantan
Source:Touhou
Tags:subterranean animism koishi komeji sister extra stage boss Yuuhei satellite memories phantasm taiko zun
BeatmapID:252979
BeatmapSetID:93880

[Difficulty]
HPDrainRate:3
CircleSize:4
OverallDifficulty:3
ApproachRate:3
SliderMultiplier:1.4
SliderTickRate:1

[Events]
//Background and Video events
0,0,"annoying bg lol.jpg",0,0
//Break Periods
//Storyboard Layer 0 (Background)
//Storyboard Layer 1 (Fail)
//Storyboard Layer 2 (Pass)
//Storyboard Layer 3 (Foreground)
//Storyboard Sound Samples
//Background Colour Transformations
3,100,163,162,255

[TimingPoints]
82,375,4,1,0,90,1,0
63082,-100,4,1,0,90,0,1
87082,-100,4,1,0,80,0,0

[HitObjects]
176,120,1582,1,0,0:0:0:0:
176,120,2332,1,0,0:0:0:0:
176,120,3082,1,0,0:0:0:0:
176,120,3457,1,0,0:0:0:0:
176,120,3832,1,0,0:0:0:0:
344,128,4582,1,0,0:0:0:0:
344,128,5332,1,8,0:0:0:0:
344,128,6082,1,8,0:0:0:0:
344,128,6457,1,8,0:0:0:0:
344,128,6832,1,8,0:0:0:0:
344,128,7582,1,0,0:0:0:0:
344,128,8332,1,8,0:0:0:0:
344,128,9082,1,0,0:0:0:0:
344,128,9457,1,0,0:0:0:0:
344,128,9832,1,0,0:0:0:0:
256,192,10582,12,0,13207,0:0:0:0:
144,96,13582,5,0,0:0:0:0:
144,96,14332,5,0,0:0:0:0:
144,96,15082,1,8,0:0:0:0:
144,96,15832,1,0,0:0:0:0:
168,208,16582,1,8,0:0:0:0:
168,208,17332,1,0,0:0:0:0:
168,208,18082,1,8,0:0:0:0:
168,208,18832,1,0,0:0:0:0:
168,208,19582,1,8,0:0:0:0:
168,208,20332,1,0,0:0:0:0:
168,208,21082,1,12,0:0:0:0:
192,120,21832,1,0,0:0:0:0:
192,120,22207,1,0,0:0:0:0:
192,120,22582,1,0,0:0:0:0:
192,120,23144,1,4,0:0:0:0:
136,72,23894,2,0,B|408:72|408:72|416:296|416:296|272:296,1,630
248,152,26332,1,0,0:0:0:0:
248,152,27082,5,8,0:0:0:0:
192,120,27832,1,0,0:0:0:0:
192,120,28207,5,0,0:0:0:0:
192,120,28582,1,0,0:0:0:0:
192,120,29332,1,0,0:0:0:0:
192,120,30082,1,8,0:0:0:0:
192,120,30832,1,0,0:0:0:0:
192,120,31207,1,0,0:0:0:0:
192,120,31582,1,0,0:0:0:0:
192,120,32332,1,0,0:0:0:0:
192,120,33082,1,8,0:0:0:0:
192,120,33832,1,0,0:0:0:0:
192,120,34207,1,0,0:0:0:0:
192,120,34582,1,0,0:0:0:0:
192,120,35332,1,8,0:0:0:0:
192,120,36082,1,0,0:0:0:0:
192,120,36832,1,8,0:0:0:0:
192,120,37207,1,8,0:0:0:0:
192,120,37582,1,8,0:0:0:0:
192,120,38332,1,0,0:0:0:0:
192,120,39082,1,8,0:0:0:0:
192,120,39832,1,0,0:0:0:0:
192,120,40207,1,0,0:0:0:0:
192,120,40582,1,0,0:0:0:0:
192,120,41332,1,8,0:0:0:0:
192,120,42082,1,0,0:0:0:0:
192,120,42832,1,8,0:0:0:0:
192,120,43207,1,8,0:0:0:0:
192,120,43582,1,8,0:0:0:0:
192,120,44332,1,8,0:0:0:0:
192,120,45082,1,0,0:0:0:0:
192,120,45832,1,8,0:0:0:0:
192,120,46207,1,8,0:0:0:0:
192,120,46582,1,8,0:0:0:0:
192,120,47332,1,0,0:0:0:0:
192,120,48082,1,8,0:0:0:0:
192,120,48832,1,0,0:0:0:0:
192,120,49207,1,0,0:0:0:0:
192,120,49582,1,0,0:0:0:0:
192,120,51082,1,0,0:0:0:0:
192,120,51832,1,8,0:0:0:0:
192,120,52582,1,0,0:0:0:0:
192,120,53332,1,0,0:0:0:0:
192,120,53707,1,0,0:0:0:0:
192,120,54082,1,0,0:0:0:0:
192,120,54832,1,8,0:0:0:0:
192,120,55582,1,0,0:0:0:0:
192,120,56332,1,0,0:0:0:0:
192,120,56707,1,0,0:0:0:0:
192,120,57082,1,0,0:0:0:0:
192,120,57832,1,8,0:0:0:0:
192,120,58582,1,0,0:0:0:0:
192,120,59332,1,8,0:0:0:0:
192,120,60082,1,0,0:0:0:0:
192,120,60832,1,8,0:0:0:0:
192,120,61207,1,8,0:0:0:0:
192,120,61582,1,12,0:0:0:0:
192,120,63082,1,8,0:0:0:0:
192,120,63832,1,0,0:0:0:0:
192,120,64582,1,0,0:0:0:0:
192,120,64957,1,0,0:0:0:0:
192,120,65332,1,0,0:0:0:0:
192,120,66082,1,0,0:0:0:0:
192,120,66832,1,8,0:0:0:0:
192,120,67582,1,8,0:0:0:0:
192,120,67957,1,8,0:0:0:0:
192,120,68332,1,8,0:0:0:0:
192,120,69082,1,8,0:0:0:0:
192,120,69832,1,0,0:0:0:0:
192,120,70582,1,0,0:0:0:0:
192,120,71332,1,0,0:0:0:0:
192,120,72082,1,0,0:0:0:0:
192,120,72457,1,0,0:0:0:0:
192,120,72832,1,0,0:0:0:0:
192,120,73582,1,0,0:0:0:0:
192,120,74332,1,8,0:0:0:0:
192,120,74707,1,8,0:0:0:0:
192,120,75082,1,8,0:0:0:0:
192,120,75832,1,0,0:0:0:0:
192,120,76582,1,0,0:0:0:0:
192,120,76957,1,0,0:0:0:0:
192,120,77332,1,0,0:0:0:0:
192,120,78082,1,0,0:0:0:0:
192,120,78832,1,8,0:0:0:0:
192,120,79582,1,8,0:0:0:0:
192,120,79957,1,8,0:0:0:0:
192,120,80332,1,8,0:0:0:0:
192,120,81082,1,0,0:0:0:0:
192,120,81832,1,0,0:0:0:0:
192,120,82582,1,8,0:0:0:0:
192,120,83332,1,0,0:0:0:0:
192,120,83707,1,0,0:0:0:0:
192,120,84082,1,0,0:0:0:0:
192,120,84832,1,0,0:0:0:0:
304,120,85394,2,0,L|400:120,9,70
192,120,87832,1,0,0:0:0:0:
192,120,88582,1,0,0:0:0:0:
192,120,88957,1,0,0:0:0:0:
192,120,89332,1,0,0:0:0:0:
192,120,90082,1,0,0:0:0:0:
192,120,90832,1,8,0:0:0:0:
192,120,91582,1,8,0:0:0:0:
192,120,91957,1,8,0:0:0:0:
192,120,92332,1,8,0:0:0:0:
192,120,93082,1,0,0:0:0:0:
192,120,93832,1,0,0:0:0:0:
192,120,94582,1,8,0:0:0:0:
192,120,94957,1,0,0:0:0:0:
192,120,95707,1,0,0:0:0:0:
192,120,96082,1,4,0:0:0:0:
