osu file format v12

[General]
AudioFilename: Senya- Tsuki Ni Murakumo Hana Ni Kaze.mp3
AudioLeadIn: 1511
PreviewTime: 75060
Countdown: 0
SampleSet: Normal
StackLeniency: 0.7
Mode: 1
LetterboxInBreaks: 0

[Editor]
Bookmarks: 14332,25582,37582,49582,63082,87082
DistanceSpacing: 1
BeatDivisor: 4
GridSize: 8

[Metadata]
Title:Tsuki ni Murakumo Hana ni Kaze (Short ver.)
TitleUnicode:月に叢雲華に風 (Short ver.)
Artist:senya
ArtistUnicode:senya
Creator:Uchiha_sorayuki
Version:Futsuu
Source:Touhou
Tags:subterranean animism koishi komeji sister extra stage boss Yuuhei satellite memories phantasm taiko zun
BeatmapID:252978
BeatmapSetID:93880

[Difficulty]
HPDrainRate:3
CircleSize:4
OverallDifficulty:4
ApproachRate:3
SliderMultiplier:1.4
SliderTickRate:1

[Events]
//Background and Video events
0,0,"annoying bg lol.jpg",0,0
//Break Periods
//Storyboard Layer 0 (Background)
//Storyboard Layer 1 (Fail)
//Storyboard Layer 2 (Pass)
//Storyboard Layer 3 (Foreground)
//Storyboard Sound Samples
//Background Colour Transformations
3,100,163,162,255

[TimingPoints]
82,375,4,1,0,90,1,0
63082,-100,4,1,0,90,0,1
87082,-100,4,1,0,80,0,0

[HitObjects]
216,168,1582,1,0,0:0:0:0:
216,168,2332,1,0,0:0:0:0:
216,168,2707,1,0,0:0:0:0:
216,168,3082,1,8,0:0:0:0:
216,168,3644,1,0,0:0:0:0:
216,168,4019,1,8,0:0:0:0:
216,168,4207,1,8,0:0:0:0:
216,168,4582,1,8,0:0:0:0:
216,168,5332,1,0,0:0:0:0:
216,168,5707,1,0,0:0:0:0:
216,168,6082,1,8,0:0:0:0:
216,168,6644,1,0,0:0:0:0:
216,168,7019,1,0,0:0:0:0:
216,168,7207,1,0,0:0:0:0:
216,168,7582,1,0,0:0:0:0:
216,168,8332,1,0,0:0:0:0:
216,168,9082,1,0,0:0:0:0:
216,168,9457,1,8,0:0:0:0:
216,168,10019,1,0,0:0:0:0:
216,168,10207,1,0,0:0:0:0:
256,192,10582,12,0,13207,0:0:0:0:
168,144,13582,5,0,0:0:0:0:
168,144,13957,1,0,0:0:0:0:
168,144,14332,1,8,0:0:0:0:
168,144,15082,1,0,0:0:0:0:
168,144,15832,1,8,0:0:0:0:
168,144,16207,1,0,0:0:0:0:
168,144,16582,1,8,0:0:0:0:
168,144,17332,1,0,0:0:0:0:
168,144,18082,1,8,0:0:0:0:
168,144,18457,1,0,0:0:0:0:
168,144,18832,1,0,0:0:0:0:
168,144,19207,1,0,0:0:0:0:
168,144,19582,1,8,0:0:0:0:
168,144,20332,1,0,0:0:0:0:
168,144,21082,1,8,0:0:0:0:
168,144,21832,1,8,0:0:0:0:
168,144,22207,1,0,0:0:0:0:
168,144,22582,1,8,0:0:0:0:
168,144,23144,1,0,0:0:0:0:
168,144,23519,1,4,0:0:0:0:
168,144,24082,1,0,0:0:0:0:
168,144,24269,1,0,0:0:0:0:
168,144,24457,1,0,0:0:0:0:
168,144,24832,1,8,0:0:0:0:
168,144,25207,1,0,0:0:0:0:
168,144,25394,1,0,0:0:0:0:
168,144,25582,1,0,0:0:0:0:
168,144,26332,1,0,0:0:0:0:
168,144,27082,1,8,0:0:0:0:
168,144,27832,1,8,0:0:0:0:
168,144,28207,1,0,0:0:0:0:
168,144,28582,1,8,0:0:0:0:
168,144,29332,1,0,0:0:0:0:
168,144,29707,1,0,0:0:0:0:
168,144,30082,1,8,0:0:0:0:
168,144,30832,1,8,0:0:0:0:
168,144,31207,1,0,0:0:0:0:
168,144,31582,1,8,0:0:0:0:
168,144,32144,1,0,0:0:0:0:
168,144,32707,1,8,0:0:0:0:
168,144,33082,1,8,0:0:0:0:
168,144,33457,1,0,0:0:0:0:
168,144,33832,1,8,0:0:0:0:
168,144,34207,1,0,0:0:0:0:
168,144,34582,1,8,0:0:0:0:
168,144,35144,1,0,0:0:0:0:
168,144,35707,1,0,0:0:0:0:
168,144,36082,1,8,0:0:0:0:
168,144,36457,1,0,0:0:0:0:
168,144,36832,1,8,0:0:0:0:
168,144,37207,1,0,0:0:0:0:
168,144,37394,1,0,0:0:0:0:
168,144,37582,1,0,0:0:0:0:
168,144,38332,1,8,0:0:0:0:
168,144,38894,1,8,0:0:0:0:
168,144,39457,1,0,0:0:0:0:
168,144,39832,1,8,0:0:0:0:
168,144,40207,1,0,0:0:0:0:
168,144,40582,1,0,0:0:0:0:
168,144,41332,5,8,0:0:0:0:
168,144,41894,1,8,0:0:0:0:
168,144,42457,1,0,0:0:0:0:
168,144,42832,1,8,0:0:0:0:
168,144,43207,1,0,0:0:0:0:
168,144,43582,1,0,0:0:0:0:
168,144,44332,1,0,0:0:0:0:
168,144,44894,1,0,0:0:0:0:
168,144,45457,1,0,0:0:0:0:
168,144,45832,1,0,0:0:0:0:
168,144,46207,1,8,0:0:0:0:
168,144,46582,1,0,0:0:0:0:
168,144,47144,1,0,0:0:0:0:
168,144,47707,1,0,0:0:0:0:
168,144,48082,1,0,0:0:0:0:
168,144,48457,1,8,0:0:0:0:
168,144,48832,1,0,0:0:0:0:
168,144,49207,1,0,0:0:0:0:
168,144,49394,1,0,0:0:0:0:
168,144,49582,1,4,0:0:0:0:
168,144,50144,1,0,0:0:0:0:
168,144,50707,1,0,0:0:0:0:
168,144,50894,1,0,0:0:0:0:
168,144,51457,1,0,0:0:0:0:
168,144,51832,1,8,0:0:0:0:
168,144,52207,1,0,0:0:0:0:
168,144,52582,1,4,0:0:0:0:
168,144,53144,1,8,0:0:0:0:
168,144,53707,1,0,0:0:0:0:
168,144,53894,1,0,0:0:0:0:
168,144,54457,5,0,0:0:0:0:
168,144,54832,1,8,0:0:0:0:
168,144,55207,1,0,0:0:0:0:
168,144,55582,1,4,0:0:0:0:
168,144,56144,1,0,0:0:0:0:
168,144,56707,1,8,0:0:0:0:
168,144,56894,1,8,0:0:0:0:
168,144,57457,1,0,0:0:0:0:
168,144,57832,1,8,0:0:0:0:
168,144,58207,1,8,0:0:0:0:
168,144,58582,1,4,0:0:0:0:
168,144,59332,1,8,0:0:0:0:
168,144,59707,1,0,0:0:0:0:
168,144,59894,1,0,0:0:0:0:
168,144,60082,1,0,0:0:0:0:
168,144,60832,1,8,0:0:0:0:
168,144,61207,1,8,0:0:0:0:
168,144,61394,1,8,0:0:0:0:
168,144,61582,1,8,0:0:0:0:
168,144,62332,1,0,0:0:0:0:
168,144,62707,1,0,0:0:0:0:
168,144,63082,1,4,0:0:0:0:
168,144,63832,1,0,0:0:0:0:
168,144,64207,1,0,0:0:0:0:
168,144,64582,1,8,0:0:0:0:
168,144,65144,1,0,0:0:0:0:
168,144,65519,1,8,0:0:0:0:
168,144,65707,1,8,0:0:0:0:
168,144,66082,1,8,0:0:0:0:
168,144,66832,1,0,0:0:0:0:
168,144,67207,1,0,0:0:0:0:
168,144,67582,1,8,0:0:0:0:
168,144,68144,1,0,0:0:0:0:
168,144,68519,1,0,0:0:0:0:
168,144,68707,1,0,0:0:0:0:
168,144,69082,1,0,0:0:0:0:
168,144,69832,1,0,0:0:0:0:
168,144,70207,1,0,0:0:0:0:
168,144,70582,1,8,0:0:0:0:
168,144,70769,1,8,0:0:0:0:
168,144,70957,1,8,0:0:0:0:
168,144,71707,1,0,0:0:0:0:
168,144,72082,1,0,0:0:0:0:
168,144,72457,1,8,0:0:0:0:
168,144,72832,1,0,0:0:0:0:
168,144,73394,2,0,B|376:144|376:144|376:280|376:280|88:280,1,630
160,192,75832,1,0,0:0:0:0:
160,192,76207,1,0,0:0:0:0:
160,192,76582,1,8,0:0:0:0:
160,192,77144,1,0,0:0:0:0:
160,192,77519,1,8,0:0:0:0:
160,192,77707,1,8,0:0:0:0:
160,192,78082,1,8,0:0:0:0:
160,192,78832,1,0,0:0:0:0:
160,192,79207,1,0,0:0:0:0:
160,192,79582,1,8,0:0:0:0:
160,192,80144,1,0,0:0:0:0:
160,192,80519,1,0,0:0:0:0:
160,192,80707,1,0,0:0:0:0:
160,192,81082,1,0,0:0:0:0:
160,192,81644,1,0,0:0:0:0:
160,192,82019,1,0,0:0:0:0:
160,192,82207,1,0,0:0:0:0:
160,192,82582,1,8,0:0:0:0:
160,192,82957,1,8,0:0:0:0:
160,192,83707,1,8,0:0:0:0:
160,192,84082,1,0,0:0:0:0:
160,192,84457,1,8,0:0:0:0:
160,192,84832,1,0,0:0:0:0:
264,184,85394,2,0,L|344:184,9,70
184,144,87832,1,0,0:0:0:0:
184,144,88207,1,8,0:0:0:0:
184,144,88582,1,0,0:0:0:0:
184,144,89144,1,0,0:0:0:0:
184,144,89519,1,8,0:0:0:0:
184,144,89707,1,8,0:0:0:0:
184,144,90082,1,8,0:0:0:0:
184,144,90832,1,0,0:0:0:0:
184,144,91207,1,8,0:0:0:0:
184,144,91582,1,0,0:0:0:0:
184,144,92144,1,0,0:0:0:0:
184,144,92519,1,0,0:0:0:0:
184,144,92707,1,0,0:0:0:0:
184,144,93082,1,0,0:0:0:0:
184,144,93832,1,8,0:0:0:0:
184,144,94207,1,0,0:0:0:0:
184,144,94582,1,0,0:0:0:0:
184,144,94769,1,0,0:0:0:0:
184,144,94957,1,0,0:0:0:0:
184,144,95519,1,0,0:0:0:0:
184,144,95707,1,0,0:0:0:0:
184,144,95894,1,0,0:0:0:0:
184,144,96082,1,4,0:0:0:0:
