osu file format v9

[General]
AudioFilename: Senya- Tsuki Ni Murakumo Hana Ni Kaze.mp3
AudioLeadIn: 1500
PreviewTime: 62344
Countdown: 0
SampleSet: Soft
StackLeniency: 0.7
Mode: 0
LetterboxInBreaks: 0

[Editor]
DistanceSpacing: 0.8
BeatDivisor: 4
GridSize: 8

[Metadata]
Title:Tsuki ni Murakumo Hana ni Kaze (Short Ver.)
Artist:senya
Creator:BeatofIke
Version:Normal
Source:Touhou
Tags:opening bullet hell fantasy kaleidoscope memories phantasm komeiji koishi last remote chireiden zun yuuhei satellite subterranean animism th11

[Difficulty]
HPDrainRate:4
CircleSize:3
OverallDifficulty:4
ApproachRate:5
SliderMultiplier:1.2
SliderTickRate:1

[Events]
//Background and Video events
0,0,"New BG.jpg"
//Break Periods
2,13780,24380
//Storyboard Layer 0 (Background)
//Storyboard Layer 1 (Fail)
//Storyboard Layer 2 (Pass)
//Storyboard Layer 3 (Foreground)
//Storyboard Sound Samples
//Background Colour Transformations
3,100,163,162,255

[TimingPoints]
80,375,4,2,0,60,1,0
1580,-133.333333333333,4,2,0,60,0,0
13580,-100,4,2,0,60,0,0
63080,-100,4,2,0,60,0,1
87080,-133.333333333333,4,2,0,60,0,0
96080,-133.333333333333,4,2,0,30,0,0
96267,-133.333333333333,4,2,0,5,0,0

[Colours]
Combo1 : 0,128,64
Combo2 : 235,57,48
Combo3 : 0,64,128
Combo4 : 184,113,255

[HitObjects]
184,136,1580,2,0,B|208:88|256:80|304:88|328:136,1,179.999994635582,2|2
256,192,2705,1,0
184,248,3080,2,0,B|208:296|256:304|304:296|328:248,1,179.999994635582,2|2
256,192,4205,1,0
184,136,4580,6,0,B|136:120|88:136,2,89.9999973177911,2|0|2
256,192,5705,1,0
328,136,6080,2,0,B|376:120|424:136,2,89.9999973177911,2|0|2
256,192,7205,1,0
208,280,7580,6,0,B|152:296|152:296|144:328|88:344,2,134.999995976687,2|2|2
304,280,9080,2,0,B|360:296|360:296|368:328|424:344,2,134.999995976687,2|2|2
256,192,10580,12,4,13580
32,208,25580,6,0,B|100:207|100:207|120:128|192:120|232:136,1,240,4|2
192,224,26705,1,0
152,312,27080,2,0,B|192:328|264:320|284:240|284:240|352:240,1,240,0|2
416,312,28205,1,0
480,240,28580,5,0
416,168,28955,1,0
352,240,29330,1,2
416,312,29705,1,0
480,240,30080,5,0
416,168,30455,1,0
352,96,30830,1,2
256,96,31205,1,0
256,192,31580,6,0,B|256:312,2,120,0|0|2
256,96,32705,1,0
160,96,33080,5,2
96,168,33455,1,0
32,240,33830,1,2
96,312,34205,1,0
256,192,34580,12,0,36830
112,264,37580,5,4
184,328,37955,1,8
256,264,38330,1,0
328,328,38705,1,8
400,264,39080,6,0,B|400:144,2,120,0|8|0
328,328,40205,1,8
256,264,40580,5,0
328,200,40955,1,8
256,136,41330,1,0
184,200,41705,1,8
256,264,42080,5,4
184,328,42455,1,12
112,264,42830,1,4
184,200,43205,1,8
256,136,43580,6,0,B|256:16,2,120,4|8|0
256,232,44705,1,8
336,288,45080,5,4
256,344,45455,1,8
176,288,45830,1,0
256,232,46205,2,0,B|256:152,2,60,8|0|4
256,192,46767,12,4,48830
408,80,49580,6,0,B|456:120|456:192|456:192|424:248,2,180,12|8|8
408,80,50892,1,8
328,128,51267,1,0
256,192,51642,1,2
256,192,51830,1,8
184,256,52205,1,8
104,304,52580,6,0,B|56:264|56:192|56:192|88:136,2,180,12|8|8
104,304,53892,1,8
184,256,54267,1,0
256,192,54642,1,2
256,192,54830,1,8
328,256,55205,1,8
408,304,55580,6,0,B|456:264|456:192|456:192|424:136,2,180,12|12|8
408,304,56892,1,12
328,256,57267,1,0
256,192,57642,1,2
256,192,57830,1,8
184,128,58205,1,8
88,128,58580,6,0,B|88:40,2,90,4|0|0
88,176,59330,2,0,B|88:264,2,90,12|0|0
256,192,60080,12,12,61580
120,88,62330,5,2
120,184,62705,1,8
120,280,63080,6,0,B|168:288|192:296|208:352,1,120,4|8
304,348,63830,2,0,B|320:296|344:288|392:280,1,120,0|8
392,184,64580,1,0
328,112,64955,1,8
256,176,65330,1,0
184,112,65705,1,8
120,184,66080,6,0,B|120:248|48:288,2,120,0|8|0
184,112,67205,1,8
256,176,67580,2,0,B|256:296,2,120,0|8|0
328,112,68705,1,8
392,184,69080,6,0,B|392:248|464:288,2,120,0|8|0
328,256,70205,2,8,B|328:344|256:345|184:344|184:256,1,240
112,192,71330,1,0
184,128,71705,1,8
256,192,72080,5,4
328,256,72455,1,8
400,192,72830,1,4
328,128,73205,1,8
256,192,73580,5,4
184,256,73955,1,12
112,192,74330,1,4
184,128,74705,1,12
256,192,75080,5,4
312,272,75455,1,8
408,272,75830,1,0
464,192,76205,1,8
464,96,76580,2,0,B|424:96|424:96|400:48|352:32,2,120,0|8|0
464,192,77705,1,8
464,288,78080,6,0,B|424:288|424:288|400:336|352:352,1,120,0|8
304,272,78830,1,0
208,272,79205,1,8
142,344,79580,2,0,B|112:336|88:288|88:288|48:288,2,120,0|8|0
208,272,80705,1,8
304,272,81080,6,8,B|392:271|393:199|392:127|304:127,1,240,12|0
256,48,82205,1,8
207,127,82580,2,8,B|119:127|118:199|119:271|208:272,1,240,12|0
256,352,83705,1,8
256,192,84080,12,0,86705
328,248,87080,6,0,B|304:296|256:304|208:296|184:248,1,179.999994635582,4|2
256,192,88205,1,0
328,136,88580,2,0,B|304:88|256:80|208:88|184:136,1,179.999994635582,2|2
256,192,89705,1,0
328,248,90080,6,0,B|376:264|424:248,2,89.9999973177911,2|0|2
256,192,91205,1,0
184,248,91580,2,0,B|136:264|88:248,2,89.9999973177911,2|0|2
256,192,92705,1,0
304,104,93080,6,0,B|360:88|360:88|368:56|424:40,2,134.999995976687,2|2|2
208,104,94580,2,0,B|152:88|152:88|144:56|88:40,2,134.999995976687,2|2|2
256,192,96080,1,4
256,192,96267,12,0,99080
