osu file format v9

[General]
AudioFilename: Senya- Tsuki Ni Murakumo Hana Ni Kaze.mp3
AudioLeadIn: 1500
PreviewTime: 62344
Countdown: 0
SampleSet: Soft
StackLeniency: 0.6
Mode: 0
LetterboxInBreaks: 0

[Editor]
DistanceSpacing: 1
BeatDivisor: 4
GridSize: 4

[Metadata]
Title:Tsuki ni Murakumo Hana ni Kaze (Short Ver.)
Artist:senya
Creator:BeatofIke
Version:Lunatic
Source:Touhou
Tags:opening bullet hell fantasy kaleidoscope memories phantasm komeiji koishi last remote chireiden zun yuuhei satellite subterranean animism th11

[Difficulty]
HPDrainRate:6
CircleSize:4
OverallDifficulty:6
ApproachRate:8
SliderMultiplier:2
SliderTickRate:1

[Events]
//Background and Video events
0,0,"New BG.jpg"
//Break Periods
//Storyboard Layer 0 (Background)
//Storyboard Layer 1 (Fail)
//Storyboard Layer 2 (Pass)
//Storyboard Layer 3 (Foreground)
//Storyboard Sound Samples
//Background Colour Transformations
3,100,163,162,255

[TimingPoints]
80,375,4,2,0,60,1,0
830,-200,4,2,0,60,0,0
1580,-133.333333333333,4,2,0,60,0,0
13580,-100,4,2,0,60,0,0
30080,-200,4,2,0,60,0,0
30830,-100,4,2,0,60,0,0
63080,-100,4,2,0,60,0,1
87080,-133.333333333333,4,2,0,60,0,0
96267,-133.333333333333,4,2,0,5,0,0

[Colours]
Combo1 : 0,128,64
Combo2 : 235,57,48
Combo3 : 0,64,128
Combo4 : 184,113,255

[HitObjects]
256,192,830,2,0,B|256:312,2,100,0|0|2
192,144,1767,1,0
216,72,1955,1,0
296,72,2142,1,0
320,144,2330,2,0,B|328:184|392:208,1,74.9999977648259,2|0
192,144,2705,2,0,B|184:184|120:208,1,74.9999977648259,0|0
208,296,3080,6,0,B|224:328|288:328|304:296,2,112.499996647239,2|0|0
152,240,3830,2,0,B|96:296,1,74.9999977648259,2|0
360,240,4205,2,0,B|416:296,1,74.9999977648259,0|0
192,144,4580,6,0,B|216:103|255:115|296:103|320:144,2,149.999995529652,2|0|2
164,252,5611,1,0
256,316,5892,1,0
256,316,6080,1,2
348,252,6361,1,0
320,144,6642,1,0
128,136,7017,5,0
192,96,7205,1,0
128,56,7392,1,0
64,96,7580,2,0,B|56:136|24:200|64:248,1,149.999995529652,2|0
120,192,8142,2,0,B|155:233|123:297|115:337,1,149.999995529652,2|0
256,320,8705,5,0
328,280,8892,1,0
328,200,9080,1,2
256,160,9267,1,0
184,200,9455,1,0
184,280,9642,1,2
336,112,10017,5,0
256,64,10205,1,2
176,112,10392,1,0
256,160,10580,1,2
256,192,10767,12,0,13205
136,192,13580,5,4
196,272,13767,1,0
256,192,13955,1,8
316,272,14142,2,0,B|388:344,2,100
256,192,14705,1,8
196,272,14892,2,0,B|160:244|136:200|132:128|176:84|256:20|336:80|380:128|384:200|352:252|308:280,1,500
256,192,16017,1,0
196,272,16205,1,8
102,267,16392,6,0,B|72:192|72:192|56:136|120:88,1,200
208,96,16955,1,8
184,184,17142,1,0
256,240,17330,1,0
328,184,17517,1,0
304,96,17705,1,8
395,90,17892,2,0,B|456:136|440:192|440:192|409:267,1,200,4|0
360,328,18455,5,8
256,240,18642,1,0
292,360,18830,1,0
256,240,19017,1,0
220,360,19205,1,8
256,240,19392,1,0
152,328,19580,6,0,B|88:312|88:256,1,100,4|0
88,122,19955,2,0,B|88:72|152:56,1,100,8|0
360,56,20330,2,0,B|424:72|424:128,1,100,0|0
424,264,20705,2,0,B|408:328|352:328,1,100,8|0
152,328,21080,5,0
200,240,21267,1,0
312,240,21455,1,8
256,328,21642,1,0
360,328,21830,5,0
312,240,22017,1,0
200,240,22205,1,8
152,328,22392,1,0
64,280,22580,5,12
112,192,22767,1,0
200,240,22955,1,0
256,328,23142,1,12
312,240,23330,1,0
400,192,23517,1,0
448,280,23705,1,12
400,192,23892,1,0
256,104,24080,5,0
168,192,24267,1,12
256,280,24455,1,0
344,192,24642,1,0
256,104,24830,5,12
168,192,25017,1,0
256,280,25205,1,12
344,192,25392,1,0
464,192,25580,6,0,B|472:264|448:320|392:360|380:360,1,200,2|0
256,280,26142,1,0
48,192,26330,2,0,B|40:264|64:320|120:360|132:360,1,200,2|0
256,280,26892,1,0
304,216,27080,2,0,B|336:248|352:280|344:328|320:376|256:408|184:376|144:320|168:256|184:232|216:208,1,400,2|2
448,80,28205,5,0
352,64,28392,1,0
304,152,28580,1,2
208,152,28767,1,0
160,64,28955,1,0
64,80,29142,2,0,B|32:128|32:128|48:176|96:200|104:256,1,200,2|0
102,249,29705,5,2
40,296,30080,2,0,B|80:344|144:336|168:304|184:272|176:241,1,200,2|0
336,240,31205,5,0
256,300,31392,1,0
176,240,31580,2,0,B|146:247|114:231|82:207|74:143|122:103,1,200,2|0
192,160,32142,1,2
256,224,32330,1,0
320,160,32517,1,0
389,102,32705,2,0,B|438:143|430:207|398:231|366:247|336:240,1,200,2|0
120,104,33455,5,2
256,224,33830,1,0
392,104,34205,1,2
256,224,34580,5,2
152,280,34767,1,0
256,344,34955,1,0
360,280,35142,1,2
256,64,35517,1,2
256,64,35705,1,0
104,200,36080,5,2
176,344,36455,1,0
336,344,36830,1,2
408,200,37205,1,2
104,144,37580,6,0,B|88:206|152:206|144:270|136:302|108:329,1,200,4|8
48,264,38142,1,0
192,144,38330,2,0,B|192:164|208:208|256:248|304:208|320:160|320:144,1,200,0|8
464,264,38892,1,0
403,329,39080,2,0,B|375:302|367:270|359:206|423:206|408:144,2,200,0|8|0
464,264,40017,1,0
312,328,40205,1,8
403,329,40392,1,0
256,264,40580,5,0
200,192,40767,1,0
112,192,40955,1,8
200,192,41142,1,0
256,120,41330,1,0
312,192,41517,1,0
400,192,41705,1,8
312,192,41892,1,0
256,120,42080,5,4
160,96,42267,1,0
200,192,42455,1,12
168,280,42642,1,0
256,336,42830,1,4
344,280,43017,1,0
312,192,43205,1,8
352,96,43392,1,0
256,120,43580,6,0,B|256:224,3,100,4|0|8|0
328,232,44330,2,0,B|304:304|256:296|208:304|189:252|184:224,1,200,0|8
328,232,44892,6,0,B|400:304,1,100
184,232,45267,2,0,B|112:304,1,100,0|8
296,304,45642,1,0
216,304,45830,1,0
256,232,46017,1,0
296,160,46205,1,8
216,160,46392,1,0
256,88,46580,1,4
256,192,46767,12,0,49205
96,336,49580,6,0,B|168:336|216:288|216:192,1,200,12|0
296,208,50142,2,0,B|295:291|343:339|415:339,1,200,12|0
414,339,50705,1,8
414,339,50892,1,12
368,136,51267,1,8
368,136,51642,5,0
368,216,51830,1,8
328,288,52017,1,0
256,320,52205,1,8
184,288,52392,1,0
144,216,52580,6,0,B|112:144|136:88|184:64|216:64,1,200,12|0
296,64,53142,2,0,B|327:64|375:88|399:144|367:216,1,200,12|0
368,216,53705,1,8
368,216,53892,1,12
192,216,54267,1,8
192,216,54642,5,0
176,288,54830,1,8
216,352,55017,1,0
296,352,55205,1,8
336,288,55392,1,0
320,216,55580,6,0,B|224:168|208:120|216:64,1,200,12|0
296,64,56142,2,0,B|304:120|288:168|192:216,1,200,12|0
192,216,56705,1,8
192,216,56892,1,12
320,216,57267,1,8
192,216,57642,5,0
184,136,57830,1,8
216,64,58017,1,0
296,64,58205,1,8
328,136,58392,1,0
320,216,58580,6,0,B|256:280|256:280|192:280,2,150,12|0|0
336,296,59330,2,0,B|392:240|392:240|464:240,2,150,12|0|0
256,320,60080,5,12
176,296,60267,1,0
120,232,60455,1,0
116,148,60642,1,12
176,88,60830,1,0
256,64,61017,1,0
336,88,61205,1,12
396,148,61392,1,0
392,232,61580,1,12
120,232,62330,5,2
256,152,62705,1,8
392,232,63080,1,4
472,280,63267,1,0
392,328,63455,2,0,B|288:328,2,100,8|0|0
472,280,64017,1,0
392,232,64205,2,0,B|311:173,1,100,8|0
176,112,64580,5,0
88,144,64767,1,0
120,232,64955,1,8
208,200,65142,1,0
304,200,65330,1,0
392,232,65517,1,0
424,144,65705,1,8
336,112,65892,1,0
256,96,66080,6,0,B|216:144|256:184|296:224|256:288,2,200,0|8|0
168,144,67017,1,0
168,248,67205,1,8
204,340,67392,1,0
308,340,67580,5,0
344,248,67767,1,0
344,144,67955,1,8
256,96,68142,1,0
256,196,68330,1,0
96,80,68705,5,8
168,120,68892,1,0
96,160,69080,2,0,B|96:232|160:304|224:304,1,200,2|8
296,304,69642,2,0,B|349:304|413:232|413:160,1,200
352,80,70205,5,8
413,162,70392,1,0
296,160,70580,1,2
413,162,70767,1,0
352,240,70955,2,0,B|296:288|216:288|160:232,1,200,8|0
80,288,71517,2,0,B|88:328|128:352|160:344,2,100,0|8|0
152,216,72080,6,0,B|216:128,1,100,4|0
408,152,72455,2,0,B|349:232,1,100,8|0
211,135,72830,6,0,B|307:79,1,100,4|0
349,232,73205,2,0,B|245:296,1,100,8|0
112,328,73580,5,4
88,304,73673,1,0
80,272,73767,1,0
88,240,73861,1,0
104,216,73955,1,4
128,200,74048,1,0
160,192,74142,1,0
192,192,74236,1,0
224,192,74330,5,4
256,192,74423,1,0
288,184,74517,1,0
312,168,74611,1,0
328,144,74705,1,4
336,112,74798,1,0
328,80,74892,1,0
304,56,74986,1,0
272,48,75080,6,0,B|160:48,2,100,4|0|8
392,48,75642,1,0
464,144,75830,2,0,B|424:240,1,100
259,313,76205,2,0,B|304:224,1,100,8|0
464,144,76580,5,0
368,144,76767,1,0
304,224,76955,1,8
48,144,77142,1,0
144,144,77330,1,0
208,224,77517,1,0
144,296,77705,6,0,B|40:296,2,100,8|0|0
208,224,78267,1,0
256,312,78455,1,8
304,224,78642,1,0
368,296,78830,2,0,B|480:296,2,100,0|0|8
304,224,79392,1,0
256,136,79580,6,0,B|256:16,2,100,0|0|8
208,224,80142,1,0
144,296,80330,1,0
80,224,80517,1,0
144,144,80705,1,12
208,224,80892,1,0
304,224,81080,6,0,B|384:288,2,100,4|0|8
208,224,81642,2,0,B|128:288,2,100
256,136,82205,2,0,B|256:32,2,100,8|0|4
304,224,82767,5,0
256,312,82955,1,8
208,224,83142,1,0
256,136,83330,1,0
352,136,83517,5,0
304,224,83705,1,8
152,136,83892,1,4
208,224,84080,1,0
256,192,84267,12,0,85392
120,192,85580,5,4
120,160,85673,1,0
128,128,85767,1,0
144,104,85861,1,0
160,80,85955,1,0
184,64,86048,1,0
208,48,86142,1,0
240,40,86236,1,0
272,40,86330,5,4
304,48,86423,1,0
328,64,86517,1,0
352,80,86611,1,0
368,104,86705,1,0
384,128,86798,1,0
392,160,86892,1,0
392,192,86986,1,0
392,224,87080,6,0,B|384:296|296:336,1,149.999995529652,4|2
120,224,87830,2,0,B|128:296|216:336,1,149.999995529652,0|2
256,192,88580,6,0,B|256:72,2,112.499996647239
192,232,89330,1,0
256,272,89517,1,0
320,232,89705,1,2
112,232,90080,5,0
256,272,90455,1,2
400,232,90830,1,0
368,120,91111,1,0
256,88,91392,1,0
256,88,91580,1,2
144,120,91861,1,0
112,232,92142,1,0
400,232,92705,1,0
304,336,93080,6,0,B|256:308|216:264|216:220,1,149.999995529652,2|0
295,221,93642,2,0,B|296:264|256:308|208:336,1,149.999995529652,2|0
128,336,94205,2,0,B|48:336,2,74.9999977648259,2|0|2
208,336,94767,2,0,B|284:336,2,74.9999977648259,0|0|2
160,192,95517,5,0
256,120,95705,1,2
352,192,95892,1,0
256,264,96080,1,2
256,192,96267,12,0,99080
