osu file format v9

[General]
AudioFilename: Senya- Tsuki Ni Murakumo Hana Ni Kaze.mp3
AudioLeadIn: 1500
PreviewTime: 62344
Countdown: 0
SampleSet: Soft
StackLeniency: 0.7
Mode: 0
LetterboxInBreaks: 0

[Editor]
DistanceSpacing: 0.8
BeatDivisor: 4
GridSize: 8

[Metadata]
Title:Tsuki ni Murakumo Hana ni Kaze (Short Ver.)
Artist:senya
Creator:BeatofIke
Version:Easy
Source:Touhou
Tags:opening bullet hell fantasy kaleidoscope memories phantasm komeiji koishi last remote chireiden zun yuuhei satellite subterranean animism th11

[Difficulty]
HPDrainRate:2
CircleSize:3
OverallDifficulty:2
ApproachRate:3
SliderMultiplier:0.8
SliderTickRate:1

[Events]
//Background and Video events
0,0,"New BG.jpg"
//Break Periods
2,13780,24140
//Storyboard Layer 0 (Background)
//Storyboard Layer 1 (Fail)
//Storyboard Layer 2 (Pass)
//Storyboard Layer 3 (Foreground)
//Storyboard Sound Samples
//Background Colour Transformations
3,100,163,162,255

[TimingPoints]
80,375,4,2,0,60,1,0
1580,-133.333333333333,4,2,0,60,0,0
13580,-100,4,2,0,60,0,0
63080,-100,4,2,0,60,0,1
87080,-133.333333333333,4,2,0,60,0,0
96080,-100,4,2,0,5,0,0

[Colours]
Combo1 : 0,128,64
Combo2 : 235,57,48
Combo3 : 0,64,128
Combo4 : 184,113,255

[HitObjects]
160,96,1580,2,0,B|196:30|256:18|316:30|352:96,1,239.999992847443,2|2
352,192,3830,1,2
352,288,4580,6,0,B|316:353|256:365|196:353|159:287,1,239.999992847443,2|2
160,192,6830,1,2
200,104,7580,6,0,B|256:64|312:104,1,119.999996423721,2|2
312,200,9080,2,0,B|256:239|200:199,1,119.999996423721,2|2
256,192,10580,12,4,13580
176,280,25580,6,0,B|256:328|344:272,2,160,4|2|0
88,192,27830,1,2
176,104,28580,6,0,B|256:56|344:112,2,160,0|2|0
88,192,30830,1,2
200,248,31580,6,0,B|280:248|304:304|304:304|352:304,2,160,0|2|0
88,192,33830,1,2
200,136,34580,6,0,B|280:136|304:80|304:80|352:80,2,160,0|2|0
424,240,37580,6,0,B|416:304|384:336|304:336,1,160,4|8
256,352,38705,1,0
192,336,39080,2,0,B|136:336|96:304|88:232,1,160,0|8
128,112,40580,5,0
192,112,40955,1,0
256,112,41330,2,0,B|256:0,2,80,8|0|0
320,112,42455,1,0
384,112,42830,1,8
424,232,43580,6,0,B|384:304|384:304|304:304,1,160,4|8
256,264,44705,1,0
208,304,45080,2,0,B|130:304|130:304|90:232,1,160,4|8
88,168,46205,1,0
256,192,46580,12,0,48830
256,96,49580,6,0,B|336:96|384:160,2,120,12|8|8
224,96,50892,1,8
147,197,51642,2,0,B|176:240|256:240,1,120,8|8
256,304,52580,6,0,B|336:304|384:240,2,120,8|8|8
224,304,53892,1,8
147,186,54642,2,0,B|176:144|256:144,1,120,8|8
256,80,55580,6,0,B|336:80|384:144,2,120,12|12|12
224,80,56892,1,12
147,198,57642,2,0,B|176:240|256:240,1,120,8|8
256,304,58580,6,0,B|200:360,2,80,4|8|4
320,304,59705,1,8
384,304,60080,2,0,B|448:368,2,80,4|8|0
384,240,61205,1,12
384,176,61580,1,12
87,131,63080,6,0,B|73:185|105:241|160:256,1,160,4|0
216,280,64205,1,8
256,224,64580,2,0,B|256:128,2,80,0|8|0
296,280,65705,1,8
352,256,66080,6,0,B|407:241|439:185|424:131,1,160
368,96,67205,1,8
328,144,67580,2,0,B|288:184|224:184|184:144,1,160
144,96,68705,1,8
88,131,69080,6,0,B|74:185|106:241|160:256,1,160
184,312,70205,2,0,B|128:368,2,80,8|0|8
224,264,71330,1,0
288,264,71705,1,8
328,312,72080,6,0,B|384:368,2,80,0|8|0
352,256,73205,1,8
328,192,73580,2,0,B|280:164|284:116,1,80,4|12
229,129,74330,2,0,B|232:164|184:192,1,80,4|12
185,255,75080,6,0,B|231:282|228:317,2,80,4|8|0
136,296,76205,1,8
88,256,76580,2,0,B|41:283|44:318,2,80,0|8|0
88,192,77705,1,8
88,128,78080,5,0
144,80,78455,1,8
208,80,78830,2,0,B|208:126|240:192,1,80,0|8
288,157,79580,2,0,B|304:126|304:80,1,80,0|8
368,80,80330,1,0
424,128,80705,1,8
416,192,81080,6,0,B|416:256|376:296|320:296,1,160,4|0
256,296,82205,1,8
192,296,82580,2,0,B|136:295|96:255|96:191,1,160,4|0
88,128,83705,1,8
256,192,84080,12,0,86330
352,96,87080,6,0,B|315:30|255:18|195:30|159:96,1,239.999992847443,2|2
160,288,90080,6,0,B|196:353|256:365|316:353|352:287,1,239.999992847443,2|2
312,104,93080,6,0,B|256:64|200:104,1,119.999996423721,2|2
200,200,94580,2,0,B|255:239|311:199,1,119.999996423721,2|2
256,192,96080,12,0,99080
