osu file format v12

[General]
AudioFilename: tsuki.mp3
AudioLeadIn: 1500
PreviewTime: 62031
Countdown: 0
SampleSet: Soft
StackLeniency: 0.7
Mode: 0
LetterboxInBreaks: 0
SkinPreference:Default
WidescreenStoryboard: 1

[Editor]
Bookmarks: 13375,25375,62875,74875,86875,98875,110875,148375,160375,172375,196375,209875,211375,223375,235375,247375,259375,268375,274375
DistanceSpacing: 1.2
BeatDivisor: 4
GridSize: 4

[Metadata]
Title:Tsuki ni Murakumo Hana ni Kaze
TitleUnicode:月に叢雲華に風
Artist:senya
ArtistUnicode:senya
Creator:Scorpiour
Version:Lunatic
Source:Touhou
Tags:ZUN Komeiji Koishi Last Remote Subterranean Animism th11 Yuuhei Satellite
BeatmapID:227380
BeatmapSetID:82088

[Difficulty]
HPDrainRate:7
CircleSize:4
OverallDifficulty:8
ApproachRate:9
SliderMultiplier:1.8
SliderTickRate:2

[Events]
//Background and Video events
0,0,"bg3.jpg",0,0
//Break Periods
2,13581,24781
//Storyboard Layer 0 (Background)
//Storyboard Layer 1 (Fail)
//Storyboard Layer 2 (Pass)
//Storyboard Layer 3 (Foreground)
//Storyboard Sound Samples
//Background Colour Transformations
3,100,0,0,0

[TimingPoints]
-119,375,4,2,1,45,1,0
256,-200,4,2,1,45,0,0
25006,-111.111111111111,4,2,1,50,0,0
36631,-111.111111111111,4,2,1,30,0,0
37287,-111.111111111111,4,2,1,60,0,0
39982,-111.111111111111,4,2,2,60,0,0
40029,-111.111111111111,4,2,1,60,0,0
49381,-100,4,1,1,45,0,0
59881,-100,4,2,1,60,0,0
62881,-80,4,2,1,60,0,1
74834,-80,4,2,1,60,0,0
74881,-80,4,2,1,60,0,1
86881,-200,4,2,1,50,0,0
98131,-100,4,2,1,60,0,0
121381,-166.666666666667,4,2,1,60,0,0
122881,-100,4,2,1,60,0,0
125482,-100,4,2,2,60,0,0
125529,-100,4,2,1,60,0,0
134881,-100,4,1,1,45,0,0
145381,-100,4,2,1,60,0,0
148381,-80,4,2,1,60,0,1
160287,-80,4,2,1,60,0,0
160381,-80,4,2,1,60,0,1
172381,-100,4,1,1,45,0,0
178381,-100,4,2,1,60,0,0
185224,-100,4,1,1,30,0,0
185506,-100,4,2,1,60,0,0
190381,-100,4,2,2,30,0,0
190662,-100,4,2,2,28,0,0
190756,-100,4,2,2,26,0,0
190849,-100,4,2,2,24,0,0
190943,-100,4,2,2,22,0,0
191037,-100,4,2,2,20,0,0
191131,-100,4,2,2,18,0,0
191224,-100,4,2,2,16,0,0
191318,-100,4,2,2,14,0,0
191412,-100,4,2,2,12,0,0
191506,-100,4,2,2,10,0,0
191599,-100,4,2,1,60,0,0
196381,-100,4,1,1,45,0,0
206881,-100,4,2,1,60,0,0
209881,-100,4,1,3,45,0,0
211381,-80,4,2,1,60,0,1
235287,-80,4,2,1,60,0,0
235381,-80,4,2,1,60,0,1
259381,-133.333333333333,4,2,1,40,0,0
262381,-133.333333333333,4,2,0,30,0,0
262756,-133.333333333333,4,2,1,25,0,0

[Colours]
Combo1 : 255,255,0
Combo2 : 128,255,128
Combo3 : 128,255,255

[HitObjects]
455,248,631,6,0,P|411:239|367:250,1,90
168,312,1381,2,0,P|228:332|296:304,1,135,0|0,0:0|0:0,0:0:0:0:
292,307,2131,1,0,0:0:0:0:
240,124,2506,2,0,L|240:59,1,45
336,152,2881,2,0,L|336:197,1,45
452,64,3443,2,0,L|408:88,1,45
336,152,3818,1,0,0:0:0:0:
240,124,4006,1,0,0:0:0:0:
148,160,4193,1,0,0:0:0:0:
64,104,4381,6,0,P|124:64|184:68,1,135
216,212,5131,2,0,L|292:219,2,67.5
140,160,5881,2,0,L|64:153,2,67.5
140,160,7006,1,0,0:0:0:0:
140,160,7381,22,0,P|176:184|228:180,1,90
288,112,7943,2,0,P|328:92|376:104,1,90
416,180,8506,1,0,0:0:0:0:
356,260,8693,1,0,0:0:0:0:
408,348,8881,2,0,L|456:328,2,45
312,344,9443,1,0,0:0:0:0:
230,99,9818,2,0,L|182:119,2,45,0|0|0,0:0|0:0|0:0,0:0:0:0:
256,192,10381,12,4,13381,0:1:0:0:
436,224,25381,6,0,P|388:196|280:208,1,161.999995056153
220,264,25943,1,0,0:0:0:0:
176,344,26131,2,0,P|96:336|40:264,1,161.999995056153
32,188,26693,1,0,0:0:0:0:
103,131,26881,2,0,P|73:105|34:99,2,80.9999975280763
116,220,27443,2,0,P|192:200|244:128,1,161.999995056153
256,48,28006,2,0,P|292:60|318:92,1,80.9999975280763
320,180,28381,22,0,P|396:200|472:144,1,161.999995056153
382,119,28943,2,0,P|310:95|241:137,1,161.999995056153
244,228,29506,2,0,P|220:260|182:272,1,80.9999975280763
96,244,29881,1,0,0:0:0:0:
84,156,30068,1,0,0:0:0:0:
156,100,30256,1,0,0:0:0:0:
236,136,30443,2,0,P|316:152|368:100,1,161.999995056153
320,176,31006,2,0,L|352:264,1,80.9999975280763
368,99,31381,6,0,P|293:82|232:156,1,161.999995056153
122,292,31943,2,0,P|200:287|246:224,1,161.999995056153
59,227,32506,2,0,P|36:260|32:300,1,80.9999975280763
148,207,32881,2,0,P|151:167|139:129,1,80.9999975280763
30,59,33256,2,0,P|25:99|37:137,1,80.9999975280763
241,146,33631,1,0,0:0:0:0:
268,230,33818,1,0,0:0:0:0:
237,372,34006,1,0,0:0:0:0:
196,294,34193,1,0,0:0:0:0:
325,320,34381,22,0,P|363:331|403:327,2,80.9999975280763
244,281,34943,2,0,P|167:261|89:282,1,161.999995056153
15,195,35506,2,0,P|54:199|92:186,1,80.9999975280763
212,64,35881,2,0,P|250:55|290:61,1,80.9999975280763
402,159,36256,2,0,P|363:168|323:162,1,80.9999975280763
360,91,36631,1,8,0:0:0:0:
361,248,36818,1,0,1:0:0:0:
361,248,36912,1,0,1:0:0:0:
361,248,37006,2,0,L|357:332,1,80.9999975280763,0|0,1:0|1:0,0:0:0:0:
443,211,37381,6,0,P|378:165|301:178,1,161.999995056153,0|8,0:1|0:1,0:0:0:0:
229,244,37943,1,0,0:0:0:0:
147,298,38131,2,0,P|71:276|26:206,1,161.999995056153,0|8,0:0|0:1,0:0:0:0:
68,103,38693,1,0,0:0:0:0:
240,139,38881,1,0,0:0:0:0:
129,206,39068,1,0,0:0:0:0:
165,80,39256,1,8,0:1:0:0:
229,244,39443,2,0,P|267:249|308:242,1,80.9999975280763
486,163,39818,2,0,B|408:186|322:159,1,161.999995056153,0|0,0:1|0:0,0:0:0:0:
242,113,40381,21,0,0:0:0:0:
164,157,40568,1,0,0:0:0:0:
241,290,40756,1,8,0:1:0:0:
242,201,40943,1,0,0:0:0:0:
87,202,41131,1,0,0:0:0:0:
165,246,41318,1,0,0:0:0:0:
90,28,41506,2,0,P|31:52|4:100,1,121.499996292114,8|0,0:1|0:0,0:0:0:0:
88,112,41881,2,0,P|144:132|169:185,1,121.499996292114
87,202,42256,2,0,P|30:226|6:277,1,121.499996292114,8|0,0:1|0:0,0:0:0:0:
91,285,42631,2,0,P|125:309|163:308,1,80.9999975280763
231,250,43006,5,8,0:1:0:0:
306,357,43193,1,0,0:0:0:0:
359,239,43381,2,0,L|442:201,1,80.9999975280763,4|0,0:0|0:0,0:0:0:0:
512,296,43756,2,0,L|429:334,1,80.9999975280763,8|0,0:1|0:0,0:0:0:0:
306,357,44131,2,0,P|255:330|235:234,1,161.999995056153,0|8,0:0|0:1,0:0:0:0:
399,234,44693,22,0,P|423:158|403:80,1,161.999995056153
320,47,45256,1,8,0:1:0:0:
243,92,45443,1,0,0:0:0:0:
157,66,45631,2,0,L|58:47,1,80.9999975280763
18,181,46006,2,0,L|100:198,1,80.9999975280763,8|0,0:1|0:0,0:0:0:0:
256,192,46381,1,4,0:0:0:0:
256,192,46474,12,0,48631,0:0:0:0:
227,118,49381,5,0,0:0:0:0:
140,292,49568,1,0,0:0:0:0:
140,275,49943,1,0,0:0:0:0:
320,272,50131,1,0,0:0:0:0:
320,260,50506,1,0,0:0:0:0:
320,260,50693,2,0,P|416:264|480:192,1,180,0|0,0:0|2:0,0:0:0:0:
272,88,51256,1,0,0:0:0:0:
272,76,51443,2,0,P|212:56|96:96,1,180,0|0,0:0|2:0,0:0:0:0:
48,172,52006,1,0,0:0:0:0:
132,224,52193,1,0,0:0:0:0:
188,140,52381,21,0,0:0:0:0:
358,83,52568,1,0,0:0:0:0:
360,92,52943,1,0,0:0:0:0:
324,272,53131,1,0,0:0:0:0:
324,260,53506,1,0,0:0:0:0:
324,260,53693,2,0,P|248:296|148:256,1,180,0|0,0:0|2:0,0:0:0:0:
188,84,54256,1,0,0:0:0:0:
190,74,54443,2,0,P|262:35|379:57,1,180,0|0,0:0|2:0,0:0:0:0:
464,164,55006,2,0,B|424:192|377:175,1,90,4|0,0:0|0:0,0:0:0:0:
292,124,55381,5,0,0:0:0:0:
123,186,55568,1,0,0:0:0:0:
124,172,55943,1,0,0:0:0:0:
261,301,56131,1,0,0:0:0:0:
260,288,56506,1,0,0:0:0:0:
260,288,56693,2,0,P|348:296|407:234,1,180,0|0,0:0|0:2,0:0:0:0:
392,52,57256,1,0,0:0:0:0:
392,52,57443,2,0,P|303:39|236:92,1,180,0|0,0:0|0:2,0:0:0:0:
189,197,58006,2,0,P|144:192|110:164,1,90
293,247,58381,22,0,L|347:265,1,45,0|0,0:0|2:0,0:0:0:0:
455,207,58662,2,0,L|513:190,1,45,0|0,0:0|2:0,0:0:0:0:
365,181,58943,1,0,0:0:0:0:
291,122,59131,6,0,L|224:113,1,45,0|0,0:0|2:0,0:0:0:0:
443,103,59412,2,0,L|497:112,1,45,0|0,0:0|2:0,0:0:0:0:
351,51,59693,1,0,0:0:0:0:
389,183,59881,21,0,0:0:0:0:
381,218,59974,1,0,0:0:0:0:
362,247,60068,1,8,0:0:0:0:
331,266,60162,1,0,0:0:0:0:
295,270,60256,1,0,0:0:0:0:
261,260,60349,1,0,0:0:0:0:
234,237,60443,1,8,0:0:0:0:
215,206,60537,1,0,0:0:0:0:
200,174,60631,5,0,0:0:0:0:
183,142,60724,1,0,0:0:0:0:
161,114,60818,1,8,0:0:0:0:
131,95,60912,1,0,0:0:0:0:
96,88,61006,1,0,0:0:0:0:
60,94,61099,1,0,0:0:0:0:
30,114,61193,1,8,0:0:0:0:
10,143,61287,1,0,0:0:0:0:
1,178,61381,22,0,L|16:241,3,45
83,216,61756,2,0,L|90:153,3,45
158,175,62131,2,0,L|170:226,5,30
237,191,62506,2,0,L|265:220,7,22.5
212,116,62881,6,0,P|244:64|290:50,1,112.5,6|0,0:0|0:0,0:0:0:0:
292,128,63162,5,0,0:0:0:0:
360,88,63256,6,0,P|368:144|341:190,1,112.5,2|0,0:0|0:0,0:0:0:0:
416,220,63537,21,0,0:0:0:0:
452,292,63631,22,0,P|400:300|350:270,1,112.5,2|0,0:0|0:0,0:0:0:0:
276,240,63912,5,0,0:0:0:0:
288,320,64006,6,0,P|232:312|200:269,1,112.5,2|0,0:0|0:0,0:0:0:0:
124,296,64287,21,0,0:0:0:0:
60,344,64381,22,0,P|44:288|69:243,1,112.5,2|0,0:0|0:0,0:0:0:0:
144,220,64662,5,0,0:0:0:0:
144,220,64756,1,2,0:0:0:0:
276,240,64943,5,0,0:0:0:0:
313,264,65037,1,0,0:0:0:0:
357,273,65131,1,2,0:0:0:0:
401,265,65224,1,0,0:0:0:0:
438,241,65318,1,0,0:0:0:0:
465,205,65412,1,0,0:0:0:0:
475,161,65506,1,2,0:0:0:0:
469,117,65599,1,0,0:0:0:0:
447,78,65693,1,0,0:0:0:0:
412,51,65787,1,0,0:0:0:0:
369,38,65881,6,0,P|327:74|265:64,1,112.5,2|0,0:0|0:0,0:0:0:0:
223,130,66162,5,0,0:0:0:0:
197,55,66256,6,0,P|150:91|142:140,1,112.5,2|0,0:0|0:0,0:0:0:0:
190,204,66537,21,0,0:0:0:0:
186,282,66631,22,0,L|202:342,1,56.25,2|0,0:0|0:0,0:0:0:0:
69,176,66912,2,0,L|50:106,1,56.25,0|2,0:0|0:0,0:0:0:0:
177,60,67193,1,0,0:0:0:0:
293,166,67381,1,2,0:0:0:0:
293,166,67474,1,0,0:0:0:0:
436,231,67662,1,0,0:0:0:0:
436,231,67756,1,2,0:0:0:0:
330,347,67943,21,0,0:0:0:0:
287,361,68037,1,0,0:0:0:0:
242,362,68131,1,2,0:0:0:0:
199,350,68224,1,0,0:0:0:0:
162,325,68318,1,0,0:0:0:0:
135,289,68412,1,0,0:0:0:0:
119,247,68506,2,0,P|153:203|147:149,1,112.5,2|0,0:0|0:0,0:0:0:0:
68,180,68881,5,6,0:0:0:0:
275,261,69068,1,0,0:0:0:0:
439,109,69256,1,2,0:0:0:0:
328,161,69443,2,0,P|220:186|114:153,1,225
265,78,70006,2,0,P|315:55|370:65,1,112.5,2|0,0:0|0:0,0:0:0:0:
417,258,70381,21,2,0:0:0:0:
197,291,70568,1,0,0:0:0:0:
197,291,70662,1,0,0:0:0:0:
197,291,70756,1,2,0:0:0:0:
265,79,70943,1,0,0:0:0:0:
313,330,71131,1,2,0:0:0:0:
361,147,71318,2,0,P|415:135|469:148,2,112.5,0|2|0,0:0|0:0|0:0,0:0:0:0:
312,330,71881,5,2,0:0:0:0:
128,246,72068,1,0,0:0:0:0:
326,202,72256,1,2,0:0:0:0:
217,290,72443,1,0,0:0:0:0:
33,206,72631,1,2,0:0:0:0:
231,162,72818,1,0,0:0:0:0:
128,246,73006,1,2,0:0:0:0:
149,126,73193,22,0,P|250:156|340:90,1,225
187,49,73756,2,0,P|132:41|84:70,1,112.5,2|0,0:0|0:0,0:0:0:0:
32,246,74131,2,0,P|84:254|135:219,1,112.5,2|0,0:0|0:0,0:0:0:0:
246,70,74506,1,2,0:0:0:0:
263,67,74599,1,0,0:0:0:0:
280,67,74693,1,0,0:0:0:0:
297,71,74787,1,0,0:0:0:0:
310,82,74881,6,0,P|251:96|224:137,1,112.5,6|0,0:0|0:0,0:0:0:0:
299,160,75162,5,0,0:0:0:0:
240,212,75256,6,0,P|288:239|341:226,1,112.5,2|0,0:0|0:0,0:0:0:0:
378,157,75537,21,0,0:0:0:0:
390,78,75631,22,0,P|439:103|459:154,1,112.5,2|0,0:0|0:0,0:0:0:0:
424,224,75912,5,0,0:0:0:0:
502,222,76006,6,0,P|483:280|440:304,1,112.5,2|0,0:0|0:0,0:0:0:0:
438,383,76287,21,0,0:0:0:0:
372,338,76381,22,0,P|326:310|270:320,1,112.5,2|0,0:0|0:0,0:0:0:0:
210,370,76662,5,0,0:0:0:0:
210,370,76756,1,2,0:0:0:0:
62,316,76943,5,0,0:0:0:0:
73,272,77037,1,0,0:0:0:0:
96,233,77131,1,2,0:0:0:0:
133,209,77224,1,0,0:0:0:0:
177,199,77318,1,0,0:0:0:0:
222,201,77412,1,0,0:0:0:0:
262,221,77506,1,2,0:0:0:0:
305,231,77599,1,0,0:0:0:0:
349,227,77693,1,0,0:0:0:0:
389,206,77787,1,0,0:0:0:0:
414,168,77881,6,0,P|431:118|409:64,1,112.5,2|0,0:0|0:0,0:0:0:0:
350,116,78162,5,0,0:0:0:0:
333,38,78256,6,0,P|284:66|270:120,1,112.5,2|0,0:0|0:0,0:0:0:0:
308,186,78537,21,0,0:0:0:0:
278,259,78631,22,0,L|213:282,1,56.25,2|0,0:0|0:0,0:0:0:0:
414,168,78912,2,0,L|484:142,1,56.25,0|2,0:0|0:0,0:0:0:0:
221,186,79193,1,0,0:0:0:0:
334,77,79381,1,2,0:0:0:0:
334,77,79474,1,0,0:0:0:0:
221,186,79662,1,0,0:0:0:0:
221,186,79756,1,2,0:0:0:0:
184,32,79943,21,0,0:0:0:0:
139,24,80037,1,0,0:0:0:0:
96,33,80131,1,2,0:0:0:0:
59,59,80224,1,0,0:0:0:0:
34,96,80318,1,0,0:0:0:0:
26,140,80412,1,0,0:0:0:0:
34,184,80506,2,0,P|68:231|118:248,1,112.5,2|0,0:0|0:0,0:0:0:0:
263,187,80881,5,6,0:0:0:0:
438,86,81068,1,0,0:0:0:0:
437,289,81256,1,2,0:0:0:0:
379,187,81443,2,0,P|366:130|216:82,1,225
279,226,82006,2,0,P|316:280|358:295,1,112.5,2|0,0:0|0:0,0:0:0:0:
303,147,82381,21,2,0:0:0:0:
185,250,82568,1,0,0:0:0:0:
36,196,82756,1,2,0:0:0:0:
155,94,82943,2,0,P|208:70|260:77,1,112.5,0|2,0:0|0:0,0:0:0:0:
372,188,83318,2,0,P|423:157|443:110,2,112.5,0|2|0,0:0|0:0|0:0,0:0:0:0:
316,336,83881,5,6,0:0:0:0:
185,250,84068,1,0,0:0:0:0:
299,141,84256,1,2,0:0:0:0:
253,291,84443,1,0,0:0:0:0:
122,205,84631,1,6,0:0:0:0:
236,96,84818,1,0,0:0:0:0:
186,251,85006,1,2,0:0:0:0:
55,165,85193,1,0,0:0:0:0:
169,56,85381,21,6,0:0:0:0:
207,33,85474,1,0,0:0:0:0:
250,21,85568,1,0,0:0:0:0:
295,20,85662,1,0,0:0:0:0:
339,30,85756,1,6,0:0:0:0:
378,52,85849,1,0,0:0:0:0:
411,82,85943,1,0,0:0:0:0:
435,120,86037,1,0,0:0:0:0:
449,163,86131,5,6,0:0:0:0:
452,207,86224,1,0,0:0:0:0:
443,251,86318,1,0,0:0:0:0:
423,292,86412,1,0,0:0:0:0:
394,326,86506,1,6,0:0:0:0:
357,351,86599,1,0,0:0:0:0:
315,367,86693,1,0,0:0:0:0:
270,371,86787,1,0,0:0:0:0:
226,364,86881,21,6,0:0:0:0:
105,252,87631,2,0,P|150:250|186:225,1,90,0|0,0:0|0:0,0:0:0:0:
234,89,88381,1,0,0:0:0:0:
234,89,88568,2,0,P|280:95|310:124,1,90
324,267,89318,1,0,0:0:0:0:
388,298,89506,1,0,0:0:0:0:
454,271,89693,1,0,0:0:0:0:
468,200,89881,6,0,P|470:143|423:83,1,135
352,96,90631,2,0,L|276:112,2,67.5
399,150,91381,2,0,L|470:134,2,67.5
300,336,92506,1,0,0:0:0:0:
300,336,92881,22,0,B|243:345|243:345|199:337|195:280,1,135
132,328,93818,1,0,0:0:0:0:
68,296,94006,1,0,0:0:0:0:
44,228,94193,1,0,0:0:0:0:
64,160,94381,2,0,L|28:112,2,45
132,140,94943,1,0,0:0:0:0:
232,244,95318,5,0,0:0:0:0:
304,248,95506,1,0,0:0:0:0:
368,216,95693,1,0,0:0:0:0:
423,261,95881,1,0,0:0:0:0:
256,192,95974,12,0,98131,0:0:0:0:
244,266,98318,22,0,L|306:254,3,45,0|0|0|0,0:0|0:0|0:0|0:0,0:0:0:0:
231,275,98693,1,2,1:2:0:0:
141,213,98881,2,0,P|104:192|57:197,2,90
239,167,99443,2,0,P|234:101|275:50,1,135
346,36,99818,1,0,0:0:0:0:
488,68,100006,5,0,0:0:0:0:
488,68,100099,1,0,0:0:0:0:
488,68,100193,2,0,P|461:159|388:192,1,180
296,136,100756,1,0,0:0:0:0:
188,140,100943,2,0,P|100:128|28:208,1,180
132,232,101506,2,0,P|148:276|116:336,2,90
189,140,102068,21,0,0:0:0:0:
199,105,102162,1,0,0:0:0:0:
217,74,102256,1,0,0:0:0:0:
241,48,102349,1,0,0:0:0:0:
274,34,102443,1,0,0:0:0:0:
309,31,102537,1,0,0:0:0:0:
344,35,102631,1,0,0:0:0:0:
378,43,102724,1,0,0:0:0:0:
409,60,102818,1,0,0:0:0:0:
433,86,102912,1,0,0:0:0:0:
449,117,103006,1,0,0:0:0:0:
453,152,103099,1,0,0:0:0:0:
452,188,103193,1,0,0:0:0:0:
440,222,103287,1,0,0:0:0:0:
419,252,103381,6,0,L|366:231,3,45
334,299,103756,2,0,L|279:317,3,45
260,241,104131,1,0,0:0:0:0:
246,238,104224,1,0,0:0:0:0:
232,235,104318,1,0,0:0:0:0:
218,232,104412,1,0,0:0:0:0:
204,229,104506,1,0,0:0:0:0:
190,226,104599,1,0,0:0:0:0:
176,223,104693,1,0,0:0:0:0:
162,220,104787,1,0,0:0:0:0:
148,217,104881,21,0,0:0:0:0:
79,260,105068,2,0,B|34:177,1,90
208,180,105443,2,0,L|192:80,1,90
352,160,105818,2,0,L|389:109,2,45
296,252,106193,2,0,P|360:296|454:273,1,180
388,180,106756,1,0,0:0:0:0:
476,108,106943,2,0,P|412:64|318:87,1,180
316,248,107506,2,0,P|272:256|229:243,1,90
164,72,107881,5,4,0:0:0:0:
60,44,108068,2,0,P|24:96|48:184,1,135
104,184,108443,2,0,P|168:164|236:196,1,135
252,256,108818,2,0,P|320:264|380:216,1,135
410,166,109193,1,0,0:0:0:0:
341,39,109381,22,0,L|363:90,1,45
262,59,109568,2,0,L|270:113,1,45
180,62,109756,2,0,L|175:114,1,45
102,40,109943,2,0,L|81:94,1,45
18,147,110131,1,0,0:0:0:0:
28,181,110224,1,0,0:0:0:0:
51,208,110318,1,0,0:0:0:0:
81,227,110412,1,0,0:0:0:0:
115,236,110506,1,0,0:0:0:0:
150,236,110599,1,0,0:0:0:0:
184,225,110693,1,0,0:0:0:0:
214,205,110787,1,0,0:0:0:0:
238,178,110881,6,0,P|325:192|392:138,1,180,0|8,0:0|0:1,0:0:0:0:
406,31,111443,1,0,0:0:0:0:
194,80,111631,2,0,P|151:123|150:236,1,180,0|8,0:0|0:1,0:0:0:0:
215,322,112193,1,0,0:0:0:0:
320,301,112381,2,0,B|408:285,2,90,0|0|8,0:0|0:0|0:1,0:0:0:0:
111,340,112943,2,0,B|44:351|44:351|-4:312|12:231,1,180
93,109,113506,2,0,P|110:150|108:195,1,90,8|0,0:1|0:0,0:0:0:0:
111,340,113881,22,0,P|175:351|239:327,1,135
283,269,114256,1,8,0:1:0:0:
183,74,114443,2,0,P|168:161|215:234,1,180
344,143,115006,2,0,P|302:135|257:143,1,90,8|0,0:1|0:0,0:0:0:0:
95,190,115381,5,0,0:0:0:0:
3,133,115568,1,0,0:0:0:0:
61,42,115756,1,8,0:1:0:0:
153,98,115943,2,0,P|240:116|328:99,1,180
510,39,116506,2,0,P|463:31|421:38,1,90,8|0,0:1|0:0,0:0:0:0:
352,200,116881,22,0,L|371:299,2,90,0|0|8,0:0|0:0|0:1,0:0:0:0:
457,310,117443,2,0,P|398:363|302:354,1,180
133,332,118006,2,0,P|182:323|220:330,1,90,8|0,0:1|0:0,0:0:0:0:
359,274,118381,6,0,P|412:247|439:179,1,135
307,78,118756,2,0,P|254:105|226:172,1,135,8|0,0:1|0:0,0:0:0:0:
218,301,119131,2,0,P|271:274|298:206,1,135
166,105,119506,2,0,P|113:132|85:199,1,135,8|0,0:1|0:0,0:0:0:0:
97,270,119881,21,0,0:0:0:0:
192,319,120068,1,0,0:0:0:0:
273,248,120256,1,8,0:1:0:0:
370,293,120443,2,0,B|438:275|451:209|451:209|418:163,1,180,0|0,0:0|0:0,0:0:0:0:
358,72,121006,1,8,0:1:0:0:
255,106,121193,1,0,0:0:0:0:
255,106,121287,1,0,0:0:0:0:
255,106,121381,6,0,B|255:195,1,80.9999975280763
178,261,121756,2,0,B|178:172,1,80.9999975280763,8|0,0:1|0:0,0:0:0:0:
101,106,122131,2,0,L|101:198,1,80.9999975280763
21,262,122506,2,0,L|21:178,1,80.9999975280763,8|0,0:1|0:0,0:0:0:0:
22,109,122881,21,4,0:0:0:0:
101,182,123068,1,0,0:0:0:0:
180,110,123256,2,0,P|226:102|276:111,1,90,8|0,0:1|0:0,0:0:0:0:
353,175,123631,1,0,0:0:0:0:
448,126,123818,1,0,0:0:0:0:
448,126,123912,1,0,0:0:0:0:
448,126,124006,2,0,L|474:34,1,90,8|0,0:1|0:0,0:0:0:0:
489,221,124381,2,0,B|469:293|469:293|427:324|369:301,1,180,0|8,0:0|0:1,0:0:0:0:
273,249,124943,1,0,0:0:0:0:
108,33,125318,6,0,P|44:84|35:176,1,180,0|0,0:0|0:1,0:0:0:0:
124,306,125881,1,0,0:0:0:0:
239,318,126068,1,0,0:0:0:0:
261,116,126256,1,8,0:1:0:0:
191,211,126443,1,0,0:0:0:0:
356,328,126631,1,0,0:0:0:0:
307,223,126818,1,0,0:0:0:0:
144,103,127006,2,0,B|99:87|55:103,1,90,8|0,0:1|0:0,0:0:0:0:
191,211,127381,2,0,P|255:221|318:194,1,135
348,275,127756,2,0,P|388:224|397:156,1,135,8|0,0:1|0:0,0:0:0:0:
481,174,128131,2,0,P|457:113|403:71,1,135
332,58,128506,21,8,0:1:0:0:
125,108,128693,1,0,0:0:0:0:
217,35,128881,2,0,P|240:74|245:117,1,90
145,246,129256,2,0,P|167:206|202:180,1,90,8|0,0:1|0:0,0:0:0:0:
363,204,129631,2,0,P|317:204|277:187,2,90,0|0|8,0:0|0:0|0:1,0:0:0:0:
231,264,130193,6,0,P|154:241|58:260,1,180
184,339,130756,2,0,P|230:348|272:341,1,90,8|0,0:1|0:0,0:0:0:0:
442,183,131131,1,0,0:0:0:0:
211,211,131318,1,0,0:0:0:0:
414,324,131506,1,8,0:1:0:0:
316,113,131693,1,0,0:0:0:0:
272,342,131881,22,0,L|178:328,2,90,0|0|8,0:0|0:0|0:1,0:0:0:0:
316,113,132443,2,0,L|410:127,2,90
170,89,133006,2,0,L|76:75,1,90,8|0,0:1|0:0,0:0:0:0:
6,153,133381,5,0,0:0:0:0:
94,214,133568,1,0,0:0:0:0:
196,177,133756,1,8,0:1:0:0:
299,205,133943,1,0,0:0:0:0:
369,122,134131,1,0,0:0:0:0:
380,128,134224,1,0,0:0:0:0:
391,134,134318,1,0,0:0:0:0:
402,140,134412,1,0,0:0:0:0:
413,146,134506,1,8,0:1:0:0:
424,152,134599,1,0,0:0:0:0:
435,158,134693,1,0,0:0:0:0:
446,164,134787,1,0,0:0:0:0:
457,171,134881,21,0,0:0:0:0:
318,305,135068,1,0,0:0:0:0:
318,322,135443,1,0,0:0:0:0:
132,250,135631,1,0,0:0:0:0:
132,267,136006,1,0,0:0:0:0:
132,267,136193,2,0,L|23:288,2,90,0|0|0,0:0|2:0|0:0,0:0:0:0:
272,116,136756,1,0,0:0:0:0:
272,98,136943,2,0,P|362:75|444:97,1,180,0|0,0:0|2:0,0:0:0:0:
285,201,137506,2,0,P|238:208|196:201,1,90,0|0,0:0|2:0,0:0:0:0:
68,110,137881,5,0,0:0:0:0:
29,301,138068,1,0,0:0:0:0:
30,318,138443,1,0,0:0:0:0:
214,239,138631,1,0,0:0:0:0:
210,256,139006,1,0,0:0:0:0:
210,256,139193,2,0,P|302:272|378:237,1,180,0|0,0:0|2:0,0:0:0:0:
253,48,139756,1,0,0:0:0:0:
88,94,139943,2,0,P|152:134|253:130,1,180,0|0,0:0|1:0,0:0:0:0:
378,80,140506,2,0,P|427:80|463:96,1,90,0|0,0:0|2:0,0:0:0:0:
503,237,140881,21,0,0:0:0:0:
320,305,141068,1,0,0:0:0:0:
317,322,141443,1,0,0:0:0:0:
354,112,141631,1,0,0:0:0:0:
370,104,142006,1,0,0:0:0:0:
370,104,142193,2,0,P|359:190|285:237,1,180,0|0,0:0|2:0,0:0:0:0:
169,178,142756,1,0,0:0:0:0:
61,105,142943,2,0,P|19:178|37:267,1,180,0|0,0:0|2:0,0:0:0:0:
124,358,143506,2,0,P|142:316|140:272,1,90,0|0,0:0|2:0,0:0:0:0:
110,144,143881,5,0,0:0:0:0:
110,144,143974,1,0,0:0:0:0:
312,322,144162,1,0,0:0:0:0:
312,322,144256,1,0,0:0:0:0:
365,58,144443,1,0,0:0:0:0:
263,175,144631,21,0,0:0:0:0:
263,175,144724,1,0,0:0:0:0:
98,35,144912,1,0,0:0:0:0:
98,35,145006,1,0,0:0:0:0:
60,247,145193,1,0,0:0:0:0:
142,152,145381,5,0,0:0:0:0:
173,134,145474,1,0,0:0:0:0:
208,131,145568,1,8,0:0:0:0:
243,139,145662,1,0,0:0:0:0:
273,157,145756,1,0,0:0:0:0:
299,181,145849,1,0,0:0:0:0:
329,200,145943,1,8,0:0:0:0:
364,207,146037,1,0,0:0:0:0:
400,207,146131,21,0,0:0:0:0:
434,197,146224,1,0,0:0:0:0:
462,174,146318,1,8,0:0:0:0:
476,141,146412,1,0,0:0:0:0:
479,105,146506,1,0,0:0:0:0:
469,70,146599,1,0,0:0:0:0:
449,39,146693,1,8,0:0:0:0:
414,29,146787,1,0,0:0:0:0:
378,32,146881,6,0,L|327:44,3,45
271,102,147256,2,0,L|212:89,3,45
140,121,147631,2,0,L|122:83,5,30
87,190,148006,2,0,L|102:224,7,22.5
103,287,148381,22,0,P|157:303|207:284,1,112.5,6|0,0:0|0:0,0:0:0:0:
255,221,148662,21,0,0:0:0:0:
176,213,148756,22,0,P|202:161|250:141,1,112.5,2|0,0:0|0:0,0:0:0:0:
320,177,149037,5,0,0:0:0:0:
326,255,149131,6,0,P|380:230|397:183,1,112.5,2|0,0:0|0:0,0:0:0:0:
442,118,149412,21,0,0:0:0:0:
364,111,149506,22,0,P|303:101|260:123,1,112.5,2|0,0:0|0:0,0:0:0:0:
320,177,149787,5,0,0:0:0:0:
326,255,149881,6,0,P|275:241|243:193,1,112.5,2|0,0:0|0:0,0:0:0:0:
164,188,150162,21,0,0:0:0:0:
164,188,150256,1,2,0:0:0:0:
40,268,150443,21,0,0:0:0:0:
26,244,150537,1,0,0:0:0:0:
17,219,150631,1,2,0:0:0:0:
13,192,150724,1,0,0:0:0:0:
14,165,150818,1,0,0:0:0:0:
20,139,150912,1,0,0:0:0:0:
31,114,151006,1,2,0:0:0:0:
46,91,151099,1,0,0:0:0:0:
65,72,151193,1,0,0:0:0:0:
87,57,151287,1,0,0:0:0:0:
111,45,151381,22,0,P|153:80|208:80,1,112.5,2|0,0:0|0:0,0:0:0:0:
281,50,151662,21,0,0:0:0:0:
358,34,151756,22,0,P|421:42|456:84,1,112.5,2|0,0:0|0:0,0:0:0:0:
483,148,152037,5,0,0:0:0:0:
476,226,152131,6,0,L|469:281,1,56.25,2|0,0:0|0:0,0:0:0:0:
324,164,152412,2,0,L|330:108,1,56.25,0|2,0:0|0:0,0:0:0:0:
348,308,152693,1,0,0:0:0:0:
124,276,152881,1,2,0:0:0:0:
124,276,152974,1,0,0:0:0:0:
262,99,153162,1,0,0:0:0:0:
262,99,153256,1,2,0:0:0:0:
245,225,153443,1,0,0:0:0:0:
243,241,153537,1,0,0:0:0:0:
241,257,153631,1,2,0:0:0:0:
239,273,153724,1,0,0:0:0:0:
238,289,153818,1,0,0:0:0:0:
237,305,153912,1,0,0:0:0:0:
235,321,154006,2,0,P|188:348|133:341,1,112.5,2|0,0:0|0:0,0:0:0:0:
30,216,154381,5,6,0:0:0:0:
171,41,154568,1,0,0:0:0:0:
393,78,154756,1,2,0:0:0:0:
459,292,154943,2,0,B|355:313|305:213|305:213|271:240,1,225
101,340,155506,2,0,P|156:337|202:306,1,112.5,2|0,0:0|0:0,0:0:0:0:
236,107,155881,1,2,0:0:0:0:
277,307,156068,1,0,0:0:0:0:
277,307,156162,1,0,0:0:0:0:
277,307,156256,1,2,0:0:0:0:
429,173,156443,1,0,0:0:0:0:
315,195,156631,1,2,0:0:0:0:
118,147,156818,2,0,B|79:135|79:135|50:147|3:137,2,112.5,0|2|0,0:0|0:0|0:0,0:0:0:0:
177,342,157381,21,2,0:0:0:0:
315,195,157568,1,0,0:0:0:0:
118,147,157756,1,2,0:0:0:0:
247,269,157943,1,0,0:0:0:0:
385,122,158131,1,2,0:0:0:0:
188,74,158318,1,0,0:0:0:0:
315,195,158506,1,2,0:0:0:0:
450,45,158693,6,0,B|513:99|478:178|478:178|415:223,1,225
216,249,159256,2,0,L|323:191,1,112.5,2|0,0:0|0:0,0:0:0:0:
217,338,159631,2,0,P|164:324|133:278,1,112.5,4|0,0:0|0:0,0:0:0:0:
8,145,160006,1,2,0:0:0:0:
20,133,160099,1,0,0:0:0:0:
35,125,160193,1,0,0:0:0:0:
51,120,160287,1,0,0:0:0:0:
67,121,160381,22,0,P|55:177|85:230,1,112.5,6|0,0:0|0:0,0:0:0:0:
133,167,160662,21,0,0:0:0:0:
157,241,160756,22,0,P|199:207|209:153,1,112.5,2|0,0:0|0:0,0:0:0:0:
158,91,161037,5,0,0:0:0:0:
236,82,161131,6,0,P|286:67|344:92,1,112.5,2|0,0:0|0:0,0:0:0:0:
285,143,161412,21,0,0:0:0:0:
271,217,161506,22,0,P|325:207|359:165,1,112.5,2|0,0:0|0:0,0:0:0:0:
414,108,161787,5,0,0:0:0:0:
394,31,161881,6,0,P|449:37|486:78,1,112.5,2|0,0:0|0:0,0:0:0:0:
476,157,162162,21,0,0:0:0:0:
476,157,162256,1,2,0:0:0:0:
426,306,162443,21,0,0:0:0:0:
385,326,162537,1,0,0:0:0:0:
341,337,162631,1,2,0:0:0:0:
296,343,162724,1,0,0:0:0:0:
250,341,162818,1,0,0:0:0:0:
205,332,162912,1,0,0:0:0:0:
166,309,163006,1,2,0:0:0:0:
142,270,163099,1,0,0:0:0:0:
139,224,163193,1,0,0:0:0:0:
154,181,163287,1,0,0:0:0:0:
188,152,163381,22,0,P|232:133|297:152,1,112.5,2|0,0:0|0:0,0:0:0:0:
242,206,163662,21,0,0:0:0:0:
319,222,163756,22,0,P|362:180|367:130,1,112.5,2|0,0:0|0:0,0:0:0:0:
313,72,164037,5,0,0:0:0:0:
235,55,164131,6,0,L|170:60,1,56.25,2|0,0:0|0:0,0:0:0:0:
63,113,164412,2,0,L|128:108,1,56.25
7,171,164693,1,0,0:0:0:0:
114,343,164881,5,2,0:0:0:0:
114,343,164974,1,0,0:0:0:0:
220,198,165162,1,0,0:0:0:0:
220,198,165256,1,2,0:0:0:0:
293,362,165443,1,0,0:0:0:0:
309,360,165537,1,0,0:0:0:0:
325,358,165631,1,2,0:0:0:0:
341,357,165724,1,0,0:0:0:0:
357,356,165818,1,0,0:0:0:0:
373,355,165912,1,0,0:0:0:0:
389,354,166006,2,0,P|445:331|468:276,1,112.5,2|0,0:0|0:0,0:0:0:0:
408,95,166381,21,6,0:0:0:0:
343,284,166568,1,0,0:0:0:0:
507,169,166756,1,2,0:0:0:0:
306,166,166943,2,0,P|200:194|102:144,1,225
324,92,167506,2,0,P|369:122|382:175,1,112.5,2|0,0:0|0:0,0:0:0:0:
239,311,167881,1,2,0:0:0:0:
216,103,168068,1,0,0:0:0:0:
213,86,168162,1,0,0:0:0:0:
211,69,168256,2,0,P|174:121|125:131,2,112.5,2|0|2,0:0|0:0|0:0,0:0:0:0:
228,202,168818,1,0,0:0:0:0:
319,302,169006,1,2,0:0:0:0:
361,174,169193,1,0,0:0:0:0:
269,74,169381,5,6,0:0:0:0:
96,233,169568,1,0,0:0:0:0:
319,302,169756,1,0,0:0:0:0:
228,202,169943,21,0,0:0:0:0:
400,44,170131,1,6,0:0:0:0:
454,272,170318,1,0,0:0:0:0:
361,174,170506,5,2,0:0:0:0:
137,104,170693,1,0,0:0:0:0:
96,233,170881,21,6,0:0:0:0:
111,274,170974,1,0,0:0:0:0:
140,308,171068,1,0,0:0:0:0:
179,329,171162,1,0,0:0:0:0:
222,342,171256,1,6,0:0:0:0:
266,342,171349,1,0,0:0:0:0:
310,333,171443,1,0,0:0:0:0:
350,313,171537,1,0,0:0:0:0:
373,274,171631,5,6,0:0:0:0:
375,229,171724,1,0,0:0:0:0:
350,191,171818,1,0,0:0:0:0:
335,148,171912,1,0,0:0:0:0:
336,102,172006,1,6,0:0:0:0:
355,61,172099,1,0,0:0:0:0:
393,36,172193,1,0,0:0:0:0:
438,33,172287,1,0,0:0:0:0:
470,48,172381,22,0,P|435:76|421:122,2,90,6|0|0,2:2|2:0|2:2,0:0:0:0:
480,203,172943,2,0,P|480:289|402:366,1,180,0|0,0:0|2:0,0:0:0:0:
361,245,173506,1,0,0:0:0:0:
267,327,173693,2,0,P|178:343|91:326,1,180,0|0,0:0|2:0,0:0:0:0:
109,99,174256,1,0,0:0:0:0:
264,156,174443,2,0,B|251:212|194:234|194:234|127:211,1,180
20,99,175006,2,0,P|64:90|109:99,1,90
301,249,175381,6,0,P|343:261|387:253,2,90
463,292,175943,2,0,B|513:249|503:178|503:178|469:135,1,180,0|0,0:0|2:0,0:0:0:0:
389,49,176506,1,0,0:0:0:0:
280,95,176693,2,0,L|238:96,8,22.5,2|2|2|2|2|2|2|2|2,2:0|2:0|2:0|2:0|2:0|2:0|2:0|2:0|2:0,0:0:0:0:
360,182,177256,21,0,0:0:0:0:
360,182,177349,1,0,0:0:0:0:
359,181,177443,2,0,P|373:267|309:325,1,180
77,302,178006,1,0,0:0:0:0:
89,296,178099,1,0,0:0:0:0:
101,290,178193,1,0,0:0:0:0:
113,284,178287,1,0,0:0:0:0:
125,279,178381,6,0,L|189:287,3,45,2|0|0|0,0:0|0:0|0:0|0:0,0:0:0:0:
304,234,178756,2,0,L|260:241,3,45,2|0|0|0,0:0|0:0|0:0|0:0,0:0:0:0:
109,190,179131,2,0,L|-4:173,2,90,2|0|10,1:2|2:0|0:1,0:0:0:0:
218,158,179693,1,0,0:0:0:0:
243,166,179787,1,0,0:0:0:0:
269,168,179881,1,2,0:0:0:0:
294,160,179974,1,0,0:0:0:0:
315,143,180068,1,0,0:0:0:0:
324,117,180162,1,0,0:0:0:0:
336,93,180256,1,2,0:0:0:0:
356,75,180349,1,0,0:0:0:0:
380,63,180443,1,0,0:0:0:0:
406,57,180537,1,0,0:0:0:0:
432,59,180631,1,2,0:0:0:0:
457,67,180724,1,0,0:0:0:0:
478,83,180818,1,0,0:0:0:0:
495,104,180912,1,0,0:0:0:0:
506,128,181006,1,2,0:0:0:0:
509,154,181099,1,0,0:0:0:0:
507,181,181193,1,0,0:0:0:0:
499,206,181287,1,0,0:0:0:0:
482,227,181381,22,0,L|447:265,1,45,2|0,0:0|0:0,0:0:0:0:
361,236,181568,2,0,L|396:198,1,45
386,311,181756,2,0,L|351:349,1,45,2|0,0:0|0:0,0:0:0:0:
264,324,181943,2,0,L|299:286,1,45
278,213,182131,5,2,0:0:0:0:
275,195,182224,1,0,0:0:0:0:
273,177,182318,1,0,0:0:0:0:
270,159,182412,1,0,0:0:0:0:
268,141,182506,2,0,P|225:128|181:137,1,90,2|0,0:0|0:0,0:0:0:0:
141,309,182881,21,2,0:0:0:0:
101,313,182974,1,0,0:0:0:0:
63,298,183068,1,0,0:0:0:0:
35,267,183162,1,0,0:0:0:0:
18,229,183256,1,2,0:0:0:0:
11,189,183349,1,0,0:0:0:0:
12,148,183443,1,0,0:0:0:0:
23,109,183537,1,0,0:0:0:0:
44,74,183631,1,2,0:0:0:0:
73,47,183724,1,0,0:0:0:0:
109,30,183818,1,8,0:0:0:0:
149,24,183912,1,0,0:0:0:0:
189,24,184006,1,2,0:0:0:0:
227,35,184099,1,0,0:0:0:0:
261,56,184193,1,8,0:0:0:0:
299,69,184287,1,0,0:0:0:0:
339,69,184381,6,0,L|400:61,1,45,2|0,0:0|0:0,0:0:0:0:
494,124,184568,2,0,L|449:131,1,45
393,227,184756,2,0,L|500:213,1,90,2|0,0:0|0:0,0:0:0:0:
316,168,185131,1,2,0:0:0:0:
216,175,185318,1,0,1:0:0:0:
216,175,185412,1,0,1:0:0:0:
216,175,185506,2,0,P|215:219|188:257,1,90,2|0,2:2|0:0,0:0:0:0:
81,275,185881,21,2,0:2:0:0:
263,326,186068,1,0,0:0:0:0:
39,197,186256,1,0,0:0:0:0:
346,295,186443,2,0,B|398:315|398:315|463:298|484:233,1,180,2|0,0:2|0:0,0:0:0:0:
332,87,187006,2,0,P|299:119|284:161,1,90,2|0,1:2|0:0,0:0:0:0:
388,184,187381,5,2,0:0:0:0:
355,207,187474,1,0,0:0:0:0:
317,222,187568,1,0,0:0:0:0:
276,228,187662,1,0,0:0:0:0:
235,224,187756,1,2,0:0:0:0:
196,212,187849,1,0,0:0:0:0:
164,186,187943,1,0,0:0:0:0:
140,152,188037,1,0,0:0:0:0:
55,101,188131,21,2,0:0:0:0:
83,72,188224,1,0,0:0:0:0:
118,52,188318,1,0,0:0:0:0:
158,45,188412,1,0,0:0:0:0:
198,43,188506,1,2,0:0:0:0:
237,49,188599,1,0,0:0:0:0:
272,68,188693,1,0,0:0:0:0:
304,92,188787,1,0,0:0:0:0:
325,126,188881,5,2,0:0:0:0:
156,250,189068,1,0,0:0:0:0:
192,118,189256,1,0,0:0:0:0:
303,268,189443,2,0,P|390:285|478:267,1,180
449,69,190006,2,0,P|405:58|362:70,1,90,2|0,0:0|0:0,0:0:0:0:
297,342,190381,6,0,L|297:381,24,22.5,2|2|2|2|2|2|2|2|2|2|2|2|2|2|2|2|2|2|2|2|2|2|2|2|2,0:0|0:0|0:0|0:0|0:0|0:0|0:0|0:0|0:0|0:0|0:0|0:0|0:0|0:0|0:0|0:0|0:0|0:0|0:0|0:0|0:0|0:0|0:0|0:0|0:0,0:0:0:0:
297,106,191693,5,0,0:0:0:0:
297,106,191787,1,0,0:0:0:0:
297,106,191881,2,0,L|298:18,1,45,2|0,0:0|0:0,0:0:0:0:
207,264,192162,2,0,L|134:302,1,45,0|2,0:0|0:0,0:0:0:0:
389,264,192443,2,0,L|459:307,1,45
296,212,192631,5,2,0:0:0:0:
296,212,192724,1,0,0:0:0:0:
131,118,192912,1,0,0:0:0:0:
131,118,193006,1,2,0:0:0:0:
132,307,193193,1,0,0:0:0:0:
187,215,193381,22,0,L|227:150,3,45,2|0|0|0,0:0|0:0|0:0|0:0,0:0:0:0:
218,90,193756,2,0,L|267:85,3,45,2|0|0|0,0:0|0:0|0:0|0:0,0:0:0:0:
337,40,194131,1,2,0:0:0:0:
352,48,194224,1,0,0:0:0:0:
367,57,194318,1,0,0:0:0:0:
382,66,194412,1,0,0:0:0:0:
397,75,194506,1,2,0:0:0:0:
412,84,194599,1,0,0:0:0:0:
427,93,194693,1,0,0:0:0:0:
442,102,194787,1,0,0:0:0:0:
457,111,194881,6,0,L|479:177,3,45,2|0|0|0,0:0|0:0|0:0|0:0,0:0:0:0:
480,233,195256,1,2,0:0:0:0:
451,255,195349,1,0,0:0:0:0:
417,266,195443,1,0,0:0:0:0:
382,267,195537,1,0,0:0:0:0:
347,257,195631,1,2,0:0:0:0:
316,239,195724,1,0,0:0:0:0:
286,218,195818,1,0,0:0:0:0:
256,199,195912,1,0,0:0:0:0:
223,185,196006,1,2,0:0:0:0:
187,180,196099,1,0,0:0:0:0:
152,183,196193,1,0,0:0:0:0:
117,194,196287,1,0,0:0:0:0:
86,213,196381,21,0,0:0:0:0:
233,338,196568,1,0,0:0:0:0:
218,344,196943,1,0,0:0:0:0:
415,268,197131,1,0,0:0:0:0:
433,261,197506,1,0,0:0:0:0:
433,261,197693,2,0,L|477:178,2,90,0|0|0,0:0|0:0|0:0,0:0:0:0:
337,340,198256,1,0,0:0:0:0:
220,180,198443,2,0,P|133:158|46:178,1,180,0|0,0:0|2:0,0:0:0:0:
178,247,199006,2,0,P|221:257|264:247,1,90,0|0,0:0|2:0,0:0:0:0:
300,26,199381,5,0,0:0:0:0:
454,183,199568,1,0,0:0:0:0:
469,177,199943,1,0,0:0:0:0:
241,238,200131,1,0,0:0:0:0:
233,255,200506,1,0,0:0:0:0:
232,254,200693,2,0,P|319:275|407:258,1,180,0|0,0:0|2:0,0:0:0:0:
235,131,201256,1,0,0:0:0:0:
235,131,201443,2,0,P|150:107|65:132,1,180,0|0,0:0|2:0,0:0:0:0:
191,196,202006,2,0,P|233:209|276:198,1,90,0|0,0:0|2:0,0:0:0:0:
312,133,202381,21,0,0:0:0:0:
142,258,202568,1,0,0:0:0:0:
128,250,202943,1,0,0:0:0:0:
336,343,203131,1,0,0:0:0:0:
357,335,203506,1,0,0:0:0:0:
357,335,203693,2,0,L|445:349,2,90
277,217,204256,1,0,0:0:0:0:
141,292,204443,2,0,B|82:303|82:303|17:288|8:218,1,180,0|0,0:0|2:0,0:0:0:0:
134,98,205006,2,0,P|163:130|171:174,1,90,0|0,0:0|2:0,0:0:0:0:
121,330,205381,5,0,0:0:0:0:
121,330,205474,1,0,0:0:0:0:
390,342,205662,1,0,0:0:0:0:
390,342,205756,1,0,0:0:0:0:
266,102,205943,1,0,0:0:0:0:
188,212,206131,21,0,0:0:0:0:
188,212,206224,1,0,0:0:0:0:
401,102,206412,1,0,0:0:0:0:
401,102,206506,1,0,0:0:0:0:
390,342,206693,1,0,0:0:0:0:
326,218,206881,5,0,0:0:0:0:
293,203,206974,1,0,0:0:0:0:
257,196,207068,1,8,0:0:0:0:
222,207,207162,1,0,0:0:0:0:
194,230,207256,1,0,0:0:0:0:
161,244,207349,1,0,0:0:0:0:
124,246,207443,1,8,0:0:0:0:
89,236,207537,1,0,0:0:0:0:
60,213,207631,21,0,0:0:0:0:
46,179,207724,1,0,0:0:0:0:
39,143,207818,1,8,0:0:0:0:
46,107,207912,1,0,0:0:0:0:
62,75,208006,1,0,0:0:0:0:
91,54,208099,1,0,0:0:0:0:
126,45,208193,1,8,0:0:0:0:
161,42,208287,1,0,0:0:0:0:
195,52,208381,6,0,L|242:75,3,45
289,124,208756,2,0,L|353:100,3,45
403,81,209131,2,0,L|441:98,5,30
489,147,209506,2,0,L|501:178,7,22.5
512,244,209881,22,2,B|469:273|469:273|432:261|432:261|397:269|397:269|360:264|360:264|286:287|197:265,1,315,0|2,2:0|2:1,1:0:0:0:
233,360,210631,2,0,P|167:346|122:298,1,135,2|0,2:0|2:0,0:0:0:0:
51,360,211006,2,0,P|29:297|49:233,1,135,2|0,2:0|2:0,0:0:0:0:
131,215,211381,6,0,P|168:180|169:113,1,112.5,12|0,0:1|0:0,0:0:0:0:
96,144,211662,5,0,0:0:0:0:
116,66,211756,6,0,P|167:46|220:59,1,112.5,2|0,0:0|0:0,0:0:0:0:
253,131,212037,21,0,0:0:0:0:
299,66,212131,22,0,P|328:112|320:167,1,112.5,2|0,0:0|0:0,0:0:0:0:
391,205,212412,5,0,0:0:0:0:
420,277,212506,6,0,P|365:278|322:244,1,112.5,2|0,0:0|0:0,0:0:0:0:
250,211,212787,21,0,0:0:0:0:
259,289,212881,22,0,P|206:277|173:232,1,112.5,2|0,0:0|0:0,0:0:0:0:
178,154,213162,5,0,0:0:0:0:
178,154,213256,1,2,0:0:0:0:
282,36,213443,5,0,0:0:0:0:
326,28,213537,1,0,0:0:0:0:
370,33,213631,1,2,0:0:0:0:
412,46,213724,1,0,0:0:0:0:
450,69,213818,1,0,0:0:0:0:
478,104,213912,1,0,0:0:0:0:
489,147,214006,1,2,0:0:0:0:
492,191,214099,1,0,0:0:0:0:
486,235,214193,1,0,0:0:0:0:
472,278,214287,1,0,0:0:0:0:
443,313,214381,6,0,P|392:343|336:335,1,112.5,2|0,0:0|0:0,0:0:0:0:
379,268,214662,5,0,0:0:0:0:
300,271,214756,6,0,P|249:249|194:265,1,112.5,2|0,0:0|0:0,0:0:0:0:
243,326,215037,21,0,0:0:0:0:
164,335,215131,22,0,L|93:335,1,56.25,2|0,0:0|0:0,0:0:0:0:
253,171,215412,2,0,L|324:171,1,56.25,0|2,0:0|0:0,0:0:0:0:
102,220,215693,1,0,0:0:0:0:
382,193,215881,22,0,L|441:192,1,56.25,2|0,0:0|0:0,0:0:0:0:
154,133,216162,2,0,L|95:134,1,56.25,0|2,0:0|0:0,0:0:0:0:
290,75,216443,1,0,0:0:0:0:
293,108,216537,1,0,0:0:0:0:
290,141,216631,1,2,0:0:0:0:
272,169,216724,1,0,0:0:0:0:
248,193,216818,1,0,0:0:0:0:
235,224,216912,1,0,0:0:0:0:
230,257,217006,2,0,P|238:313|273:357,1,112.5,2|0,0:0|0:0,0:0:0:0:
457,272,217381,5,4,0:0:0:0:
438,70,217568,1,0,0:0:0:0:
236,97,217756,1,2,0:0:0:0:
254,297,217943,2,0,P|146:323|37:300,1,225
7,54,218506,2,0,P|61:41|116:51,1,112.5,2|0,0:0|0:0,0:0:0:0:
222,236,218881,1,2,0:0:0:0:
390,123,219068,1,0,0:0:0:0:
390,123,219162,1,0,0:0:0:0:
390,123,219256,1,2,0:0:0:0:
204,36,219443,1,0,0:0:0:0:
307,182,219631,1,2,0:0:0:0:
481,171,219818,2,0,P|495:118|477:65,2,112.5,0|2|0,0:0|0:0|0:0,0:0:0:0:
271,129,220381,21,2,0:0:0:0:
111,46,220568,1,0,0:0:0:0:
148,222,220756,1,2,0:0:0:0:
210,177,220943,1,0,0:0:0:0:
50,94,221131,1,2,0:0:0:0:
87,270,221318,1,0,0:0:0:0:
148,222,221506,1,2,0:0:0:0:
221,60,221693,6,0,P|327:29|434:59,1,225
495,303,222256,2,0,P|441:318|387:306,1,112.5,2|0,0:0|0:0,0:0:0:0:
275,198,222631,2,0,P|220:185|166:200,1,112.5,2|0,0:0|0:0,0:0:0:0:
29,305,223006,1,2,0:0:0:0:
15,295,223099,1,0,0:0:0:0:
6,280,223193,1,0,0:0:0:0:
2,263,223287,1,0,0:0:0:0:
3,246,223381,22,0,P|55:263|111:242,1,112.5,6|0,0:0|0:0,0:0:0:0:
55,185,223662,21,0,0:0:0:0:
51,106,223756,22,0,P|103:123|132:171,1,112.5,2|0,0:0|0:0,0:0:0:0:
208,156,224037,5,0,0:0:0:0:
182,231,224131,6,0,P|237:227|276:189,1,112.5,2|0,0:0|0:0,0:0:0:0:
272,110,224412,21,0,0:0:0:0:
199,77,224506,22,0,P|238:39|293:33,1,112.5,2|0,0:0|0:0,0:0:0:0:
348,89,224787,5,0,0:0:0:0:
366,12,224881,6,0,P|411:42|425:95,1,112.5,2|0,0:0|0:0,0:0:0:0:
381,161,225162,21,0,0:0:0:0:
381,161,225256,1,2,0:0:0:0:
257,258,225443,5,0,0:0:0:0:
277,298,225537,1,0,0:0:0:0:
316,319,225631,1,2,0:0:0:0:
360,326,225724,1,0,0:0:0:0:
405,327,225818,1,0,0:0:0:0:
446,308,225912,1,0,0:0:0:0:
478,276,226006,1,2,0:0:0:0:
492,233,226099,1,0,0:0:0:0:
492,187,226193,1,0,0:0:0:0:
473,145,226287,1,0,0:0:0:0:
442,110,226381,6,0,P|394:88|330:102,1,112.5,2|0,0:0|0:0,0:0:0:0:
303,168,226662,5,0,0:0:0:0:
318,244,226756,6,0,P|364:213|381:161,1,112.5,2|0,0:0|0:0,0:0:0:0:
303,168,227037,21,0,0:0:0:0:
228,144,227131,22,0,L|228:80,1,56.25,2|0,0:0|0:0,0:0:0:0:
98,228,227412,2,0,L|98:292,1,56.25,0|2,0:0|0:0,0:0:0:0:
94,68,227693,1,0,0:0:0:0:
138,148,227881,21,2,0:0:0:0:
138,148,227974,1,0,0:0:0:0:
6,257,228162,1,0,0:0:0:0:
6,257,228256,1,2,0:0:0:0:
165,318,228443,1,0,0:0:0:0:
195,332,228537,1,0,0:0:0:0:
228,335,228631,1,2,0:0:0:0:
260,327,228724,1,0,0:0:0:0:
290,311,228818,1,0,0:0:0:0:
309,283,228912,1,0,0:0:0:0:
318,250,229006,2,0,P|366:277|421:277,1,112.5,2|0,0:0|0:0,0:0:0:0:
410,110,229381,5,6,0:0:0:0:
205,18,229568,1,0,0:0:0:0:
229,243,229756,1,2,0:0:0:0:
280,125,229943,2,0,P|174:95|67:127,1,225
11,323,230506,2,0,P|64:337|118:323,1,112.5,2|0,0:0|0:0,0:0:0:0:
175,175,230881,1,6,0:0:0:0:
275,295,231068,1,0,0:0:0:0:
118,323,231256,1,2,0:0:0:0:
189,266,231443,21,0,0:0:0:0:
189,266,231537,1,0,0:0:0:0:
189,266,231631,1,2,0:0:0:0:
338,155,231818,1,0,0:0:0:0:
223,82,232006,1,2,0:0:0:0:
126,176,232193,1,0,0:0:0:0:
5,113,232381,6,0,L|-12:50,1,56.25,6|0,0:0|0:0,0:0:0:0:
46,188,232568,2,0,L|63:251,1,56.25
85,102,232756,2,0,L|68:39,1,56.25,2|0,0:0|0:0,0:0:0:0:
126,176,232943,2,0,L|143:239,1,56.25
161,90,233131,1,6,0:0:0:0:
226,230,233318,1,0,0:0:0:0:
226,230,233412,1,0,0:0:0:0:
226,230,233506,2,0,P|281:239|336:229,1,112.5,2|0,0:0|0:0,0:0:0:0:
392,341,233881,21,6,0:0:0:0:
441,331,233974,1,0,0:0:0:0:
480,299,234068,1,0,0:0:0:0:
502,253,234162,1,0,0:0:0:0:
508,202,234256,1,6,0:0:0:0:
501,152,234349,1,0,0:0:0:0:
482,104,234443,1,0,0:0:0:0:
445,68,234537,1,0,0:0:0:0:
395,56,234631,5,6,0:0:0:0:
373,61,234724,1,0,0:0:0:0:
351,66,234818,1,0,0:0:0:0:
329,71,234912,1,0,0:0:0:0:
307,76,235006,1,6,0:0:0:0:
285,82,235099,1,0,0:0:0:0:
263,88,235193,1,0,0:0:0:0:
240,94,235287,1,0,0:0:0:0:
219,101,235381,22,0,P|165:115|113:95,1,112.5,12|0,0:1|0:0,0:0:0:0:
169,40,235662,21,0,0:0:0:0:
92,22,235756,22,0,P|50:52|39:108,1,112.5,2|0,0:0|0:0,0:0:0:0:
87,171,236037,5,0,0:0:0:0:
9,183,236131,6,0,P|37:230|88:249,1,112.5,2|0,0:0|0:0,0:0:0:0:
158,212,236412,21,0,0:0:0:0:
158,133,236506,22,0,P|209:152|235:201,1,112.5,2|0,0:0|0:0,0:0:0:0:
207,274,236787,5,0,0:0:0:0:
129,289,236881,6,0,P|156:336|208:353,1,112.5,2|0,0:0|0:0,0:0:0:0:
278,316,237162,21,0,0:0:0:0:
278,316,237256,1,2,0:0:0:0:
256,160,237443,21,0,0:0:0:0:
288,128,237537,1,0,0:0:0:0:
331,117,237631,1,2,0:0:0:0:
375,116,237724,1,0,0:0:0:0:
417,130,237818,1,0,0:0:0:0:
455,152,237912,1,0,0:0:0:0:
472,193,238006,1,2,0:0:0:0:
482,236,238099,1,0,0:0:0:0:
475,280,238193,1,0,0:0:0:0:
455,320,238287,1,0,0:0:0:0:
416,344,238381,22,0,P|362:356|311:335,1,112.5,2|0,0:0|0:0,0:0:0:0:
293,260,238662,21,0,0:0:0:0:
236,315,238756,22,0,P|216:264|232:212,1,112.5,2|0,0:0|0:0,0:0:0:0:
305,182,239037,5,0,0:0:0:0:
368,135,239131,6,0,L|368:69,1,56.25,2|0,0:0|0:0,0:0:0:0:
233,156,239412,2,0,L|233:222,1,56.25,0|2,0:0|0:0,0:0:0:0:
123,92,239693,1,0,0:0:0:0:
28,221,239881,5,2,0:0:0:0:
28,221,239974,1,0,0:0:0:0:
154,333,240162,1,0,0:0:0:0:
154,333,240256,1,2,0:0:0:0:
189,170,240443,1,0,0:0:0:0:
221,180,240537,1,0,0:0:0:0:
254,181,240631,1,2,0:0:0:0:
286,174,240724,1,0,0:0:0:0:
315,156,240818,1,0,0:0:0:0:
334,128,240912,1,0,0:0:0:0:
342,94,241006,2,0,P|396:83|451:94,1,112.5,2|0,0:0|0:0,0:0:0:0:
498,315,241381,21,6,0:0:0:0:
318,328,241568,1,0,0:0:0:0:
399,165,241756,1,0,0:0:0:0:
401,267,241943,2,0,P|292:289|182:268,1,225
5,196,242506,2,0,P|60:186|115:194,1,112.5,2|0,0:0|0:0,0:0:0:0:
161,356,242881,1,2,0:0:0:0:
283,299,243068,1,0,0:0:0:0:
215,181,243256,1,2,0:0:0:0:
256,53,243443,1,0,0:0:0:0:
256,53,243537,1,0,0:0:0:0:
256,53,243631,1,2,0:0:0:0:
347,151,243818,2,0,P|402:161|457:151,2,112.5,0|2|0,0:0|0:0|0:0,0:0:0:0:
132,86,244381,5,2,0:0:0:0:
45,255,244568,1,0,0:0:0:0:
236,246,244756,1,2,0:0:0:0:
136,196,244943,1,0,0:0:0:0:
238,356,245131,1,2,0:0:0:0:
326,186,245318,1,0,0:0:0:0:
236,246,245506,1,2,0:0:0:0:
425,237,245693,2,0,B|499:182|467:89|467:89|413:65,1,225
235,145,246256,2,0,P|182:161|129:146,1,112.5,2|0,0:0|0:0,0:0:0:0:
1,52,246631,2,0,P|54:35|107:50,1,112.5,2|0,0:0|0:0,0:0:0:0:
184,235,247006,1,2,0:0:0:0:
188,251,247099,1,0,0:0:0:0:
197,265,247193,1,0,0:0:0:0:
209,276,247287,1,0,0:0:0:0:
223,283,247381,22,0,P|241:226|298:197,1,112.5,6|0,0:0|0:0,0:0:0:0:
300,276,247662,21,0,0:0:0:0:
267,347,247756,22,0,P|321:350|365:316,1,112.5,2|0,0:0|0:0,0:0:0:0:
369,238,248037,5,0,0:0:0:0:
436,278,248131,6,0,P|445:224|417:176,1,112.5,2|0,0:0|0:0,0:0:0:0:
390,104,248412,21,0,0:0:0:0:
338,164,248506,22,0,P|284:165|244:128,1,112.5,2|0,0:0|0:0,0:0:0:0:
313,89,248787,5,0,0:0:0:0:
242,50,248881,6,0,P|191:70|168:119,1,112.5,2|0,0:0|0:0,0:0:0:0:
196,193,249162,21,0,0:0:0:0:
196,193,249256,1,2,0:0:0:0:
114,327,249443,21,0,0:0:0:0:
73,307,249537,1,0,0:0:0:0:
42,273,249631,1,2,0:0:0:0:
25,231,249724,1,0,0:0:0:0:
17,186,249818,1,0,0:0:0:0:
20,140,249912,1,0,0:0:0:0:
39,99,250006,1,2,0:0:0:0:
67,64,250099,1,0,0:0:0:0:
108,45,250193,1,0,0:0:0:0:
152,39,250287,1,0,0:0:0:0:
196,47,250381,22,0,P|246:69|301:61,1,112.5,2|0,0:0|0:0,0:0:0:0:
371,24,250662,21,0,0:0:0:0:
445,44,250756,22,0,P|467:96|451:149,1,112.5,2|0,0:0|0:0,0:0:0:0:
390,100,251037,5,0,0:0:0:0:
378,178,251131,6,0,L|378:248,1,56.25,2|0,0:0|0:0,0:0:0:0:
221,170,251412,2,0,L|221:100,1,56.25,0|2,0:0|0:0,0:0:0:0:
290,301,251693,1,0,0:0:0:0:
299,174,251881,5,2,0:0:0:0:
299,174,251974,1,0,0:0:0:0:
205,302,252162,1,0,0:0:0:0:
205,302,252256,1,2,0:0:0:0:
136,163,252443,1,0,0:0:0:0:
125,143,252537,1,0,0:0:0:0:
114,123,252631,1,2,0:0:0:0:
103,103,252724,1,0,0:0:0:0:
92,83,252818,1,0,0:0:0:0:
80,63,252912,1,0,0:0:0:0:
67,43,253006,2,0,P|9:109|14:193,1,168.75,2|0,0:0|0:0,0:0:0:0:
43,258,253381,21,6,0:0:0:0:
174,321,253568,1,0,0:0:0:0:
274,213,253756,1,2,0:0:0:0:
382,310,253943,2,0,B|441:324|441:324|517:282|493:180,1,225
328,35,254506,2,0,P|317:89|332:143,1,112.5,2|0,0:0|0:0,0:0:0:0:
458,77,254881,1,2,0:0:0:0:
407,201,255068,1,0,0:0:0:0:
407,201,255162,1,0,0:0:0:0:
407,201,255256,1,2,0:0:0:0:
274,213,255443,1,0,0:0:0:0:
194,105,255631,1,2,0:0:0:0:
70,160,255818,2,0,P|58:214|69:269,2,112.5,0|2|0,0:0|0:0|0:0,0:0:0:0:
154,25,256381,5,6,0:0:0:0:
374,68,256568,1,0,0:0:0:0:
226,238,256756,1,2,0:0:0:0:
252,115,256943,1,0,0:0:0:0:
37,187,257131,1,6,0:0:0:0:
206,334,257318,1,0,0:0:0:0:
165,214,257506,1,2,0:0:0:0:
377,143,257693,1,0,0:0:0:0:
332,364,257881,21,6,0:0:0:0:
282,368,257974,1,0,0:0:0:0:
231,367,258068,1,0,0:0:0:0:
180,360,258162,1,0,0:0:0:0:
133,340,258256,1,6,0:0:0:0:
93,308,258349,1,0,0:0:0:0:
70,262,258443,1,0,0:0:0:0:
62,211,258537,1,0,0:0:0:0:
68,160,258631,1,6,0:0:0:0:
94,117,258724,1,0,0:0:0:0:
138,93,258818,1,0,0:0:0:0:
188,89,258912,1,0,0:0:0:0:
235,107,259006,1,6,0:0:0:0:
282,124,259099,1,0,0:0:0:0:
332,124,259193,1,0,0:0:0:0:
376,100,259287,1,0,0:0:0:0:
400,55,259381,5,4,0:0:0:0:
465,300,260131,2,0,P|399:311|340:280,1,135.000005149842,0|0,0:0|0:0,0:0:0:0:
120,90,260881,1,0,0:0:0:0:
64,148,261068,2,0,L|28:147,1,33.7500012874604
44,329,261443,2,0,P|126:356|256:318,1,202.500007724762,0|0,0:0|0:0,0:0:0:0:
335,62,262381,21,0,0:0:0:0:
434,233,263131,1,0,0:0:0:0:
340,272,263412,1,0,0:0:0:0:
354,171,263693,1,0,0:0:0:0:
241,75,263881,1,0,0:0:0:0:
159,135,264162,1,0,0:0:0:0:
251,176,264443,1,0,0:0:0:0:
257,320,265006,5,0,0:0:0:0:
122,308,265381,2,0,B|59:316|59:316|-16:276|1:188,1,202.500007724762
87,44,266318,1,0,0:0:0:0:
167,52,266506,1,0,0:0:0:0:
247,62,266693,1,0,0:0:0:0:
327,72,266881,2,0,L|399:79,2,67.5000025749208
167,52,267443,1,0,0:0:0:0:
207,281,267818,21,0,0:0:0:0:
284,259,268006,1,0,0:0:0:0:
343,204,268193,1,0,0:0:0:0:
423,213,268381,1,0,0:0:0:0:
