osu file format v12

[General]
AudioFilename: tsuki.mp3
AudioLeadIn: 1500
PreviewTime: 62031
Countdown: 0
SampleSet: Soft
StackLeniency: 0.7
Mode: 0
LetterboxInBreaks: 0
SkinPreference:Default
WidescreenStoryboard: 1

[Editor]
Bookmarks: 13375,25375,62875,74875,86875,98875,110875,148375,160375,172375,196375,209875,211375,223375,235375,247375,259375,268375,274375
DistanceSpacing: 1.2
BeatDivisor: 4
GridSize: 4

[Metadata]
Title:Tsuki ni Murakumo Hana ni Kaze
TitleUnicode:月に叢雲華に風
Artist:senya
ArtistUnicode:senya
Creator:Scorpiour
Version:Hard
Source:Touhou
Tags:ZUN Komeiji Koishi Last Remote Subterranean Animism th11 Yuuhei Satellite
BeatmapID:344043
BeatmapSetID:82088

[Difficulty]
HPDrainRate:5
CircleSize:4
OverallDifficulty:6
ApproachRate:8
SliderMultiplier:1.5
SliderTickRate:1

[Events]
//Background and Video events
0,0,"bg3.jpg",0,0
//Break Periods
2,13581,24631
//Storyboard Layer 0 (Background)
//Storyboard Layer 1 (Fail)
//Storyboard Layer 2 (Pass)
//Storyboard Layer 3 (Foreground)
//Storyboard Sound Samples
//Background Colour Transformations
3,100,0,0,0

[TimingPoints]
-119,375,4,2,1,50,1,0
256,-133.333333333333,4,2,1,50,0,0
37381,-100,4,2,1,60,0,0
49381,-100,4,1,1,45,0,0
62881,-100,4,2,1,60,0,1
74834,-100,4,2,1,60,0,0
74881,-100,4,2,1,60,0,1
86881,-100,4,2,1,60,0,0
98131,-100,4,2,1,60,0,0
121381,-100,4,2,1,60,0,0
122881,-100,4,2,1,60,0,0
148381,-100,4,2,1,60,0,1
160287,-100,4,2,1,60,0,0
160381,-100,4,2,1,60,0,1
172381,-100,4,2,1,60,0,0
190662,-100,4,2,1,55,0,0
190756,-100,4,2,1,50,0,0
190849,-100,4,2,1,45,0,0
190943,-100,4,2,1,40,0,0
191037,-100,4,2,1,35,0,0
191131,-100,4,2,1,30,0,0
191224,-100,4,2,1,25,0,0
191318,-100,4,2,1,20,0,0
191412,-100,4,2,1,15,0,0
191506,-100,4,2,1,10,0,0
191599,-100,4,2,1,60,0,0
211381,-100,4,2,1,60,0,1
235287,-100,4,2,1,60,0,0
235381,-100,4,2,1,60,0,1
259381,-100,4,2,1,20,0,0

[Colours]
Combo1 : 128,255,255
Combo2 : 128,255,128

[HitObjects]
356,305,631,2,0,P|301:314|246:303,1,112.500004291535
124,91,1381,5,0,0:0:0:0:
72,150,1568,1,0,0:0:0:0:
115,215,1756,1,0,0:0:0:0:
191,196,1943,1,0,0:0:0:0:
197,116,2131,2,0,P|250:100|303:116,1,112.500004291535
362,169,2693,1,0,0:0:0:0:
438,148,2881,2,0,L|458:95,1,56.2500021457673
464,252,3443,1,0,0:0:0:0:
408,307,3631,2,0,L|351:324,1,56.2500021457673
244,292,4006,2,0,L|301:275,1,56.2500021457673
148,288,4381,6,0,B|98:305|98:305|34:293|32:223,1,168.750006437302
88,131,5131,2,0,L|72:40,2,84.3750032186509
181,141,5881,2,0,L|197:232,2,84.3750032186509
215,305,7006,1,0,0:0:0:0:
283,208,7381,6,0,B|271:147|271:147|306:105|371:109,1,168.750006437302,0|0,0:0|0:0,0:0:0:0:
475,273,8318,1,0,0:0:0:0:
404,307,8506,1,0,0:0:0:0:
326,318,8693,1,0,0:0:0:0:
247,320,8881,1,0,0:0:0:0:
169,307,9068,1,0,0:0:0:0:
94,282,9256,2,0,L|37:255,1,56.2500021457673
284,241,9818,5,0,0:0:0:0:
351,200,10006,1,0,0:0:0:0:
365,122,10193,1,0,0:0:0:0:
331,50,10381,1,0,0:0:0:0:
256,192,10474,12,0,13381,0:0:0:0:
35,77,25381,6,0,P|115:55|196:74,1,168.750006437302
303,189,26131,2,0,P|222:211|143:185,1,168.750006437302
253,127,26881,2,0,P|307:112|360:129,1,112.500004291535
418,172,27443,1,0,0:0:0:0:
475,127,27631,1,0,0:0:0:0:
434,287,28006,2,0,B|381:337,1,56.2500021457673
280,324,28381,6,0,L|381:228,1,112.500004291535
353,115,28943,2,0,L|252:211,1,112.500004291535
153,219,29506,2,0,L|212:162,1,56.2500021457673
182,292,29881,1,0,0:0:0:0:
109,280,30068,1,0,0:0:0:0:
78,213,30256,1,0,0:0:0:0:
118,151,30443,2,0,P|135:99|127:44,1,112.500004291535
39,149,31006,2,0,L|109:153,1,56.2500021457673
231,185,31381,6,0,L|349:163,1,112.500004291535
417,283,31943,2,0,L|299:305,1,112.500004291535
403,206,32506,2,0,L|480:192,1,56.2500021457673
333,219,32881,1,0,0:0:0:0:
136,302,33256,1,0,0:0:0:0:
49,106,33631,1,0,0:0:0:0:
246,23,34006,1,0,0:0:0:0:
333,219,34381,6,0,L|340:287,2,56.2500021457673
401,318,34943,2,0,P|352:344|298:336,1,112.500004291535
241,281,35506,1,0,0:0:0:0:
118,147,35881,6,0,L|48:154,1,56.2500021457673
231,155,36256,2,0,L|301:148,1,56.2500021457673
169,209,36631,2,0,L|176:279,1,56.2500021457673
177,96,37006,2,0,L|170:26,1,56.2500021457673
174,264,37381,5,0,0:0:0:0:
270,283,37568,1,0,0:0:0:0:
346,221,37756,1,8,0:1:0:0:
409,294,37943,1,0,0:0:0:0:
485,232,38131,2,0,L|497:158,1,75
395,84,38506,2,0,L|382:157,1,75,8|0,0:1|0:0,0:0:0:0:
260,201,38881,6,0,L|272:127,2,75,0|0|8,0:0|0:0|0:1,0:0:0:0:
243,299,39443,1,0,0:0:0:0:
120,143,39818,2,0,B|131:73|131:73|102:45|58:47,1,150
26,182,40381,6,0,L|34:264,1,75
108,319,40756,1,8,0:1:0:0:
178,252,40943,1,0,0:0:0:0:
271,281,41131,2,0,L|360:268,1,75
372,144,41506,2,0,L|461:131,1,75,8|0,0:1|0:0,0:0:0:0:
297,191,41881,2,0,B|239:199|239:199|209:165|221:99,2,150,0|8|0,0:0|0:1|0:0,0:0:0:0:
371,66,42818,1,0,0:0:0:0:
441,192,43006,2,0,P|445:229|441:266,1,75,8|0,0:1|0:0,0:0:0:0:
298,265,43381,6,0,P|293:227|297:190,1,75,4|0,0:0|0:0,0:0:0:0:
371,66,43756,2,0,P|375:103|371:140,1,75,8|0,0:1|0:0,0:0:0:0:
210,225,44131,2,0,P|136:238|63:223,1,150,0|8,0:0|0:1,0:0:0:0:
66,40,44693,2,0,P|139:26|212:41,1,150
315,135,45256,2,0,P|277:140|240:135,1,75,8|0,0:1|0:0,0:0:0:0:
379,63,45631,1,0,0:0:0:0:
469,103,45818,1,0,0:0:0:0:
459,199,46006,1,8,0:1:0:0:
363,220,46193,1,0,0:0:0:0:
315,135,46381,6,0,L|226:124,2,75,0|0|8,0:0|0:0|0:1,0:0:0:0:
192,187,46943,2,0,L|103:198,2,75,0|0|0,0:0|0:0|0:0,0:0:0:0:
80,269,47506,2,0,L|-9:258,1,75,8|0,0:1|0:0,0:0:0:0:
159,319,47881,1,4,0:0:0:0:
254,336,48068,1,0,0:0:0:0:
351,334,48256,1,8,0:1:0:0:
445,309,48443,1,0,0:0:0:0:
501,229,48631,2,0,L|513:178,3,37.5
446,151,49006,2,0,L|437:111,3,37.5,8|0|0|0,0:1|0:0|0:0|0:0,0:0:0:0:
485,53,49381,5,0,0:0:0:0:
299,258,49943,1,0,0:0:0:0:
77,94,50506,1,0,0:0:0:0:
76,94,50693,2,0,P|149:76|221:91,1,150
292,162,51256,1,0,0:0:0:0:
298,258,51443,2,0,P|372:273|445:259,1,150
292,162,52006,2,0,P|254:156|218:162,1,75
98,315,52381,5,0,0:0:0:0:
44,41,52943,1,0,0:0:0:0:
256,233,53506,1,0,0:0:0:0:
352,188,53693,2,0,P|426:173|499:186,1,150
428,269,54256,1,0,0:0:0:0:
328,321,54443,2,0,P|254:333|181:317,1,150
28,251,55006,2,0,P|64:240|101:247,1,75
253,357,55381,5,0,0:0:0:0:
150,115,55943,1,0,0:0:0:0:
412,147,56506,1,0,0:0:0:0:
268,205,56693,2,0,P|194:218|121:203,1,150
252,104,57256,1,0,0:0:0:0:
401,37,57443,2,0,B|451:40|451:40|488:73|484:130,1,150
386,245,58006,2,0,P|379:209|384:172,1,75
447,308,58381,6,0,P|389:329|325:308,1,112.5
270,283,58756,2,0,P|224:276|189:284,1,75
70,340,59131,2,0,P|48:289|51:234,1,112.5
86,158,59506,2,0,P|95:122|92:85,1,75
131,226,59881,2,0,L|190:241,3,37.5
238,192,60256,2,0,L|288:182,3,37.5
321,250,60631,2,0,L|373:267,3,37.5
413,196,61006,2,0,L|457:188,3,37.5
256,192,61381,12,0,62506,0:0:0:0:
351,274,62881,6,0,P|277:285|207:261,1,150,2|0,0:0|0:0,0:0:0:0:
163,182,63443,1,0,0:0:0:0:
89,129,63631,2,0,L|14:118,1,75,2|0,0:0|0:0,0:0:0:0:
8,236,64006,2,0,L|82:225,1,75,2|0,0:0|0:0,0:0:0:0:
163,182,64381,1,2,0:0:0:0:
249,206,64568,1,0,0:0:0:0:
322,153,64756,2,0,L|334:74,1,75,2|0,0:0|0:0,0:0:0:0:
388,222,65131,2,0,L|376:301,1,75,2|0,0:0|0:0,0:0:0:0:
473,183,65506,2,0,L|461:104,1,75,2|0,0:0|0:0,0:0:0:0:
466,274,65881,5,2,0:0:0:0:
466,274,66068,1,0,0:0:0:0:
395,131,66256,1,2,0:0:0:0:
395,131,66443,1,0,0:0:0:0:
307,265,66631,2,0,P|252:274|197:263,1,112.5,2|0,0:0|0:0,0:0:0:0:
184,344,67006,2,0,P|149:333|124:306,1,75,2|0,0:0|0:0,0:0:0:0:
6,188,67381,2,0,P|48:152|103:145,1,112.5,2|0,0:0|0:0,0:0:0:0:
180,177,67756,2,0,P|216:186|252:176,1,75,2|0,0:0|0:0,0:0:0:0:
344,107,68131,1,0,0:0:0:0:
344,107,68318,1,0,0:0:0:0:
359,220,68506,1,2,0:0:0:0:
359,220,68693,1,0,0:0:0:0:
449,151,68881,6,0,L|473:71,2,75,2|0|2,0:0|0:0|0:0,0:0:0:0:
413,299,69443,2,0,B|378:335|378:335|332:355|280:332,1,150,0|0,0:0|0:0,0:0:0:0:
102,260,70006,2,0,P|138:252|175:259,1,75,2|0,0:0|0:0,0:0:0:0:
195,348,70381,1,2,0:0:0:0:
281,333,70568,1,0,0:0:0:0:
265,243,70756,2,0,P|257:205|270:160,1,75,2|0,0:0|0:0,0:0:0:0:
353,152,71131,1,2,0:0:0:0:
433,188,71318,2,0,P|447:153|445:116,2,75,0|2|0,0:0|0:0|0:0,0:0:0:0:
265,243,71881,6,0,L|173:257,1,75,2|0,0:0|0:0,0:0:0:0:
121,150,72256,2,0,L|213:136,1,75,2|0,0:0|0:0,0:0:0:0:
107,228,72631,2,0,L|15:242,2,75,2|0|2,0:0|0:0|0:0,0:0:0:0:
189,313,73193,2,0,P|261:329|334:315,1,150
383,182,73756,2,0,P|419:172|455:180,1,75,2|0,0:0|0:0,0:0:0:0:
302,227,74131,2,0,P|265:236|229:228,1,75,2|0,0:0|0:0,0:0:0:0:
170,157,74506,2,0,L|156:121,1,37.5,2|0,0:0|0:0,0:0:0:0:
124,102,74693,2,0,L|110:66,1,37.5,0|0,0:0|0:0,0:0:0:0:
80,44,74881,6,0,P|38:91|55:188,1,150,6|2,0:0|0:0,0:0:0:0:
114,229,75443,1,0,0:0:0:0:
170,157,75631,2,0,L|254:142,1,75,2|0,0:0|0:0,0:0:0:0:
315,40,76006,2,0,L|231:55,1,75,2|0,0:0|0:0,0:0:0:0:
350,114,76381,2,0,L|434:99,1,75,2|0,0:0|0:0,0:0:0:0:
507,191,76756,2,0,L|423:206,1,75,2|0,0:0|0:0,0:0:0:0:
360,257,77131,1,2,0:0:0:0:
292,316,77318,1,0,0:0:0:0:
201,321,77506,1,2,0:0:0:0:
114,295,77693,1,0,0:0:0:0:
51,229,77881,6,0,P|33:156|56:86,1,150,2|2,0:0|0:0,0:0:0:0:
135,42,78443,1,0,0:0:0:0:
200,104,78631,2,0,P|255:113|310:103,1,112.5,2|0,0:0|0:0,0:0:0:0:
376,52,79006,2,0,P|412:46|449:50,1,75,2|0,0:0|0:0,0:0:0:0:
478,217,79381,2,0,P|422:225|366:219,1,112.5,2|0,0:0|0:0,0:0:0:0:
288,191,79756,2,0,P|251:182|214:186,1,75,2|0,0:0|0:0,0:0:0:0:
142,240,80131,1,2,0:0:0:0:
65,193,80318,1,0,0:0:0:0:
7,262,80506,2,0,L|18:349,1,75,2|0,0:0|0:0,0:0:0:0:
65,193,80881,6,0,L|54:106,2,75,2|0|2,0:0|0:0|0:0,0:0:0:0:
84,305,81443,2,0,B|96:348|96:348|144:374|196:340,1,150
263,281,82006,1,2,0:0:0:0:
347,311,82193,1,0,0:0:0:0:
417,254,82381,2,0,L|464:188,1,75,2|0,0:0|0:0,0:0:0:0:
434,44,82756,2,0,L|387:110,1,75,2|0,0:0|0:0,0:0:0:0:
