osu file format v9

[General]
AudioFilename: Tsuki ni Muraku mo Hana ni Kaze.mp3
AudioLeadIn: 1000
PreviewTime: 62249
Countdown: 1
SampleSet: Soft
StackLeniency: 0.7
Mode: 0
LetterboxInBreaks: 1

[Editor]
Bookmarks: 62276,87026
DistanceSpacing: 1
BeatDivisor: 4
GridSize: 4

[Metadata]
Title:Tsuki ni Murakumo Hana ni Kaze
Artist:senya
Creator:Penguin1192
Version:Easy
Source:Touhou
Tags:manpuku jinja komeiji koishi last remote chireiden zun memories phantasm yuuhei satellite se-sukeEila

[Difficulty]
HPDrainRate:2
CircleSize:3
OverallDifficulty:2
ApproachRate:2
SliderMultiplier:0.799999999999999
SliderTickRate:1

[Events]
//Background and Video events
0,0,"BG.jpg"
Video,0,"pv.avi"
//Break Periods
2,13726,23966
//Storyboard Layer 0 (Background)
//Storyboard Layer 1 (Fail)
//Storyboard Layer 2 (Pass)
//Storyboard Layer 3 (Foreground)
//Storyboard Sound Samples
//Background Colour Transformations
3,100,163,162,255

[TimingPoints]
26,375,4,2,0,60,1,0
37057,-100,4,2,0,30,0,0
37432,-100,4,1,1,60,0,0
62276,-100,4,1,1,80,0,1
86276,-100,4,2,0,40,0,0

[Colours]
Combo1 : 255,0,255
Combo2 : 255,128,0
Combo3 : 255,255,0
Combo4 : 0,255,255
Combo5 : 0,0,255

[HitObjects]
184,116,1526,2,0,B|224:76|288:76|340:128,1,160
328,276,3026,2,0,B|288:316|224:316|172:264,1,160
48,192,4526,6,0,B|216:192,1,160
352,120,6026,2,0,B|420:192|340:276,1,160
280,300,7151,5,0
212,260,7526,2,0,B|120:240|68:320,2,160
256,192,9401,1,0
256,192,10526,12,4,13526
340,124,25526,6,0,B|388:44|480:48,2,160,2|0|2
148,268,28151,2,0,B|60:268,2,79.9999999999999,2|0|2
196,204,29276,1,0
160,132,29651,2,0,B|180:72|256:48|332:76|360:152,1,240,0|0
340,212,31151,6,0,B|368:300|464:296,2,160,0|2|0
288,152,33026,2,0,B|204:152,1,79.9999999999999,0|2
204,232,33776,2,0,B|120:232,1,79.9999999999999,0|2
256,192,34526,12,0,37151
192,152,37526,6,0,B|156:104|84:104|52:152,1,160,2|0
128,292,39026,2,0,B|164:340|236:340|268:292,1,160,2|0
276,136,40526,2,0,B|320:56|424:80,1,160,0|0
404,236,42026,2,0,B|448:264|496:232,2,79.9999999999999,2|2|2
268,164,43526,6,0,B|256:116|216:96,1,79.9999999999999
144,104,44276,1,4
60,188,44838,2,0,B|40:260|104:296,1,120
176,312,45776,2,0,B|276:312,2,79.9999999999999,0|0|4
256,192,46713,12,0,48963
256,152,49526,6,0,B|256:20,2,120
84,320,51776,1,0
164,320,52151,1,0
204,252,52526,6,0,B|80:252,2,120
432,324,54776,1,0
352,324,55151,1,0
312,256,55526,6,0,B|436:256,2,120
180,56,57776,1,0
180,136,58151,1,0
256,112,58526,5,0
256,272,59276,1,0
256,192,60026,12,4,61526
168,92,62276,6,0,B|64:92,2,79.9999999999999,0|8|0
212,160,63401,1,8
152,212,63776,1,0
152,292,64151,2,0,B|256:384|376:296,1,240,8|4
468,172,66026,6,0,B|412:100|320:120,1,160
264,168,67151,1,8
204,116,67526,2,0,B|204:32,2,79.9999999999999,0|8|0
140,164,68651,5,8
188,228,69026,2,0,B|168:320|64:328,2,160
268,228,70901,1,8
348,228,71276,2,0,B|440:228,1,79.9999999999999,0|8
256,192,72026,12,4,73151
156,156,73901,5,4
300,84,74651,1,0
300,84,75026,6,0,B|400:96|416:188,1,160
368,244,76151,1,8
408,312,76526,2,0,B|504:312,2,79.9999999999999,0|8|0
276,220,78026,6,0,B|244:132|136:136,1,160
160,216,79151,1,8
80,224,79526,2,0,B|96:308|208:324,1,160
260,280,80651,5,8
244,200,81026,2,0,B|264:112|368:104,1,160
428,144,82151,1,8
384,212,82526,2,0,B|384:292,1,79.9999999999999,0|8
320,344,83276,1,0
256,296,83651,1,8
256,192,84026,12,0,86276
152,64,87026,6,0,B|76:96|36:192|68:288|168:320,1,320
256,192,89276,1,0
360,316,90026,6,0,B|432:296|476:192|444:92|344:64,1,320
256,192,92276,1,0
336,332,93026,6,0,B|164:332,2,160
256,192,95276,2,0,B|256:28,1,160
