osu file format v13

[General]
AudioFilename: tsuki ni.mp3
AudioLeadIn: 1500
PreviewTime: 57642
Countdown: 0
SampleSet: Soft
StackLeniency: 0.7
Mode: 2
LetterboxInBreaks: 0
WidescreenStoryboard: 0

[Editor]
DistanceSpacing: 1.2
BeatDivisor: 4
GridSize: 8
TimelineZoom: 1.5

[Metadata]
Title:Tsuki ni Murakumo Hana ni Kaze (PV ver.)
TitleUnicode:月に叢雲華に風 (PV ver.)
Artist:senya
ArtistUnicode:senya
Creator:Vhy
Version:Rain
Source:Touhou
Tags:th11 subterranean animism komeiji koishi last remote iceon Kamase-tora yuuhei satellite c81 hinsvar xinely kshr
BeatmapID:390102
BeatmapSetID:158128

[Difficulty]
HPDrainRate:6
CircleSize:4
OverallDifficulty:9
ApproachRate:9
SliderMultiplier:1.8
SliderTickRate:1

[Events]
//Background and Video events
0,0,"oie_15162027kwME8BxD.jpg",0,0
//Break Periods
//Storyboard Layer 0 (Background)
//Storyboard Layer 1 (Fail)
//Storyboard Layer 2 (Pass)
//Storyboard Layer 3 (Foreground)
//Storyboard Sound Samples
//Background Colour Transformations
3,100,163,162,255

[TimingPoints]
80,375,4,2,0,60,1,0
830,-100,4,2,0,40,0,0
1580,-133.333333333333,4,2,0,45,0,0
8142,-66.6666666666667,4,2,0,45,0,0
8517,-133.333333333333,4,2,0,45,0,0
12455,-133.333333333333,4,2,2,55,0,0
12642,-133.333333333333,4,2,2,40,0,0
12830,-133.333333333333,4,2,2,80,0,0
12923,-133.333333333333,4,2,2,45,0,0
13205,-133.333333333333,4,2,2,50,0,0
13392,-133.333333333333,4,2,2,55,0,0
13580,-80,4,2,2,60,0,0
14142,-133.333333333333,4,2,2,60,0,0
18455,-133.333333333333,4,2,2,70,0,0
18548,-133.333333333333,4,2,2,50,0,0
18642,-133.333333333333,4,2,2,70,0,0
18736,-133.333333333333,4,2,2,60,0,0
19205,-133.333333333333,4,2,2,70,0,0
19392,-133.333333333333,4,2,2,60,0,0
19580,-66.6666666666667,4,2,2,60,0,0
20517,-133.333333333333,4,2,2,60,0,0
25580,-133.333333333333,4,2,0,50,0,0
28580,-133.333333333333,4,2,0,40,0,0
29142,-133.333333333333,4,2,0,50,0,0
29705,-133.333333333333,4,2,0,60,0,0
30267,-133.333333333333,4,2,0,50,0,0
31580,-133.333333333333,4,2,0,40,0,0
32142,-133.333333333333,4,2,0,50,0,0
32705,-133.333333333333,4,2,0,60,0,0
33455,-133.333333333333,4,2,0,50,0,0
37580,-133.333333333333,4,2,0,65,0,0
40017,-66.6666666666667,4,2,0,65,0,0
40392,-133.333333333333,4,2,0,65,0,0
46580,-133.333333333333,4,2,0,75,0,0
48830,-133.333333333333,4,2,0,70,0,0
49205,-133.333333333333,4,2,0,65,0,0
49392,-133.333333333333,4,2,0,60,0,0
49580,-133.333333333333,4,2,2,70,0,0
52017,-133.333333333333,4,2,2,80,0,0
52392,-133.333333333333,4,2,2,70,0,0
55017,-133.333333333333,4,2,2,80,0,0
55392,-133.333333333333,4,2,2,70,0,0
58017,-133.333333333333,4,2,2,80,0,0
58580,-133.333333333333,4,2,2,70,0,0
62330,-133.333333333333,4,2,2,60,0,0
62705,-133.333333333333,4,2,2,70,0,0
63080,-100,4,2,0,75,0,1
87080,-100,4,2,0,40,0,0
89517,-100,4,2,0,15,0,0
89705,-100,4,2,0,25,0,0
90080,-100,4,2,0,40,0,0
92142,-100,4,2,0,30,0,0
92705,-100,4,2,0,40,0,0
95142,-100,4,2,0,30,0,0
95517,-100,4,2,0,40,0,0
98330,-100,4,2,0,5,0,0

[Colours]
Combo1 : 255,149,149
Combo2 : 255,128,192
Combo3 : 113,255,184
Combo4 : 255,255,166

[HitObjects]
320,192,830,5,0,0:0:0:0:
400,192,1205,1,0,0:0:0:0:
248,192,1580,6,0,L|112:192,1,135.000005149842,2|0,0:0|0:0,0:0:0:0:
280,128,2330,1,2,0:0:0:0:
352,128,2517,1,0,0:0:0:0:
232,72,2705,1,0,0:0:0:0:
184,128,2892,1,0,0:0:0:0:
304,40,3080,6,0,L|408:40,1,101.250003862381,2|0,0:0|0:0,0:0:0:0:
352,128,3642,1,0,0:0:0:0:
232,72,3830,2,0,L|96:72,1,135.000005149842,2|2,0:0|0:0,0:0:0:0:
256,280,4580,6,0,L|392:280,1,135.000005149842,2|0,0:0|0:0,0:0:0:0:
288,208,5142,1,0,0:0:0:0:
448,160,5330,2,0,L|346:160,1,101.250003862381,2|0,0:0|0:0,0:0:0:0:
224,168,5892,1,0,0:0:0:0:
72,112,6080,6,0,L|174:112,1,101.250003862381,2|0,0:0|0:0,0:0:0:0:
392,320,6642,1,2,0:0:0:0:
336,272,6830,1,0,0:0:0:0:
264,264,7017,1,0,0:0:0:0:
108,296,7205,2,0,L|176:296,1,67.5000025749208,2|0,0:0|0:0,0:0:0:0:
328,184,7579,5,2,0:0:0:0:
440,128,7767,2,0,L|372:128,1,67.5000025749208
208,216,8142,2,0,B|99:136|99:136|208:216,1,270.000010299683,2|0,0:0|0:0,0:0:0:0:
336,272,8705,1,0,0:0:0:0:
168,360,8892,2,0,L|100:360,1,67.5000025749208,0|2,0:0|0:0,0:0:0:0:
272,320,9267,1,0,0:0:0:0:
96,256,9455,1,2,0:0:0:0:
328,208,9830,5,0,0:0:0:0:
376,144,10018,1,2,0:0:0:0:
184,128,10205,1,0,0:0:0:0:
480,264,10392,1,2,0:0:0:0:
376,144,10580,1,2,0:0:0:0:
256,192,10767,12,2,11705,0:0:0:0:
136,352,11892,6,2,L|96:352,2,33.7500012874604,2|2|2,0:0|0:0|0:0,0:0:0:0:
416,280,12455,2,0,L|488:280,1,67.5000025749208,8|8,0:0|0:0,0:0:0:0:
336,280,12830,1,8,0:0:0:0:
264,280,12923,1,8,0:0:0:0:
200,280,13017,1,8,0:0:0:0:
160,280,13111,1,0,0:0:0:0:
416,280,13205,2,0,L|488:280,1,67.5000025749208,8|8,0:0|0:0,0:0:0:0:
168,192,13580,6,0,B|0:216|-8:192|8:120,1,225,4|8,0:0|0:0,0:0:0:0:
128,120,14142,1,2,0:0:0:0:
256,192,14330,1,0,0:0:0:0:
132,192,14517,1,0,0:0:0:0:
0,192,14705,1,8,0:0:0:0:
212,252,14892,1,2,0:0:0:0:
44,334,15080,6,0,L|112:328,1,67.5000025749208
368,168,15455,1,8,0:0:0:0:
460,96,15642,1,2,0:0:0:0:
256,52,15830,2,0,L|392:52,1,135.000005149842,0|8,0:0|0:0,0:0:0:0:
120,332,16392,6,0,L|256:332,1,135.000005149842,10|0,0:0|0:0,0:0:0:0:
408,336,16955,1,8,0:0:0:0:
464,192,17142,1,2,0:0:0:0:
256,192,17330,1,0,0:0:0:0:
72,192,17517,1,0,0:0:0:0:
32,192,17611,1,0,0:0:0:0:
112,192,17705,1,8,0:0:0:0:
316,192,17892,5,2,0:0:0:0:
392,192,17986,1,0,0:0:0:0:
448,192,18080,1,0,0:0:0:0:
480,192,18173,1,0,0:0:0:0:
464,264,18267,1,2,0:0:0:0:
424,264,18361,1,0,0:0:0:0:
352,264,18455,1,8,0:0:0:0:
272,264,18548,1,0,0:0:0:0:
72,264,18642,1,10,0:0:0:0:
40,264,18736,1,0,0:0:0:0:
352,80,18830,5,2,0:0:0:0:
424,80,19017,1,0,0:0:0:0:
120,192,19205,2,0,L|80:136,1,67.5000025749208,8|2,0:0|0:0,0:0:0:0:
336,192,19580,6,0,B|464:144|464:144|332:192,1,270.000010299683,4|8,0:0|0:0,0:0:0:0:
192,192,20142,2,0,B|64:152|64:152|196:192,1,270.000010299683,2|0,0:0|0:0,0:0:0:0:
460,288,20705,1,8,0:0:0:0:
320,288,20892,1,2,0:0:0:0:
512,192,21080,6,0,L|440:192,1,67.5000025749208
288,104,21455,1,8,0:0:0:0:
104,192,21642,2,0,P|142:246|203:272,1,135.000005149842,2|0,0:0|0:0,0:0:0:0:
320,288,22205,1,8,0:0:0:0:
12,124,22392,1,10,0:0:0:0:
360,192,22580,6,0,L|380:128,1,67.5000025749208,4|0,0:0|0:0,0:0:0:0:
80,192,22955,1,8,0:0:0:0:
248,192,23142,1,6,0:0:0:0:
136,324,23517,1,8,0:0:0:0:
408,328,23705,2,0,L|352:292,1,67.5000025749208,8|2,0:0|0:0,0:0:0:0:
476,240,24080,5,8,0:0:0:0:
300,240,24267,1,4,0:0:0:0:
408,144,24455,2,0,L|464:108,1,67.5000025749208,8|2,0:0|0:0,0:0:0:0:
216,240,24830,1,12,0:0:0:0:
288,240,25017,1,0,0:0:0:0:
104,240,25205,1,12,0:0:0:0:
372,240,25392,1,2,0:0:0:0:
69,240,25580,6,0,P|48:176|105:144,1,135.000005149842,2|0,0:0|0:0,0:0:0:0:
216,64,26142,1,0,0:0:0:0:
328,144,26330,2,0,P|384:176|363:241,1,135.000005149842,2|0,0:0|0:0,0:0:0:0:
272,320,26892,1,0,0:0:0:0:
472,264,27080,5,0,0:0:0:0:
144,264,27455,1,2,0:0:0:0:
384,264,27830,1,2,0:0:0:0:
256,104,28017,1,0,0:0:0:0:
160,104,28111,1,0,0:0:0:0:
184,104,28205,1,2,0:0:0:0:
364,192,28392,1,0,0:0:0:0:
188,192,28580,6,0,L|284:288,1,135.000005149842,2|0,0:0|0:0,0:0:0:0:
112,192,29142,2,0,L|16:96,1,135.000005149842,2|0,0:0|0:0,0:0:0:0:
264,192,29705,2,0,L|360:288,1,135.000005149842,0|2,0:0|0:0,0:0:0:0:
480,192,30267,5,2,0:0:0:0:
328,192,30455,1,0,0:0:0:0:
228,124,30642,1,2,0:0:0:0:
196,124,30736,1,0,0:0:0:0:
108,124,30830,1,2,0:0:0:0:
328,192,31205,1,2,0:0:0:0:
496,192,31392,1,0,0:0:0:0:
220,192,31580,6,0,L|124:288,1,135.000005149842,2|0,0:0|0:0,0:0:0:0:
296,192,32142,2,0,L|392:96,1,135.000005149842,2|0,0:0|0:0,0:0:0:0:
144,192,32705,2,0,L|48:288,1,135.000005149842,0|2,0:0|0:0,0:0:0:0:
400,192,33455,1,2,0:0:0:0:
104,192,33830,1,2,0:0:0:0:
472,192,34205,1,2,0:0:0:0:
32,192,34580,6,0,L|16:124,1,67.5000025749208,2|0,0:0|0:0,0:0:0:0:
176,192,34955,1,2,0:0:0:0:
364,192,35142,1,2,0:0:0:0:
472,192,35330,2,0,L|496:124,1,67.5000025749208,0|0,0:0|0:0,0:0:0:0:
292,192,35705,1,2,0:0:0:0:
104,192,35892,1,0,0:0:0:0:
472,192,36080,5,2,0:0:0:0:
320,296,36267,1,2,0:0:0:0:
360,296,36361,1,2,0:0:0:0:
400,296,36455,1,2,0:0:0:0:
256,192,36642,1,2,0:0:0:0:
312,120,36830,1,0,0:0:0:0:
160,120,37017,5,2,0:0:0:0:
88,120,37111,1,2,0:0:0:0:
88,120,37205,1,2,0:0:0:0:
392,120,37392,1,2,0:0:0:0:
200,192,37580,5,4,0:0:0:0:
72,280,37767,1,2,0:0:0:0:
40,280,37861,1,0,0:0:0:0:
112,280,37955,2,0,L|180:280,1,67.5000025749208,8|2,0:0|0:0,0:0:0:0:
312,192,38330,5,0,0:0:0:0:
440,280,38517,1,2,0:0:0:0:
472,280,38611,1,0,0:0:0:0:
400,280,38705,2,0,L|332:280,1,67.5000025749208,8|2,0:0|0:0,0:0:0:0:
184,192,39080,5,0,0:0:0:0:
328,96,39267,1,2,0:0:0:0:
288,96,39361,1,0,0:0:0:0:
192,96,39455,1,8,0:0:0:0:
24,96,39642,5,2,0:0:0:0:
64,96,39736,1,0,0:0:0:0:
160,96,39830,1,0,0:0:0:0:
328,192,40017,2,0,L|464:192|328:192,1,270.000010299683,2|2,0:0|0:0,0:0:0:0:
56,192,40580,6,0,L|80:256,1,67.5000025749208,0|2,0:0|0:0,0:0:0:0:
264,280,40955,1,8,0:0:0:0:
128,320,41142,1,2,0:0:0:0:
304,352,41330,1,0,0:0:0:0:
16,320,41517,1,2,0:0:0:0:
416,272,41705,2,0,L|348:272,1,67.5000025749208,8|2,0:0|0:0,0:0:0:0:
480,192,42080,5,0,0:0:0:0:
140,192,42455,1,8,0:0:0:0:
380,192,42830,1,0,0:0:0:0:
332,192,43017,1,2,0:0:0:0:
480,192,43205,1,8,0:0:0:0:
200,280,43392,1,2,0:0:0:0:
68,192,43580,6,0,L|0:192,1,67.5000025749208,4|2,0:0|0:0,0:0:0:0:
140,192,43955,1,8,0:0:0:0:
280,192,44142,1,2,0:0:0:0:
68,120,44330,2,0,P|96:56|152:24,1,135.000005149842,0|8,0:0|0:0,0:0:0:0:
444,264,44892,6,0,P|416:328|360:360,1,135.000005149842,2|2,0:0|0:0,0:0:0:0:
140,192,45455,2,0,L|108:252,1,67.5000025749208,8|2,0:0|0:0,0:0:0:0:
320,192,45830,2,0,L|352:132,1,67.5000025749208,0|2,0:0|0:0,0:0:0:0:
160,192,46205,1,2,0:0:0:0:
444,192,46392,1,0,0:0:0:0:
256,192,46580,1,6,0:0:0:0:
256,192,46767,12,0,47892,0:0:0:0:
132,192,48080,5,4,0:0:0:0:
204,192,48173,1,2,0:0:0:0:
348,192,48267,2,0,L|416:192,1,67.5000025749208,0|2,0:0|0:0,0:0:0:0:
276,192,48642,1,2,0:0:0:0:
488,192,48830,1,4,0:0:0:0:
512,192,48923,1,2,0:0:0:0:
348,192,49111,1,2,0:0:0:0:
324,192,49205,1,4,0:0:0:0:
132,192,49392,1,6,0:0:0:0:
256,332,49580,5,8,0:0:0:0:
136,332,49767,2,0,L|64:332,1,67.5000025749208,0|8,0:0|0:0,0:0:0:0:
376,260,50142,1,8,0:0:0:0:
256,260,50330,2,0,L|188:260,1,67.5000025749208,0|8,0:0|0:0,0:0:0:0:
496,188,50705,1,8,0:0:0:0:
136,188,50892,1,8,0:0:0:0:
376,188,51267,5,8,0:0:0:0:
376,188,51642,2,0,L|240:188,1,135.000005149842,8|2,0:0|0:0,0:0:0:0:
312,216,52111,1,2,0:0:0:0:
284,240,52205,1,2,0:0:0:0:
112,192,52392,1,2,0:0:0:0:
256,52,52580,5,8,0:0:0:0:
376,52,52767,2,0,L|448:52,1,67.5000025749208,0|8,0:0|0:0,0:0:0:0:
136,124,53142,1,8,0:0:0:0:
256,124,53330,2,0,L|324:124,1,67.5000025749208,0|8,0:0|0:0,0:0:0:0:
16,196,53705,1,8,0:0:0:0:
376,196,53892,1,8,0:0:0:0:
136,196,54267,5,8,0:0:0:0:
136,196,54642,2,0,L|276:196,1,135.000005149842,8|2,0:0|0:0,0:0:0:0:
344,200,55111,1,2,0:0:0:0:
312,200,55205,1,2,0:0:0:0:
440,200,55392,1,2,0:0:0:0:
169,320,55580,5,8,0:0:0:0:
29,320,55767,2,0,L|97:320,1,67.5000025749208,0|8,0:0|0:0,0:0:0:0:
343,320,56142,1,8,0:0:0:0:
483,320,56329,2,0,L|415:320,1,67.5000025749208,0|8,0:0|0:0,0:0:0:0:
96,320,56705,1,8,0:0:0:0:
415,320,56892,1,8,0:0:0:0:
256,192,57267,5,8,0:0:0:0:
100,192,57642,2,0,L|168:192,1,67.5000025749208,8|0,0:0|0:0,0:0:0:0:
336,192,58017,2,0,L|372:192,1,33.7500012874604,2|2,0:0|0:0,0:0:0:0:
256,192,58205,1,2,0:0:0:0:
176,192,58298,2,0,L|142:192,1,33.7500012874604,2|2,0:0|0:0,0:0:0:0:
256,192,58580,5,8,0:0:0:0:
496,192,58861,1,2,0:0:0:0:
352,192,59142,1,0,0:0:0:0:
256,192,59330,1,8,0:0:0:0:
16,192,59611,1,2,0:0:0:0:
160,192,59892,1,0,0:0:0:0:
380,272,60080,5,8,0:0:0:0:
456,272,60267,1,0,0:0:0:0:
264,272,60455,1,2,0:0:0:0:
132,272,60642,1,8,0:0:0:0:
56,272,60829,1,0,0:0:0:0:
248,272,61017,1,2,0:0:0:0:
0,192,61205,1,8,0:0:0:0:
88,192,61392,1,0,0:0:0:0:
256,192,61580,5,8,0:0:0:0:
296,192,61673,1,0,0:0:0:0:
348,192,61767,1,0,0:0:0:0:
420,192,61861,1,0,0:0:0:0:
456,248,61955,1,8,0:0:0:0:
496,296,62048,1,0,0:0:0:0:
400,296,62142,1,0,0:0:0:0:
304,296,62236,1,0,0:0:0:0:
368,112,62330,5,8,0:0:0:0:
440,112,62423,1,0,0:0:0:0:
368,112,62517,1,0,0:0:0:0:
296,112,62611,1,0,0:0:0:0:
392,32,62705,1,8,0:0:0:0:
312,32,62798,1,0,0:0:0:0:
240,32,62892,1,0,0:0:0:0:
168,32,62986,1,0,0:0:0:0:
400,192,63080,5,4,0:0:0:0:
480,192,63267,1,0,0:0:0:0:
200,192,63455,1,8,0:0:0:0:
344,192,63642,1,2,0:0:0:0:
184,192,63830,2,0,L|204:104,1,90,0|2,0:0|0:0,0:0:0:0:
400,192,64205,2,0,P|352:232|320:232,1,90,8|0,0:0|0:0,0:0:0:0:
112,192,64580,6,0,L|20:192,1,90,0|2,0:0|0:0,0:0:0:0:
224,192,64955,1,8,0:0:0:0:
24,192,65142,1,2,0:0:0:0:
152,128,65330,2,0,P|184:96|232:96,1,90
416,192,65705,2,0,L|508:192,1,90,8|2,0:0|0:0,0:0:0:0:
256,268,66080,5,2,0:0:0:0:
164,268,66267,1,0,0:0:0:0:
376,300,66455,1,8,0:0:0:0:
448,300,66642,1,0,0:0:0:0:
236,344,66830,1,0,0:0:0:0:
144,344,67017,1,2,0:0:0:0:
320,376,67205,1,8,0:0:0:0:
512,376,67392,1,2,0:0:0:0:
256,192,67580,5,0,0:0:0:0:
72,192,67767,1,0,0:0:0:0:
64,192,67861,1,0,0:0:0:0:
104,192,67955,2,0,L|196:192,1,90,8|2,0:0|0:0,0:0:0:0:
368,192,68330,1,0,0:0:0:0:
504,192,68517,1,2,0:0:0:0:
256,120,68705,1,8,0:0:0:0:
184,120,68798,1,0,0:0:0:0:
112,120,68892,1,0,0:0:0:0:
184,120,68986,1,0,0:0:0:0:
256,120,69080,6,0,L|166:120,1,90,0|2,0:0|0:0,0:0:0:0:
368,192,69455,1,8,0:0:0:0:
112,120,69642,2,0,B|22:120|22:120|112:120,1,180,2|2,0:0|0:0,0:0:0:0:
328,192,70205,1,8,0:0:0:0:
480,192,70392,5,2,0:0:0:0:
276,192,70580,1,0,0:0:0:0:
380,192,70767,1,2,0:0:0:0:
164,192,70955,1,8,0:0:0:0:
428,192,71142,1,0,0:0:0:0:
280,192,71330,1,0,0:0:0:0:
136,192,71517,2,0,L|176:272,1,90,2|8,0:0|0:0,0:0:0:0:
56,192,71892,1,2,0:0:0:0:
348,192,72080,5,0,0:0:0:0:
420,192,72173,1,0,0:0:0:0:
492,192,72267,1,0,0:0:0:0:
348,192,72455,2,0,L|324:280,1,90,8|2,0:0|0:0,0:0:0:0:
164,192,72830,1,0,0:0:0:0:
92,192,72923,1,0,0:0:0:0:
20,192,73017,1,2,0:0:0:0:
164,192,73205,1,8,0:0:0:0:
480,280,73392,6,0,P|427:321|360:331,1,135
408,264,73767,2,0,L|318:264,1,90,2|8,0:0|0:0,0:0:0:0:
492,192,74142,1,2,0:0:0:0:
184,256,74330,5,2,0:0:0:0:
124,208,74423,1,2,0:0:0:0:
96,140,74517,1,0,0:0:0:0:
88,68,74611,1,2,0:0:0:0:
328,256,74705,1,2,0:0:0:0:
388,208,74798,1,2,0:0:0:0:
416,140,74892,1,2,0:0:0:0:
424,68,74986,1,2,0:0:0:0:
208,328,75080,6,0,P|252:364|284:364,1,90,4|2,0:0|0:0,0:0:0:0:
464,336,75455,1,8,0:0:0:0:
332,264,75642,1,0,0:0:0:0:
436,264,75830,1,0,0:0:0:0:
220,264,76017,1,2,0:0:0:0:
58,264,76205,2,0,L|144:296,1,90,8|0,0:0|0:0,0:0:0:0:
480,192,76580,6,0,L|408:136,1,90
256,192,76955,1,8,0:0:0:0:
148,264,77142,1,2,0:0:0:0:
454,264,77330,2,0,L|376:320,1,90
220,264,77705,2,0,L|292:208,1,90,8|0,0:0|0:0,0:0:0:0:
24,48,78080,5,0,0:0:0:0:
208,48,78267,1,2,0:0:0:0:
144,104,78455,1,8,0:0:0:0:
296,104,78642,1,2,0:0:0:0:
448,160,78830,2,0,L|358:160,1,90
192,288,79205,2,0,L|282:288,1,90,8|2,0:0|0:0,0:0:0:0:
24,192,79580,6,0,P|68:198|102:225,1,90
392,200,79955,2,0,L|352:120,1,90,8|0,0:0|0:0,0:0:0:0:
256,88,80330,1,0,0:0:0:0:
464,272,80517,1,2,0:0:0:0:
184,272,80705,1,8,0:0:0:0:
120,272,80798,1,0,0:0:0:0:
56,272,80892,1,2,0:0:0:0:
24,192,80986,1,0,0:0:0:0:
368,192,81080,5,4,0:0:0:0:
496,192,81267,2,0,L|440:120,1,90,0|8,0:0|0:0,0:0:0:0:
184,192,81642,2,0,P|88:152|88:88,1,180,6|2,0:0|0:0,0:0:0:0:
248,96,82205,2,0,L|344:104,1,90,8|0,0:0|0:0,0:0:0:0:
32,192,82580,5,4,0:0:0:0:
190,144,82767,1,2,0:0:0:0:
352,64,82955,2,0,L|262:64,1,90,8|2,0:0|0:0,0:0:0:0:
128,64,83330,1,0,0:0:0:0:
460,64,83517,1,0,0:0:0:0:
286,64,83705,2,0,L|376:64,1,90,8|2,0:0|0:0,0:0:0:0:
52,64,84080,6,0,B|28:104|48:132|180:132,1,180,4|8,0:0|0:0,0:0:0:0:
88,128,84642,1,2,0:0:0:0:
460,64,84830,2,0,B|484:104|464:132|332:132,1,180,4|8,0:0|0:0,0:0:0:0:
424,128,85392,1,2,0:0:0:0:
160,192,85580,5,4,0:0:0:0:
104,152,85673,1,0,0:0:0:0:
136,96,85767,1,0,0:0:0:0:
200,96,85861,1,0,0:0:0:0:
352,192,85955,1,4,0:0:0:0:
408,152,86049,1,0,0:0:0:0:
376,96,86143,1,0,0:0:0:0:
312,96,86236,1,0,0:0:0:0:
248,240,86330,5,4,0:0:0:0:
200,256,86423,1,0,0:0:0:0:
152,288,86517,1,0,0:0:0:0:
136,336,86611,1,0,0:0:0:0:
312,328,86705,1,4,0:0:0:0:
368,328,86798,1,0,0:0:0:0:
312,328,86892,1,0,0:0:0:0:
256,328,86986,1,0,0:0:0:0:
256,328,87080,1,4,0:0:0:0:
480,192,87830,6,0,P|456:140|352:164,1,180,2|0,0:0|0:0,0:0:0:0:
160,184,88580,2,0,L|256:184,1,90,2|0,0:0|0:0,0:0:0:0:
160,184,88861,2,0,P|104:216|32:216,1,135,2|0,0:0|0:0,0:0:0:0:
360,192,89517,2,0,L|408:112,1,90,2|0,0:0|0:0,0:0:0:0:
148,192,90080,5,2,0:0:0:0:
72,192,90267,1,0,0:0:0:0:
256,192,90455,1,0,0:0:0:0:
328,192,90642,1,0,0:0:0:0:
144,72,90830,6,0,P|76:67|48:120,2,135,2|0|2,0:0|0:0|0:0,0:0:0:0:
288,192,91580,1,0,0:0:0:0:
184,192,91861,1,2,0:0:0:0:
432,192,92142,1,2,0:0:0:0:
256,192,92517,1,0,0:0:0:0:
328,192,92705,1,0,0:0:0:0:
256,192,93080,6,0,L|164:192,1,90,2|0,0:0|0:0,0:0:0:0:
232,192,93455,1,0,0:0:0:0:
352,192,93642,1,2,0:0:0:0:
94,192,94017,6,0,L|184:192,1,90,2|0,0:0|0:0,0:0:0:0:
48,136,94392,1,0,0:0:0:0:
232,192,94580,1,2,0:0:0:0:
328,192,94767,1,0,0:0:0:0:
200,240,94955,1,2,0:0:0:0:
368,192,95142,1,2,0:0:0:0:
184,192,95517,6,0,L|94:192,1,90,2|0,0:0|0:0,0:0:0:0:
376,48,95892,1,0,0:0:0:0:
272,48,96080,1,2,0:0:0:0:
256,192,96267,12,0,98330,0:0:0:0:
