osu file format v13

[General]
AudioFilename: tsuki ni.mp3
AudioLeadIn: 1500
PreviewTime: 57642
Countdown: 0
SampleSet: Soft
StackLeniency: 0.7
Mode: 0
LetterboxInBreaks: 0
WidescreenStoryboard: 0

[Editor]
DistanceSpacing: 1.4
BeatDivisor: 4
GridSize: 4
TimelineZoom: 1.2

[Metadata]
Title:Tsuki ni Murakumo Hana ni Kaze (PV ver.)
TitleUnicode:月に叢雲華に風 (PV ver.)
Artist:senya
ArtistUnicode:senya
Creator:Vhy
Version:Hard
Source:Touhou
Tags:th11 subterranean animism komeiji koishi last remote iceon Kamase-tora yuuhei satellite c81 hinsvar xinely kshr
BeatmapID:386868
BeatmapSetID:158128

[Difficulty]
HPDrainRate:6
CircleSize:4
OverallDifficulty:6
ApproachRate:7
SliderMultiplier:1.4
SliderTickRate:1

[Events]
//Background and Video events
0,0,"oie_15162027kwME8BxD.jpg",0,0
//Break Periods
//Storyboard Layer 0 (Background)
//Storyboard Layer 1 (Fail)
//Storyboard Layer 2 (Pass)
//Storyboard Layer 3 (Foreground)
//Storyboard Sound Samples
//Background Colour Transformations
3,100,163,162,255

[TimingPoints]
80,375,4,2,0,60,1,0
830,-133.333333333333,4,2,0,40,0,0
1580,-133.333333333333,4,2,0,45,0,0
13580,-100,4,2,0,60,0,0
25580,-117.647058823529,4,2,0,50,0,0
37580,-100,4,2,0,65,0,0
49580,-100,4,2,2,70,0,0
62330,-100,4,2,0,60,0,0
62705,-100,4,2,0,70,0,0
63080,-100,4,2,0,75,0,1
87080,-133.333333333333,4,2,11,40,0,0
98330,-133.333333333333,4,2,0,5,0,0

[Colours]
Combo1 : 255,149,149
Combo2 : 255,128,192
Combo3 : 113,255,184
Combo4 : 255,255,166

[HitObjects]
291,287,830,6,0,P|240:284|195:310,1,105.000004005432,2|0,0:0|0:0,0:0:0:0:
104,224,1580,6,0,B|136:264|136:264|172:232|220:204|280:212,1,210.000008010865,2|2,0:0|0:0,0:0:0:0:
256,356,2705,1,2,0:0:0:0:
376,320,3080,2,0,B|400:312|400:312|420:332|448:332,2,78.7500030040742,2|0|2,0:0|0:0|0:0,0:0:0:0:
320,272,3830,2,0,B|280:240|320:224|280:180,1,105.000004005432,2|2,0:0|0:0,0:0:0:0:
148,244,4580,6,0,P|116:200|112:148,1,105.000004005432,2|0,0:0|0:0,0:0:0:0:
240,80,5330,2,0,P|216:52|176:44,2,78.7500030040742,2|0|0,0:0|0:0|0:0,0:0:0:0:
300,124,6080,2,0,P|336:117|363:86,2,78.7500030040742,2|0|0,0:0|0:0|0:0,0:0:0:0:
248,176,6830,2,0,L|228:224,1,52.5000020027161,0|2,0:0|0:0,0:0:0:0:
168,264,7205,2,0,L|176:316,1,52.5000020027161,0|2,0:0|0:0,0:0:0:0:
244,340,7580,6,0,B|284:316|316:336|316:336|351:354|396:330,1,157.500006008148,2|2,0:0|0:0,0:0:0:0:
376,184,8517,2,0,B|348:248|348:248|328:236|316:236,1,105.000004005432,2|0,0:0|0:0,0:0:0:0:
244,256,9080,2,0,P|196:272|160:320,1,105.000004005432,2|2,0:0|0:0,0:0:0:0:
216,100,10017,2,0,L|164:92,1,52.5000020027161,2|2,0:0|0:0,0:0:0:0:
48,82,10392,2,0,L|96:60,1,52.5000020027161,2|2,0:0|0:0,0:0:0:0:
256,192,10767,12,0,13205,0:0:0:0:
139,87,13580,6,0,P|204:112|273:106,1,140,6|8,0:0|0:0,0:0:0:0:
334,48,14142,2,0,B|370:100|346:144|346:144|374:168,1,140,2|0,0:0|0:0,0:0:0:0:
512,228,14705,1,8,0:0:0:0:
428,236,14892,2,0,B|384:264|336:244|336:244|296:268,1,140,2|0,0:0|0:0,0:0:0:0:
213,266,15455,2,0,B|176:244|176:244|128:264|84:236,1,140,8|0,0:0|0:0,0:0:0:0:
132,76,16205,1,8,0:0:0:0:
96,152,16392,6,0,B|144:180|144:180|164:172|186:166|207:178|224:188,1,140,2|0,0:0|0:0,0:0:0:0:
304,160,16955,1,8,0:0:0:0:
380,196,17142,1,2,0:0:0:0:
436,132,17330,2,0,P|448:80|432:32,2,105,0|0|2,0:0|0:0|0:0,0:0:0:0:
365,85,18080,2,0,P|301:61|229:61,1,140,0|8,0:0|0:0,0:0:0:0:
147,299,18830,2,0,P|211:323|283:323,1,140,0|8,0:0|0:0,0:0:0:0:
352,276,19392,1,2,0:0:0:0:
364,192,19580,6,0,P|424:232|433:297,1,140,4|8,0:0|0:0,0:0:0:0:
376,356,20142,1,2,0:0:0:0:
352,276,20330,2,0,P|292:236|283:171,1,140,0|8,0:0|0:0,0:0:0:0:
340,112,20892,2,0,P|368:92|385:61,2,70,2|0|0,0:0|0:0|0:0,0:0:0:0:
307,33,21455,1,8,0:0:0:0:
224,44,21642,2,0,B|252:108|252:108|248:120|248:120|208:160,1,140,2|0,0:0|0:0,0:0:0:0:
128,132,22205,1,8,0:0:0:0:
56,176,22392,1,2,0:0:0:0:
48,260,22580,6,0,B|92:288|104:336|104:336|140:312,1,140,4|8,0:0|0:0,0:0:0:0:
224,320,23142,2,0,B|232:304|228:276|228:276|272:280|320:252,1,140,6|0,0:0|0:0,0:0:0:0:
348,172,23705,1,8,0:0:0:0:
300,104,23892,1,2,0:0:0:0:
224,68,24080,2,0,L|188:72,2,35,0|0|4,0:0|0:0|0:0,0:0:0:0:
292,19,24455,2,0,P|328:24|360:44,1,70,8|2,0:0|0:0,0:0:0:0:
364,124,24830,2,0,P|330:121|300:104,1,70,4|0,0:0|0:0,0:0:0:0:
440,92,25205,1,6,0:0:0:0:
459,100,25298,1,2,0:0:0:0:
472,116,25392,1,2,0:0:0:0:
482,134,25486,1,2,0:0:0:0:
487,154,25580,6,0,B|495:200|455:192|464:268,1,119.000002269745,4|2,0:0|0:0,0:0:0:0:
504,328,26142,1,0,0:0:0:0:
456,380,26330,2,0,L|336:364,1,119.000002269745,0|2,0:0|0:0,0:0:0:0:
216,292,27080,2,0,P|144:292|96:300,2,119.000002269745,0|0|2,0:0|0:0|0:0,0:0:0:0:
264,156,28205,2,0,P|260:124|268:96,1,59.5000011348725
328,60,28580,6,0,P|364:96|432:104,1,119.000002269745,2|0,0:0|0:0,0:0:0:0:
492,140,29142,1,2,0:0:0:0:
440,272,29517,2,0,L|420:332,1,59.5000011348725,0|2,0:0|0:0,0:0:0:0:
284,372,30080,2,0,B|188:276|176:376|64:304,1,238.00000453949,2|2,0:0|0:0,0:0:0:0:
32,168,31205,1,2,0:0:0:0:
68,104,31392,1,0,0:0:0:0:
132,76,31580,6,0,L|252:68,1,119.000002269745,2|0,0:0|0:0,0:0:0:0:
304,20,32142,2,0,P|348:52|376:112,1,119.000002269745,2|0,0:0|0:0,0:0:0:0:
308,136,32705,2,0,L|189:143,1,119.000002269745,2|0,0:0|0:0,0:0:0:0:
56,196,33455,1,2,0:0:0:0:
196,224,33830,1,2,0:0:0:0:
64,276,34205,1,2,0:0:0:0:
204,304,34580,6,0,P|264:296|320:316,1,119.000002269745,2|0,0:0|0:0,0:0:0:0:
384,344,35142,2,0,L|468:260,1,119.000002269745,2|0,0:0|0:0,0:0:0:0:
468,259,35705,1,2,0:0:0:0:
360,168,36080,5,2,0:0:0:0:
310,218,36267,2,0,P|304:248|286:273,2,59.5000011348725,0|2|0,0:0|0:0|0:0,0:0:0:0:
291,150,36830,1,2,0:0:0:0:
360,168,37017,1,0,0:0:0:0:
424,136,37205,1,2,0:0:0:0:
456,72,37392,1,0,0:0:0:0:
456,72,37486,1,0,0:0:0:0:
456,72,37580,6,0,P|432:48|392:40,1,70
315,26,37955,1,8,0:0:0:0:
252,80,38142,1,2,0:0:0:0:
176,44,38330,2,0,P|168:76|172:112,1,70,0|2,0:0|0:0,0:0:0:0:
239,162,38705,2,0,L|239:232,1,70,8|0,0:0|0:0,0:0:0:0:
284,304,39080,5,0,0:0:0:0:
244,376,39267,2,0,P|204:368|172:368,1,70,2|8,0:0|0:0,0:0:0:0:
104,324,39642,1,2,0:0:0:0:
160,260,39830,2,0,L|160:190,1,70,0|8,0:0|0:0,0:0:0:0:
128,112,40205,1,8,0:0:0:0:
79,179,40392,1,2,0:0:0:0:
200,68,40580,6,0,P|234:60|269:59,1,70,0|2,0:0|0:0,0:0:0:0:
236,144,40955,2,0,P|270:148|303:159,1,70,8|0,0:0|0:0,0:0:0:0:
244,228,41330,2,0,P|274:244|302:266,1,70,0|2,0:0|0:0,0:0:0:0:
256,336,41705,1,8,0:0:0:0:
112,192,42080,5,0,0:0:0:0:
256,48,42455,1,8,0:0:0:0:
400,192,42830,1,0,0:0:0:0:
256,336,43205,2,0,L|324:348,1,70,8|0,0:0|0:0,0:0:0:0:
404,320,43580,5,4,0:0:0:0:
466,263,43767,1,2,0:0:0:0:
452,180,43955,2,0,P|440:144|440:112,1,70,8|2,0:0|0:0,0:0:0:0:
400,40,44330,2,0,P|375:65|360:96,1,70,0|8,0:0|0:0,0:0:0:0:
288,140,44705,1,8,0:0:0:0:
252,64,44892,5,2,0:0:0:0:
168,64,45080,2,0,P|136:48|111:24,2,70,0|2|8,0:0|0:0|0:0,0:0:0:0:
182,146,45642,2,0,L|166:214,1,70
84,235,46017,2,0,L|100:303,1,70,2|8,0:0|0:0,0:0:0:0:
148,372,46392,1,2,0:0:0:0:
224,336,46580,6,0,P|284:304|356:304,1,140,4|8,0:0|0:0,0:0:0:0:
288,48,47330,2,0,P|228:80|156:80,1,140,0|8,0:0|0:0,0:0:0:0:
92,28,47892,2,0,P|64:44|40:72,1,70,2|4,0:0|0:0,0:0:0:0:
156,192,48455,1,8,0:0:0:0:
39,311,48830,2,0,P|88:340|136:344,1,105,4|2,0:0|0:0,0:0:0:0:
172,324,49205,2,0,P|194:297|224:279,1,70,4|2,0:0|0:0,0:0:0:0:
304,300,49580,5,8,0:0:0:0:
432,84,50142,1,8,0:0:0:0:
184,48,50705,1,2,0:0:0:0:
108,16,50892,2,0,P|108:84|160:128,1,140,8|8,0:0|0:0,0:0:0:0:
352,256,51642,2,0,P|404:300|404:368,1,140,8|2,0:0|0:0,0:0:0:0:
328,336,52205,2,0,P|292:324|260:328,1,70,2|0,0:0|0:0,0:0:0:0:
184,296,52580,5,8,0:0:0:0:
124,52,53142,1,8,0:0:0:0:
368,116,53705,1,2,0:0:0:0:
320,184,53892,2,0,P|256:160|192:184,1,140,8|8,0:0|0:0,0:0:0:0:
44,262,54642,2,0,L|44:122,1,140,8|2,0:0|0:0,0:0:0:0:
88,48,55205,2,0,P|120:40|156:40,1,70,2|0,0:0|0:0,0:0:0:0:
232,80,55580,5,8,0:0:0:0:
200,328,56142,1,8,0:0:0:0:
428,216,56705,1,2,0:0:0:0:
476,284,56892,2,0,P|412:296|352:252,1,140,8|8,0:0|0:0,0:0:0:0:
300,96,57642,2,0,L|160:72,1,140,8|2,0:0|0:0,0:0:0:0:
92,24,58205,2,0,P|56:27|25:46,1,70,2|0,0:0|0:0,0:0:0:0:
84,108,58580,5,8,0:0:0:0:
172,200,58861,2,0,L|192:304,1,105,2|0,0:0|0:0,0:0:0:0:
191,303,59330,1,8,0:0:0:0:
320,304,59611,2,0,L|340:200,1,105,2|0,0:0|0:0,0:0:0:0:
339,200,60080,1,8,0:0:0:0:
256,56,60455,2,0,L|256:128,1,70,2|8,0:0|0:0,0:0:0:0:
256,328,61017,2,0,L|256:258,1,70,2|8,0:0|0:0,0:0:0:0:
332,76,61580,6,0,P|352:116|352:160,1,70,8|0,0:0|0:0,0:0:0:0:
399,211,61955,2,0,P|434:209|466:195,1,70,8|0,0:0|0:0,0:0:0:0:
336,264,62330,2,0,P|346:297|366:326,1,70,2|0,0:0|0:0,0:0:0:0:
292,368,62705,2,0,P|258:356|230:337,1,70,2|0,0:0|0:0,0:0:0:0:
256,256,63080,6,0,B|228:192|292:192|256:120,1,140,4|8,0:0|0:0,0:0:0:0:
204,56,63642,1,2,0:0:0:0:
124,26,63830,2,0,P|120:61|126:95,1,70,0|2,0:0|0:0,0:0:0:0:
48,120,64205,2,0,P|66:149|93:171,1,70,8|0,0:0|0:0,0:0:0:0:
116,251,64580,2,0,P|81:251|48:241,1,70,0|2,0:0|0:0,0:0:0:0:
173,190,64955,2,0,P|205:178|240:178,1,70,8|2,0:0|0:0,0:0:0:0:
304,232,65330,1,0,0:0:0:0:
432,172,65517,1,0,0:0:0:0:
408,310,65705,2,0,P|393:278|388:244,1,70,8|2,0:0|0:0,0:0:0:0:
344,164,66080,6,0,P|372:104|352:36,1,140,0|8,0:0|0:0,0:0:0:0:
274,4,66642,1,0,0:0:0:0:
223,71,66830,2,0,P|191:83|155:83,1,70,0|2,0:0|0:0,0:0:0:0:
88,32,67205,1,8,0:0:0:0:
17,77,67392,1,2,0:0:0:0:
49,154,67580,2,0,P|69:182|73:218,1,70
15,277,67955,1,8,0:0:0:0:
83,326,68142,2,0,P|134:280|202:281,1,140,0|2,0:0|0:0,0:0:0:0:
256,348,68705,6,0,P|320:372|380:340,2,140,8|2|8,0:0|0:0|0:0,0:0:0:0:
315,289,69642,2,0,P|311:254|296:222,1,70,2|0,0:0|0:0,0:0:0:0:
220,188,70017,2,0,P|187:199|152:199,2,70,0|8|2,0:0|0:0|0:0,0:0:0:0:
292,144,70580,2,0,P|324:132|359:132,2,70,0|2|8,0:0|0:0|0:0,0:0:0:0:
220,188,71142,2,0,P|209:154|211:119,1,70
291,143,71517,2,0,P|302:177|299:212,1,70,2|8,0:0|0:0,0:0:0:0:
256,284,71892,1,2,0:0:0:0:
176,308,72080,6,0,P|116:296|44:324,2,140,0|8|0,0:0|0:0|0:0,0:0:0:0:
237,365,73017,2,0,P|272:364|306:351,1,70,2|8,0:0|0:0,0:0:0:0:
256,284,73392,2,0,P|232:220|248:144,1,140,0|2,0:0|0:0,0:0:0:0:
364,52,73955,1,8,0:0:0:0:
324,124,74142,1,2,0:0:0:0:
479,127,74330,2,0,P|470:94|448:68,1,70
440,200,74705,1,2,0:0:0:0:
432,220,74798,1,2,0:0:0:0:
428,240,74892,1,2,0:0:0:0:
428,260,74986,1,2,0:0:0:0:
436,280,75080,6,0,P|388:320|312:320,1,140,4|8,0:0|0:0,0:0:0:0:
248,268,75642,1,2,0:0:0:0:
172,304,75830,2,0,L|124:356,2,70,0|2|8,0:0|0:0|0:0,0:0:0:0:
140,224,76392,1,0,0:0:0:0:
164,144,76580,2,0,P|129:140|97:152,1,70,0|2,0:0|0:0,0:0:0:0:
13,153,76955,2,0,P|18:119|40:92,1,70,8|2,0:0|0:0,0:0:0:0:
56,228,77330,2,0,P|63:260|84:288,1,70,0|0,0:0|0:0,0:0:0:0:
206,214,77705,2,0,P|174:226|140:224,1,70,8|2,0:0|0:0,0:0:0:0:
268,156,78080,6,0,P|304:100|374:89,1,140,0|8,0:0|0:0,0:0:0:0:
352,172,78642,1,0,0:0:0:0:
468,265,78830,2,0,P|434:258|408:235,1,70,0|2,0:0|0:0,0:0:0:0:
472,180,79205,2,0,P|469:145|452:115,1,70,8|2,0:0|0:0,0:0:0:0:
372,88,79580,1,0,0:0:0:0:
351,171,79767,2,0,P|319:157|298:131,1,70,0|8,0:0|0:0,0:0:0:0:
408,235,80142,2,0,P|339:254|280:217,1,140,2|2,0:0|0:0,0:0:0:0:
212,176,80705,1,10,0:0:0:0:
192,168,80798,1,2,0:0:0:0:
172,164,80892,1,2,0:0:0:0:
152,164,80986,1,2,0:0:0:0:
132,168,81080,6,0,P|68:144|32:80,1,140,4|8,0:0|0:0,0:0:0:0:
92,24,81642,2,0,L|232:44,1,140,4|2,0:0|0:0,0:0:0:0:
300,92,82205,1,8,0:0:0:0:
376,57,82392,1,2,0:0:0:0:
432,120,82580,1,4,0:0:0:0:
390,193,82767,1,0,0:0:0:0:
307,175,82955,6,0,P|277:190|256:218,1,70,8|2,0:0|0:0,0:0:0:0:
228,298,83330,1,0,0:0:0:0:
143,295,83517,1,2,0:0:0:0:
120,214,83705,1,8,0:0:0:0:
190,167,83892,1,0,0:0:0:0:
256,219,84080,6,0,P|286:203|307:175,1,70,4|2,0:0|0:0,0:0:0:0:
252,112,84455,2,0,P|224:91|190:84,1,70,8|2,0:0|0:0,0:0:0:0:
106,74,84830,2,0,P|116:41|140:16,1,70,4|0,0:0|0:0,0:0:0:0:
139,152,85205,2,0,P|128:185|105:210,1,70,8|2,0:0|0:0,0:0:0:0:
32,252,85580,5,4,0:0:0:0:
80,320,85767,1,2,0:0:0:0:
152,276,85955,2,0,L|220:264,1,70,4|0,0:0|0:0,0:0:0:0:
296,228,86330,2,0,L|312:196,3,35,4|0|0|0,0:0|0:0|0:0|0:0,0:0:0:0:
344,200,86705,2,0,L|340:164,3,35,4|0|0|0,0:0|0:0|0:0|0:0,0:0:0:0:
372,156,87080,6,0,P|380:104|260:44,1,210.000008010865,4|2,0:0|0:0,0:0:0:0:
184,144,88205,1,2,0:0:0:0:
60,144,88580,2,0,P|72:108|68:68,2,78.7500030040742,2|0|2,0:0|0:0|0:0,0:0:0:0:
144,312,89705,1,0,0:0:0:0:
220,212,90080,6,0,P|264:240|316:240,1,105.000004005432,2|0,0:0|0:0,0:0:0:0:
372,212,90642,1,0,0:0:0:0:
380,148,90830,2,0,L|376:68,1,78.7500030040742,2|2,0:0|0:0,0:0:0:0:
288,36,91392,1,0,0:0:0:0:
236,68,91580,2,0,L|156:84,1,78.7500030040742,0|2,0:0|0:0,0:0:0:0:
64,72,92142,1,2,0:0:0:0:
128,252,92705,1,2,0:0:0:0:
68,360,93080,6,0,P|144:336|220:348,1,157.500006008148,0|2,0:0|0:0,0:0:0:0:
328,284,94017,1,2,0:0:0:0:
388,304,94205,1,0,0:0:0:0:
444,276,94392,1,0,0:0:0:0:
472,220,94580,1,2,0:0:0:0:
456,160,94767,2,0,P|452:132|456:108,2,52.5000020027161,0|2|2,0:0|0:0|0:0,0:0:0:0:
332,172,95517,5,2,0:0:0:0:
269,178,95705,2,0,L|217:166,1,52.5000020027161,2|0,0:0|0:0,0:0:0:0:
156,156,96080,1,2,0:0:0:0:
256,192,96173,12,0,98330,0:0:0:0:
