osu file format v14

[General]
AudioFilename: senya- Tsuki Ni Murakumo Hana Ni Kaze.mp3
AudioLeadIn: 1500
PreviewTime: 62329
Countdown: 0
SampleSet: Soft
StackLeniency: 0.7
Mode: 0
LetterboxInBreaks: 0
WidescreenStoryboard: 0

[Editor]
Bookmarks: 16968
DistanceSpacing: 1
BeatDivisor: 4
GridSize: 4
TimelineZoom: 1

[Metadata]
Title:Tsuki ni Murakumo Hana ni Kaze (PV ver.)
TitleUnicode:Tsuki ni Murakumo Hana ni Kaze (PV ver.)
Artist:senya
ArtistUnicode:senya
Creator:Arooma
Version:Normal
Source:東方Project
Tags:Touhou kaleidoscope memories of phantasm last remote zun yuuhei satellite komeiji koishi
BeatmapID:680362
BeatmapSetID:302480

[Difficulty]
HPDrainRate:4
CircleSize:3
OverallDifficulty:4
ApproachRate:5
SliderMultiplier:1.1
SliderTickRate:2

[Events]
//Background and Video events
0,0,"BG1.jpg",0,0
//Break Periods
//Storyboard Layer 0 (Background)
//Storyboard Layer 1 (Fail)
//Storyboard Layer 2 (Pass)
//Storyboard Layer 3 (Foreground)
//Storyboard Sound Samples

[TimingPoints]
829,375,4,2,1,30,1,0
1579,375,4,2,1,30,1,0
10766,-100,4,1,1,55,0,0
12079,-100,4,1,1,60,0,0
13579,-100,4,1,1,65,0,0
22204,-100,4,2,2,65,0,0
22297,-100,4,1,1,65,0,0
25579,-100,4,2,1,50,0,0
37579,-100,4,1,1,55,0,0
39454,-100,4,2,2,55,0,0
39547,-100,4,1,1,55,0,0
48079,-100,4,1,1,65,0,0
48829,-100,4,1,1,20,0,0
49579,-100,4,1,1,60,0,0
60079,-100,4,1,1,55,0,0
61579,-100,4,1,1,30,0,0
62329,-100,4,1,1,65,0,0
63079,-100,4,1,1,70,0,1
64954,-100,4,2,2,70,0,1
65047,-100,4,1,1,70,0,1
67954,-100,4,2,2,70,0,1
68047,-100,4,1,1,70,0,1
74985,-100,4,1,1,70,0,0
75079,-100,4,1,1,70,0,1
76954,-100,4,2,2,70,0,1
77047,-100,4,1,1,70,0,1
79954,-100,4,2,2,70,0,1
80047,-100,4,1,1,70,0,1
83704,-100,4,2,2,70,0,1
83797,-100,4,1,1,70,0,1
84079,-100,4,1,1,70,0,0
87079,-100,4,2,2,70,0,0
87172,-100,4,2,1,25,0,0
96266,-100,4,1,1,10,0,0
99829,-100,4,2,1,5,0,0

[Colours]
Combo1 : 125,255,190
Combo2 : 255,104,104
Combo3 : 255,128,255
Combo4 : 53,255,104

[HitObjects]
92,84,829,6,0,P|144:96|200:88,1,110
312,84,1579,2,0,P|340:176|296:292,1,220,2|0,0:0|0:0,0:0:0:0:
204,344,2704,1,0,0:0:0:0:
108,288,3079,2,0,P|84:204|96:128,2,165
204,344,4579,6,0,P|256:348|320:340,1,110,2|0,0:0|0:0,0:0:0:0:
416,300,5329,2,0,P|424:236|416:184,1,110
368,92,6079,2,0,P|288:56|208:52,2,165
412,192,7579,6,0,P|360:212|304:224,1,110,2|0,0:0|0:0,0:0:0:0:
252,228,8141,2,0,P|172:220|96:172,1,165
36,88,9079,1,2,0:0:0:0:
140,56,9454,2,0,L|256:56,1,110
304,56,10016,2,0,P|312:112|300:172,1,110,2|0,0:0|0:0,0:0:0:0:
276,212,10579,1,0,0:0:0:0:
256,192,10766,12,0,12829,2:0:0:0:
380,80,13579,6,0,P|388:136|380:192,1,110,4|8,0:0|0:0,0:0:0:0:
356,240,14141,1,0,0:0:0:0:
320,280,14329,2,0,P|268:296|212:300,1,110,0|8,0:0|0:0,0:0:0:0:
160,292,14891,2,0,P|120:220|112:132,1,165,2|8,0:0|0:0,0:0:0:0:
192,64,15829,2,0,L|304:84,1,110,0|8,0:0|0:0,0:0:0:0:
396,136,16579,5,4,0:0:0:0:
384,244,16954,1,8,0:0:0:0:
300,316,17329,2,0,P|240:316|184:304,1,110,0|8,0:0|0:0,0:0:0:0:
144,280,17891,2,0,B|140:232|124:204|124:204|152:168|140:116,1,165,0|8,0:0|0:0,0:0:0:0:
228,60,18829,2,0,P|280:68|336:92,1,110,0|8,0:0|0:0,0:0:0:0:
400,176,19579,6,0,P|388:236|360:288,1,110,4|8,0:0|0:0,0:0:0:0:
320,308,20141,2,0,P|236:288|172:224,1,165,0|8,0:0|0:0,0:0:0:0:
128,136,21079,2,0,P|184:96|228:84,1,110,0|8,0:0|0:0,0:0:0:0:
276,84,21641,2,0,L|396:120,2,110
232,116,22579,6,0,L|232:248,1,110,4|8,0:0|0:0,0:0:0:0:
248,280,23141,2,0,P|304:280|356:260,1,110
400,228,23704,2,0,L|412:168,1,55,8|0,0:0|0:0,0:0:0:0:
416,120,24079,2,0,P|360:96|312:84,1,110,0|8,0:0|0:0,0:0:0:0:
199,84,24829,2,0,P|146:97|96:120,1,110,0|8,0:0|0:0,0:0:0:0:
68,228,25579,6,0,P|160:288|280:300,1,220,4|0,0:2|0:0,0:0:0:0:
376,288,26704,1,0,0:0:0:0:
428,192,27079,2,0,P|340:128|232:100,1,220
128,132,28204,1,0,0:0:0:0:
108,184,28391,1,0,0:0:0:0:
112,240,28579,6,0,P|160:264|224:280,1,110,2|0,0:0|0:0,0:0:0:0:
268,280,29141,2,0,P|352:256|420:188,1,165,2|0,0:0|0:0,0:0:0:0:
404,96,30079,2,0,P|352:84|292:80,1,110
244,96,30641,2,0,L|184:128,1,55,0|2,0:0|0:0,0:0:0:0:
104,184,31204,5,0,0:0:0:0:
100,240,31391,1,0,0:0:0:0:
120,292,31579,2,0,P|172:304|240:304,1,110,2|0,0:0|0:0,0:0:0:0:
280,292,32141,2,0,P|340:228|364:148,1,165
304,64,33079,1,2,0:0:0:0:
196,80,33454,1,0,0:0:0:0:
112,152,33829,1,2,0:0:0:0:
100,260,34204,1,0,0:0:0:0:
188,324,34579,6,0,P|240:320|296:300,1,110,2|0,0:0|0:0,0:0:0:0:
340,268,35141,2,0,L|380:160,1,110
396,112,35704,1,0,0:0:0:0:
304,52,36079,2,0,P|276:96|252:156,1,110,2|0,0:0|0:0,0:0:0:0:
256,260,36829,2,0,P|200:276|140:280,1,110
84,188,37579,6,0,P|120:140|164:100,1,110,4|8,0:2|0:0,0:0:0:0:
260,72,38329,2,0,P|312:104|352:140,1,110,0|8,0:0|0:0,0:0:0:0:
368,244,39079,2,0,B|308:264|256:232|256:232|208:264|144:244,1,220
56,204,40204,1,8,0:0:0:0:
92,100,40579,6,0,P|144:96|204:100,1,110,0|8,0:0|0:0,0:0:0:0:
256,108,41141,1,0,0:0:0:0:
308,120,41329,2,0,P|332:172|344:232,1,110,0|8,0:0|0:0,0:0:0:0:
276,308,42079,2,0,P|224:320|152:320,2,110,0|8|0,0:0|0:0|0:0,0:0:0:0:
368,248,43204,5,8,0:0:0:0:
392,200,43391,1,0,0:0:0:0:
412,148,43579,2,0,L|308:92,1,110,4|8,0:2|0:0,0:0:0:0:
204,84,44329,2,0,P|160:124|128:180,1,110,0|8,0:0|0:0,0:0:0:0:
124,220,44891,2,0,P|160:276|248:328,1,165,4|8,0:0|0:0,0:0:0:0:
348,300,45829,2,0,P|364:244|368:184,1,110,0|8,0:0|0:0,0:0:0:0:
256,192,46579,12,0,48829,0:0:0:0:
128,112,49579,6,0,P|100:180|100:276,2,165,4|8|0,0:2|0:0|0:0,0:0:0:0:
172,76,50891,2,0,P|232:64|284:64,1,110
392,76,51641,2,0,P|388:132|372:192,1,110
356,236,52204,2,0,L|312:296,1,55,8|0,0:0|0:0,0:0:0:0:
276,308,52579,6,0,P|184:332|100:328,2,165,4|8|0,0:0|0:0|0:0,0:0:0:0:
323,280,53891,2,0,P|356:224|372:168,1,110
360,72,54641,2,0,P|304:76|252:88,1,110
212,128,55204,2,0,L|180:188,1,55,8|0,0:0|0:0,0:0:0:0:
170,228,55579,6,0,P|242:268|337:278,2,165,4|8|0,0:0|0:0|0:0,0:0:0:0:
128,192,56891,2,0,P|100:140|88:88,1,110
192,124,57641,2,0,P|272:136|360:124,1,165
460,88,58579,6,0,P|464:152|452:208,1,110,4|0,0:0|0:0,0:0:0:0:
440,248,59141,1,0,0:0:0:0:
412,296,59329,2,0,P|376:320|340:336,2,82.5
256,192,60079,12,4,61579,0:0:0:0:
132,272,62329,6,0,P|128:208|132:160,1,110
164,56,63079,2,0,P|220:56|272:68,1,110,4|8,0:2|0:0,0:0:0:0:
324,88,63641,1,0,0:0:0:0:
372,116,63829,2,0,P|388:168|392:224,1,110,0|8,0:0|0:0,0:0:0:0:
344,324,64579,2,0,P|256:312|184:264,2,165,0|0|8,0:0|0:0|0:0,0:0:0:0:
440,272,66079,6,0,P|448:216|436:152,1,110,4|8,0:0|0:0,0:0:0:0:
372,76,66829,2,0,L|256:76,1,110,0|8,0:0|0:0,0:0:0:0:
196,164,67579,2,0,L|376:164,1,165
280,308,68704,1,8,0:0:0:0:
280,308,69079,6,0,P|220:316|164:308,1,110,4|8,0:0|0:0,0:0:0:0:
120,296,69641,2,0,P|92:244|84:192,1,110
84,140,70204,2,0,L|116:84,1,55,8|0,0:0|0:0,0:0:0:0:
144,48,70579,2,0,P|200:60|256:60,1,110,0|8,0:0|0:0,0:0:0:0:
364,52,71329,2,0,P|364:108|348:172,1,110,0|8,0:0|0:0,0:0:0:0:
296,256,72079,6,0,P|240:260|184:252,1,110,4|8,0:0|0:0,0:0:0:0:
92,200,72829,2,0,P|92:144|108:92,1,110,0|8,0:0|0:0,0:0:0:0:
132,44,73391,2,0,L|248:52,1,110,4|0,0:0|0:0,0:0:0:0:
280,92,73954,2,0,L|304:148,1,55,8|0,0:0|0:0,0:0:0:0:
308,196,74329,2,0,L|288:248,1,55
252,288,74704,1,8,0:0:0:0:
144,320,75079,6,0,P|128:264|128:208,1,110,4|8,0:2|0:0,0:0:0:0:
148,104,75829,2,0,P|204:100|268:104,1,110,0|8,0:0|0:0,0:0:0:0:
364,132,76579,2,0,P|360:216|328:296,2,165,0|0|8,0:0|0:0|0:0,0:0:0:0:
292,48,78079,6,0,P|240:52|176:72,1,110,4|8,0:0|0:0,0:0:0:0:
108,148,78829,2,0,L|152:268,1,110,0|8,0:0|0:0,0:0:0:0:
232,320,79579,2,0,P|288:268|316:168,2,165,0|0|8,0:0|0:0|0:0,0:0:0:0:
124,320,81079,6,0,P|108:264|108:208,1,110,4|8,0:0|0:0,0:0:0:0:
116,160,81641,2,0,P|176:104|256:76,1,165,0|8,0:0|0:0,0:0:0:0:
364,68,82579,1,0,0:0:0:0:
420,160,82954,2,0,P|404:216|368:264,1,110,8|0,0:0|0:0,0:0:0:0:
332,292,83516,2,0,L|216:324,1,110
172,332,84079,5,4,0:0:0:0:
256,192,84266,12,6,87079,0:0:0:0:
116,296,87829,6,0,L|228:296,1,110
332,260,88579,2,0,P|388:204|408:108,2,165
226,296,90079,1,2,0:0:0:0:
226,296,90829,2,0,L|132:300,2,82.5
286,296,91579,2,0,L|380:300,2,82.5
144,216,92704,1,0,0:0:0:0:
144,216,93079,6,0,P|96:148|72:48,2,165,2|0|0,0:0|0:0|0:0,0:0:0:0:
228,288,94579,2,0,L|228:352,2,55,2|0|0,0:0|0:0|0:0,0:0:0:0:
228,232,95141,1,0,0:0:0:0:
300,148,95516,2,0,L|356:148,2,55,2|0|0,0:0|0:0|0:0,0:0:0:0:
244,148,96079,1,2,2:0:0:0:
256,192,96266,12,0,99829,0:0:0:0:
