osu file format v14

[General]
AudioFilename: senya- Tsuki Ni Murakumo Hana Ni Kaze.mp3
AudioLeadIn: 1500
PreviewTime: 62329
Countdown: 0
SampleSet: Normal
StackLeniency: 0.7
Mode: 0
LetterboxInBreaks: 0
WidescreenStoryboard: 0

[Editor]
DistanceSpacing: 1.2
BeatDivisor: 4
GridSize: 4
TimelineZoom: 1

[Metadata]
Title:Tsuki ni Murakumo Hana ni Kaze (PV ver.)
TitleUnicode:Tsuki ni Murakumo Hana ni Kaze (PV ver.)
Artist:senya
ArtistUnicode:senya
Creator:Arooma
Version:Lunatic
Source:東方Project
Tags:Touhou kaleidoscope memories of phantasm last remote zun yuuhei satellite komeiji koishi
BeatmapID:677993
BeatmapSetID:302480

[Difficulty]
HPDrainRate:6
CircleSize:4
OverallDifficulty:7
ApproachRate:8.5
SliderMultiplier:1.7
SliderTickRate:1

[Events]
//Background and Video events
0,0,"BG1.jpg",0,0
//Break Periods
//Storyboard Layer 0 (Background)
//Storyboard Layer 1 (Fail)
//Storyboard Layer 2 (Pass)
//Storyboard Layer 3 (Foreground)
//Storyboard Sound Samples

[TimingPoints]
829,375,4,1,1,30,1,0
829,-153.846153846153,4,2,1,30,0,0
1579,375,4,2,1,30,1,0
1579,-153.846153846154,4,2,1,30,0,0
10766,-153.846153846153,4,1,1,50,0,0
12079,-153.846153846153,4,1,1,65,0,0
13204,-153.846153846153,4,1,1,20,0,0
13579,-100,4,1,1,60,0,0
17891,-100,4,1,1,60,0,0
24829,-100,4,1,1,60,0,0
25579,-133.333333333333,4,2,1,55,0,0
31204,-117.647058823529,4,2,1,55,0,0
37579,-105.263157894737,4,1,1,55,0,0
49579,-100,4,1,1,65,0,0
63079,-83.3333333333333,4,1,1,70,0,1
74985,-83.3333333333333,4,1,1,70,0,0
75079,-83.3333333333333,4,1,1,70,0,1
84079,-83.3333333333333,4,1,1,70,0,0
87079,-133.333333333333,4,2,2,70,0,0
87172,-133.333333333333,4,2,1,25,0,0
96266,-133.333333333333,4,1,1,5,0,0

[Colours]
Combo1 : 125,255,190
Combo2 : 255,104,104
Combo3 : 255,128,255
Combo4 : 53,255,104

[HitObjects]
119,93,829,6,0,P|115:149|134:209,1,110.499994941712
288,316,1579,1,2,0:0:0:0:
344,236,1766,2,0,L|352:176,1,55.2499974708558
356,72,2141,1,0,0:0:0:0:
356,72,2329,2,0,P|300:92|232:92,1,110.499994941712
136,116,2891,1,0,0:0:0:0:
156,232,3079,6,0,P|176:276|204:308,2,82.8749962062838
256,156,3829,1,2,0:0:0:0:
332,296,4016,2,0,P|307:308|275:316,1,55.2499974708558
148,324,4391,1,0,0:0:0:0:
148,324,4579,6,0,P|144:260|168:204,1,110.499994941712,2|0,0:0|0:0,0:0:0:0:
228,132,5141,1,0,0:0:0:0:
344,88,5329,2,0,P|368:96|408:128,1,55.2499974708558
320,232,5704,2,0,P|296:224|256:192,1,55.2499974708558
180,92,6079,6,0,P|144:112|116:148,2,82.8749962062838
288,76,6829,1,2,0:0:0:0:
396,84,7016,1,0,0:0:0:0:
244,176,7204,1,0,0:0:0:0:
288,76,7391,1,0,0:0:0:0:
352,180,7579,6,0,P|360:228|340:296,1,110.499994941712
220,332,8141,2,0,L|160:228,1,110.499994941712
96,84,8704,1,0,0:0:0:0:
180,136,8891,1,0,0:0:0:0:
92,184,9079,2,0,P|88:216|92:244,1,55.2499974708558,2|0,0:0|0:0,0:0:0:0:
176,332,9454,2,0,P|224:288|248:248,1,110.499994941712
276,136,10016,5,0,0:0:0:0:
372,72,10204,2,0,L|388:132,1,55.2499974708558
364,240,10579,1,0,0:0:0:0:
256,192,10766,12,0,13204,0:0:0:0:
120,304,13579,6,0,P|108:260|116:216,1,85,4|0,0:0|0:0,0:0:0:0:
232,232,13954,2,0,P|238:186|262:149,1,85,8|0,0:0|0:0,0:0:0:0:
372,212,14329,2,0,P|366:258|342:295,1,85
228,340,14704,1,8,0:0:0:0:
156,236,14891,2,2,P|136:152|184:80,2,170
228,340,15829,1,0,0:0:0:0:
228,340,16016,2,0,L|312:312,1,85,0|8,0:0|0:0,0:0:0:0:
400,200,16391,1,0,0:0:0:0:
328,72,16579,5,0,0:0:0:0:
464,92,16766,1,0,0:0:0:0:
264,176,16954,1,8,0:0:0:0:
268,24,17141,1,0,0:0:0:0:
116,76,17329,1,0,0:0:0:0:
264,176,17516,1,0,0:0:0:0:
264,176,17610,1,0,0:0:0:0:
264,176,17704,1,12,0:0:0:0:
132,260,17891,6,0,P|192:328|272:340,1,170
388,304,18454,1,8,0:0:0:0:
316,180,18641,1,0,0:0:0:0:
404,44,18829,1,0,0:0:0:0:
420,204,19016,1,0,0:0:0:0:
312,84,19204,1,8,0:0:0:0:
468,120,19391,1,0,0:0:0:0:
236,44,19579,6,0,P|220:84|224:132,1,85,4|0,0:0|0:0,0:0:0:0:
292,212,19954,1,8,0:0:0:0:
224,340,20141,2,0,P|156:284|140:188,1,170
164,88,20704,1,8,0:0:0:0:
252,192,20891,1,0,0:0:0:0:
380,256,21079,2,0,P|400:208|396:160,1,85
364,64,21454,1,8,0:0:0:0:
192,252,21641,2,0,P|120:204|92:124,1,170
172,40,22204,1,8,0:0:0:0:
240,168,22391,1,0,0:0:0:0:
344,68,22579,6,0,P|376:100|392:140,1,85,4|0,0:0|0:0,0:0:0:0:
352,248,22954,1,8,0:0:0:0:
228,336,23141,2,0,P|192:312|164:272,1,85,4|0,0:0|0:0,0:0:0:0:
184,160,23516,1,0,0:0:0:0:
308,68,23704,2,0,P|344:92|372:132,1,85,12|0,0:0|0:0,0:0:0:0:
352,248,24079,5,0,0:0:0:0:
436,188,24266,1,4,0:0:0:0:
256,180,24454,2,0,L|248:264,1,85,8|0,0:0|0:0,0:0:0:0:
164,320,24829,1,4,0:0:0:0:
135,313,24922,1,0,0:0:0:0:
108,299,25016,1,0,0:0:0:0:
87,279,25110,1,0,0:0:0:0:
72,253,25204,1,12,0:0:0:0:
64,224,25297,1,0,0:0:0:0:
65,195,25391,1,0,0:0:0:0:
73,166,25485,1,0,0:0:0:0:
92,144,25579,6,4,P|144:112|216:112,1,127.500004863739,4|0,0:0|0:0,0:0:0:0:
296,188,26141,1,0,0:0:0:0:
400,264,26329,2,0,P|440:208|436:136,1,127.500004863739
376,48,26891,1,0,0:0:0:0:
376,48,27079,2,0,P|324:84|260:100,1,127.500004863739
152,152,27641,1,0,0:0:0:0:
76,56,27829,1,2,0:0:0:0:
152,152,28204,5,0,0:0:0:0:
72,248,28391,1,0,0:0:0:0:
168,336,28579,2,0,P|196:316|220:280,1,63.7500024318696,2|0,0:0|0:0,0:0:0:0:
252,176,28954,1,0,0:0:0:0:
275,55,29141,2,0,P|333:81|370:132,1,127.500004863739
370,251,29704,2,0,P|333:302|276:328,1,127.500004863739
164,336,30266,1,0,0:0:0:0:
132,184,30454,1,0,0:0:0:0:
68,324,30641,1,0,0:0:0:0:
244,156,30829,1,2,0:0:0:0:
244,156,31204,6,0,L|324:136,1,72.2500013780594
220,240,31579,2,0,P|156:188|148:112,1,144.500002756119
260,52,32141,2,0,P|324:104|332:180,1,144.500002756119
296,288,32704,1,0,0:0:0:0:
296,288,33079,6,0,L|372:292,1,72.2500013780594,2|0,0:0|0:0,0:0:0:0:
223,284,33454,2,0,L|299:288,1,72.2500013780594
436,252,33829,2,0,P|436:212|424:176,1,72.2500013780594
348,52,34204,2,0,L|340:128,1,72.2500013780594
324,252,34579,5,2,0:0:0:0:
224,196,34766,1,0,0:0:0:0:
212,84,34954,1,0,0:0:0:0:
232,300,35141,1,0,0:0:0:0:
388,72,35516,1,0,0:0:0:0:
436,148,35704,2,0,P|392:160|352:160,1,72.2500013780594
280,88,36079,5,2,0:0:0:0:
280,88,36266,1,0,0:0:0:0:
212,228,36454,1,0,0:0:0:0:
212,228,36641,1,0,0:0:0:0:
120,84,36829,1,2,0:0:0:0:
64,236,37016,1,0,0:0:0:0:
64,236,37110,1,0,0:0:0:0:
64,236,37204,2,0,P|88:260|132:280,1,72.2500013780594
256,316,37579,6,0,P|324:260|332:188,1,161.499995687485,4|8,0:2|0:0,0:0:0:0:
256,84,38141,1,0,0:0:0:0:
181,191,38329,2,0,P|192:269|256:316,1,161.499995687485,0|8,0:0|0:0,0:0:0:0:
384,304,38891,1,0,0:0:0:0:
440,168,39079,2,0,L|356:148,1,80.7499978437424
164,100,39454,1,8,0:0:0:0:
108,232,39641,2,0,L|192:212,1,80.7499978437424
312,140,40016,5,0,0:0:0:0:
312,140,40204,1,8,0:0:0:0:
248,288,40391,1,0,0:0:0:0:
372,200,40579,1,2,0:0:0:0:
247,287,40766,2,0,P|211:270|184:241,1,80.7499978437424,0|8,0:0|0:0,0:0:0:0:
312,140,41141,1,0,0:0:0:0:
108,256,41329,2,0,P|85:217|81:171,1,80.7499978437424,2|0,0:0|0:0,0:0:0:0:
248,80,41704,1,8,0:0:0:0:
248,80,42079,6,0,L|316:144,1,80.7499978437424
364,260,42454,2,0,P|344:296|304:324,1,80.7499978437424,8|0,0:0|0:0,0:0:0:0:
168,248,42829,2,0,P|188:212|228:184,1,80.7499978437424
356,136,43204,1,8,0:0:0:0:
296,212,43391,1,0,0:0:0:0:
416,60,43579,5,4,0:2:0:0:
356,136,43766,2,0,P|320:100|312:64,1,80.7499978437424,0|8,0:0|0:0,0:0:0:0:
416,60,44141,1,0,0:0:0:0:
296,212,44329,2,0,P|232:148|220:80,1,161.499995687485,0|8,0:0|0:0,0:0:0:0:
396,80,44891,2,0,P|374:156|315:210,1,161.499995687485
152,180,45454,2,0,L|176:260,1,80.7499978437424,8|0,0:0|0:0,0:0:0:0:
312,328,45829,2,0,P|344:300|364:252,1,80.7499978437424
304,84,46204,1,8,0:0:0:0:
328,176,46391,1,0,0:0:0:0:
228,260,46579,6,0,P|197:280|136:304,1,80.7499978437424,4|0,0:0|0:0,0:0:0:0:
157,297,46860,1,0,0:0:0:0:
157,297,46954,1,8,0:0:0:0:
52,212,47141,1,0,0:0:0:0:
120,64,47329,1,0,0:0:0:0:
120,64,47422,1,0,0:0:0:0:
120,64,47516,1,0,0:0:0:0:
192,192,47704,2,0,P|232:172|256:144,1,80.7499978437424,8|0,0:0|0:0,0:0:0:0:
368,64,48079,6,0,L|404:148,1,80.7499978437424,4|0,0:0|0:0,0:0:0:0:
244,232,48454,2,0,L|280:148,1,80.7499978437424,8|0,0:0|0:0,0:0:0:0:
392,248,48829,1,4,0:0:0:0:
378,272,48922,1,0,0:0:0:0:
360,294,49016,1,0,0:0:0:0:
338,312,49110,1,0,0:0:0:0:
313,325,49204,1,12,0:0:0:0:
286,332,49297,1,0,0:0:0:0:
258,334,49391,1,0,0:0:0:0:
230,331,49485,1,0,0:0:0:0:
203,322,49579,6,0,P|136:264|100:176,1,170,4|8,0:2|0:0,0:0:0:0:
96,56,50141,2,0,P|140:60|180:84,1,85
256,172,50516,1,0,0:0:0:0:
392,84,50704,1,8,0:0:0:0:
392,84,50891,2,0,P|412:176|376:252,1,170,0|2,0:0|0:0,0:0:0:0:
128,243,51641,6,0,P|98:164|120:84,1,170
248,40,52204,2,0,L|328:68,1,85,8|0,0:0|0:0,0:0:0:0:
440,160,52579,2,0,P|413:239|346:288,1,170,0|8,0:0|0:0,0:0:0:0:
232,344,53141,2,0,P|212:308|208:260,1,85
256,136,53516,1,0,0:0:0:0:
120,52,53704,1,8,0:0:0:0:
120,52,53891,2,0,P|92:132|120:216,1,170,0|2,0:0|0:0,0:0:0:0:
395,210,54641,6,0,P|419:130|392:52,1,170
256,28,55204,2,0,L|228:120,1,85,8|0,0:0|0:0,0:0:0:0:
240,268,55579,2,0,P|280:288|320:288,1,85
308,152,55954,1,8,0:0:0:0:
168,320,56141,2,0,P|108:264|92:176,1,170,4|0,0:0|0:0,0:0:0:0:
172,92,56704,1,8,0:0:0:0:
316,240,56891,2,0,P|380:184|396:104,1,170,4|2,0:0|0:0,0:0:0:0:
172,92,57641,6,0,P|136:120|112:156,1,85
140,276,58016,1,0,0:0:0:0:
264,312,58204,2,0,L|312:224,1,85
212,84,58579,2,0,P|172:96|124:144,1,85,4|0,0:0|0:0,0:0:0:0:
138,122,58860,1,0,0:0:0:0:
138,122,58954,1,0,0:0:0:0:
228,224,59141,1,0,0:0:0:0:
136,324,59329,1,4,0:0:0:0:
288,332,59516,1,0,0:0:0:0:
288,332,59610,1,0,0:0:0:0:
288,332,59704,2,0,L|320:244,1,85
392,88,60079,5,4,0:0:0:0:
312,176,60266,2,0,L|228:140,1,85
116,60,60641,1,0,0:0:0:0:
64,176,60829,2,0,P|92:212|132:236,1,85
256,312,61204,2,0,L|328:236,1,85
224,104,61579,2,0,P|180:108|132:132,2,85,2|0|2,0:0|0:0|0:0,0:0:0:0:
300,228,62141,1,0,0:0:0:0:
196,320,62329,2,0,P|156:304|116:260,1,85
144,116,62704,2,0,P|184:132|224:176,1,85
312,316,63079,6,0,P|364:268|376:184,1,152.999995330811,4|0,0:2|0:0,0:0:0:0:
360,164,63454,2,0,L|256:212,1,101.999996887207,8|0,0:0|0:0,0:0:0:0:
108,320,63829,2,0,P|76:280|64:212,1,101.999996887207
256,232,64204,2,0,P|243:280|211:320,1,101.999996887207,8|0,0:0|0:0,0:0:0:0:
68,188,64579,1,0,0:0:0:0:
248,131,64766,1,0,0:0:0:0:
248,131,64860,1,0,0:0:0:0:
248,131,64954,2,0,P|260:179|252:239,1,101.999996887207,8|0,0:0|0:0,0:0:0:0:
68,188,65329,2,0,P|56:140|64:80,1,101.999996887207
255,31,65704,2,0,P|260:81|248:130,1,101.999996887207,8|0,0:0|0:0,0:0:0:0:
164,268,66079,6,0,P|248:260|312:296,1,152.999995330811,4|0,0:0|0:0,0:0:0:0:
306,290,66454,2,0,L|334:190,1,101.999996887207,8|0,0:0|0:0,0:0:0:0:
412,76,66829,1,0,0:0:0:0:
340,200,67016,1,0,0:0:0:0:
340,200,67110,1,0,0:0:0:0:
340,200,67204,2,0,L|228:156,1,101.999996887207,8|0,0:0|0:0,0:0:0:0:
128,64,67579,2,0,P|88:108|72:152,1,101.999996887207,4|0,0:0|0:0,0:0:0:0:
76,164,67860,1,0,0:0:0:0:
80,180,67954,1,8,0:0:0:0:
156,324,68141,2,0,P|228:280|256:144,1,203.999993774414
228,8,68704,2,8,P|180:24|136:64,1,101.999996887207,8|0,0:0|0:0,0:0:0:0:
88,224,69079,5,4,0:0:0:0:
224,96,69266,1,0,0:0:0:0:
88,224,69454,1,8,0:0:0:0:
204,292,69641,2,0,L|216:184,1,101.999996887207,2|0,0:0|0:0,0:0:0:0:
88,224,70016,1,0,0:0:0:0:
312,320,70204,2,0,L|324:212,1,101.999996887207,10|0,0:0|0:0,0:0:0:0:
256,72,70579,2,0,P|204:76|136:116,1,101.999996887207,4|0,0:0|0:0,0:0:0:0:
88,224,70954,2,0,P|180:176|280:164,1,203.999993774414,8|0,0:0|0:0,0:0:0:0:
428,168,71516,2,0,P|414:216|384:257,1,101.999996887207,0|8,0:0|0:0,0:0:0:0:
252,240,71891,1,0,0:0:0:0:
156,324,72079,6,0,P|112:284|96:240,1,101.999996887207,4|0,0:0|0:0,0:0:0:0:
148,80,72454,2,0,L|196:180,1,101.999996887207,8|0,0:0|0:0,0:0:0:0:
300,268,72829,1,0,0:0:0:0:
432,320,73016,2,0,L|440:204,1,101.999996887207,0|8,0:0|0:0,0:0:0:0:
456,64,73391,6,0,B|420:40|420:40|360:104|268:88,1,203.999993774414,4|0,0:0|0:0,0:0:0:0:
116,56,73954,2,0,L|144:168,1,101.999996887207,8|0,0:0|0:0,0:0:0:0:
216,300,74329,1,4,0:0:0:0:
245,308,74422,1,0,0:0:0:0:
275,310,74516,1,0,0:0:0:0:
305,305,74610,1,0,0:0:0:0:
333,292,74704,1,8,0:0:0:0:
357,274,74797,1,0,0:0:0:0:
376,250,74891,1,0,0:0:0:0:
389,222,74985,1,0,0:0:0:0:
395,192,75079,6,0,P|352:116|252:64,1,203.999993774414,4|8,0:2|0:0,0:0:0:0:
120,72,75641,1,0,0:0:0:0:
80,208,75829,2,0,P|132:220|180:212,1,101.999996887207
296,84,76204,2,0,P|244:72|196:80,1,101.999996887207,8|0,0:0|0:0,0:0:0:0:
68,160,76579,2,0,L|100:276,1,101.999996887207,4|0,0:0|0:0,0:0:0:0:
104,272,76860,1,0,0:0:0:0:
112,284,76954,1,8,0:0:0:0:
256,336,77141,2,0,P|344:268|368:172,1,203.999993774414
344,20,77704,2,0,P|296:36|256:68,1,101.999996887207,8|0,0:0|0:0,0:0:0:0:
208,244,78079,6,0,P|256:228|324:148,1,152.999995330811,4|0,0:0|0:0,0:0:0:0:
332,140,78454,2,0,L|368:240,1,101.999996887207,8|0,0:0|0:0,0:0:0:0:
272,320,78829,1,0,0:0:0:0:
116,276,79016,1,0,0:0:0:0:
116,276,79110,1,0,0:0:0:0:
116,276,79204,2,0,L|92:164,1,101.999996887207,8|0,0:0|0:0,0:0:0:0:
244,68,79579,2,0,P|288:92|324:136,1,101.999996887207,4|0,0:0|0:0,0:0:0:0:
328,144,79860,1,0,0:0:0:0:
336,156,79954,1,8,0:0:0:0:
296,324,80141,2,0,P|216:276|176:168,1,203.999993774414
164,40,80704,6,0,P|216:56|256:96,1,101.999996887207,8|0,0:0|0:0,0:0:0:0:
320,204,81079,1,4,0:0:0:0:
204,316,81266,2,0,P|160:284|136:224,1,101.999996887207,0|8,0:0|0:0,0:0:0:0:
132,80,81641,2,0,B|244:40|244:112|332:80,1,203.999993774414
460,40,82204,2,0,L|476:152,1,101.999996887207,8|0,0:0|0:0,0:0:0:0:
360,288,82579,2,0,P|308:284|260:256,1,101.999996887207,4|0,0:0|0:0,0:0:0:0:
92,232,82954,2,0,P|156:152|264:132,1,203.999993774414,8|0,0:0|0:0,0:0:0:0:
392,148,83516,1,0,0:0:0:0:
360,288,83704,2,0,L|236:240,1,101.999996887207,8|0,0:0|0:0,0:0:0:0:
172,132,84079,5,4,0:2:0:0:
188,104,84172,1,0,0:0:0:0:
211,82,84266,1,0,0:0:0:0:
238,65,84360,1,0,0:0:0:0:
269,54,84454,1,0,0:0:0:0:
300,51,84547,1,0,0:0:0:0:
332,55,84641,1,0,0:0:0:0:
362,66,84735,1,0,0:0:0:0:
389,83,84829,5,4,0:2:0:0:
411,106,84922,1,0,0:0:0:0:
428,134,85016,1,0,0:0:0:0:
438,164,85110,1,0,0:0:0:0:
440,196,85204,1,0,0:0:0:0:
436,228,85297,1,0,0:0:0:0:
424,258,85391,1,0,0:0:0:0:
406,284,85485,1,0,0:0:0:0:
383,306,85579,6,0,L|324:328,7,50.9999984436036,4|0|0|0|0|0|0|0,0:0|0:0|0:0|0:0|0:0|0:0|0:0|0:0,0:0:0:0:
304,332,86329,2,0,L|256:314,7,50.9999984436036
316,292,87079,6,0,L|312:152,1,127.500004863739,6|0,0:0|0:0,0:0:0:0:
228,76,87829,1,0,0:0:0:0:
204,196,88204,1,0,0:0:0:0:
204,196,88579,2,0,P|176:236|116:280,1,95.6250036478044,2|0,0:0|0:0,0:0:0:0:
80,168,89141,1,0,0:0:0:0:
256,264,89704,1,0,0:0:0:0:
384,124,90079,5,2,0:0:0:0:
384,124,90829,2,0,P|372:172|340:212,2,95.6250036478044
284,52,91579,2,0,L|180:76,1,95.6250036478044
120,164,92141,1,0,0:0:0:0:
128,180,92704,5,0,0:0:0:0:
184,280,93079,2,0,P|216:296|256:300,1,63.7500024318696,2|0,0:0|0:0,0:0:0:0:
348,236,93454,1,0,0:0:0:0:
348,236,93641,2,0,L|352:96,1,127.500004863739
268,48,94204,1,0,0:0:0:0:
192,112,94391,1,0,0:0:0:0:
92,132,94579,5,2,0:0:0:0:
192,112,94766,2,0,L|184:184,1,63.7500024318696
176,276,95141,1,0,0:0:0:0:
336,276,95516,5,0,0:0:0:0:
396,192,95704,1,0,0:0:0:0:
364,96,95891,1,0,0:0:0:0:
336,276,96079,1,2,2:0:0:0:
256,192,96266,12,0,99829,2:0:0:0:
