osu file format v14

[General]
AudioFilename: senya- Tsuki Ni Murakumo Hana Ni Kaze.mp3
AudioLeadIn: 1500
PreviewTime: 62329
Countdown: 0
SampleSet: Normal
StackLeniency: 0.7
Mode: 0
LetterboxInBreaks: 0
WidescreenStoryboard: 0

[Editor]
Bookmarks: 16968
DistanceSpacing: 1.4
BeatDivisor: 4
GridSize: 4
TimelineZoom: 1

[Metadata]
Title:Tsuki ni Murakumo Hana ni Kaze (PV ver.)
TitleUnicode:Tsuki ni Murakumo Hana ni Kaze (PV ver.)
Artist:senya
ArtistUnicode:senya
Creator:Arooma
Version:Hard
Source:東方Project
Tags:Touhou kaleidoscope memories of phantasm last remote zun yuuhei satellite komeiji koishi
BeatmapID:679402
BeatmapSetID:302480

[Difficulty]
HPDrainRate:5
CircleSize:3.5
OverallDifficulty:6
ApproachRate:7
SliderMultiplier:1.5
SliderTickRate:2

[Events]
//Background and Video events
0,0,"BG1.jpg",0,0
//Break Periods
//Storyboard Layer 0 (Background)
//Storyboard Layer 1 (Fail)
//Storyboard Layer 2 (Pass)
//Storyboard Layer 3 (Foreground)
//Storyboard Sound Samples

[TimingPoints]
829,375,4,1,1,30,1,0
829,-153.846153846153,4,2,1,30,0,0
1579,375,4,2,1,30,1,0
1579,-153.846153846153,4,2,1,30,0,0
10766,-153.846153846153,4,1,1,55,0,0
12079,-153.846153846153,4,1,1,60,0,0
13204,-153.846153846153,4,1,1,20,0,0
13579,-100,4,1,1,60,0,0
25579,-133.333333333333,4,2,1,50,0,0
36829,-100,4,1,1,55,0,0
46766,-100,4,1,1,50,0,0
48079,-100,4,1,1,65,0,0
49204,-100,4,1,1,20,0,0
49579,-100,4,1,1,60,0,0
60079,-100,4,1,1,55,0,0
61579,-100,4,1,1,40,0,0
62329,-100,4,1,1,65,0,0
63079,-100,4,1,1,70,0,1
67204,-100,4,2,2,70,0,1
67297,-100,4,1,1,70,0,1
74985,-100,4,1,1,70,0,0
75079,-100,4,1,1,70,0,1
79204,-100,4,2,2,70,0,1
79297,-100,4,1,1,70,0,1
84266,-100,4,1,1,70,0,0
87079,-133.333333333333,4,2,2,70,0,0
87172,-133.333333333333,4,2,1,25,0,0
96266,-133.333333333333,4,1,1,10,0,0
99829,-133.333333333333,4,2,1,5,0,0

[Colours]
Combo1 : 125,255,190
Combo2 : 255,104,104
Combo3 : 255,128,255
Combo4 : 53,255,104

[HitObjects]
112,92,829,6,0,P|100:144|108:196,1,97.4999955368044
156,304,1579,2,0,L|224:304,1,48.7499977684022,2|0,0:0|0:0,0:0:0:0:
284,248,1954,2,0,L|340:248,1,48.7499977684022
408,176,2329,2,0,P|380:136|336:104,1,97.4999955368044
172,92,3079,2,0,P|130:117|103:153,2,73.1249966526033
260,60,3829,1,2,0:0:0:0:
404,84,4204,1,0,0:0:0:0:
404,84,4579,6,0,L|392:192,1,97.4999955368044,2|0,0:0|0:0,0:0:0:0:
252,316,5329,2,0,P|216:296|184:260,2,73.1249966526033
360,316,6079,2,0,P|396:296|428:260,2,73.1249966526033
256,208,7204,1,0,0:0:0:0:
256,208,7579,6,0,P|216:176|184:128,1,97.4999955368044,2|0,0:0|0:0,0:0:0:0:
256,44,8141,2,0,P|294:74|322:113,1,97.4999955368044
360,192,8704,2,0,P|352:220|340:244,1,48.7499977684022
276,292,9079,1,2,0:0:0:0:
192,312,9266,1,0,0:0:0:0:
192,312,9454,6,0,P|172:276|168:208,1,97.4999955368044
188,128,10016,1,0,0:0:0:0:
264,64,10204,2,0,L|312:76,1,48.7499977684022,2|0,0:0|0:0,0:0:0:0:
380,144,10579,1,0,0:0:0:0:
256,192,10766,12,0,13204,0:0:0:0:
160,308,13579,6,0,P|136:272|120:228,1,75,4|0,0:0|0:0,0:0:0:0:
132,144,13954,1,8,0:0:0:0:
184,64,14141,2,0,P|256:48|332:68,1,150
388,144,14704,1,8,0:0:0:0:
420,236,14891,2,2,P|380:296|296:328,2,150
388,144,15829,1,0,0:0:0:0:
388,144,16016,2,0,L|336:84,1,75,0|8,0:0|0:0,0:0:0:0:
248,56,16391,1,0,0:0:0:0:
156,96,16579,6,0,P|132:128|120:172,1,75
124,256,16954,2,0,P|152:284|192:304,1,75,8|0,0:0|0:0,0:0:0:0:
260,228,17329,1,0,0:0:0:0:
344,284,17516,2,0,L|380:308,2,37.5,0|0|12,0:0|0:0|0:0,0:0:0:0:
260,228,17891,6,0,P|276:152|336:104,1,150
408,44,18454,2,0,P|428:76|436:132,1,75,8|0,0:0|0:0,0:0:0:0:
416,216,18829,2,0,P|378:217|325:196,1,75
276,124,19204,2,0,P|285:85|308:53,1,75,8|0,0:0|0:0,0:0:0:0:
408,44,19579,6,0,L|488:24,2,75,4|0|8,0:0|0:0|0:0,0:0:0:0:
340,120,20141,2,0,P|264:124|200:88,1,150
104,52,20704,2,0,L|108:132,1,75,8|0,0:0|0:0,0:0:0:0:
108,232,21079,1,4,0:0:0:0:
180,308,21266,2,0,P|212:328|252:340,1,75,0|8,0:0|0:0,0:0:0:0:
352,340,21641,2,0,P|376:264|364:188,1,150
356,92,22204,2,0,P|324:100|288:128,1,75,8|0,0:0|0:0,0:0:0:0:
248,224,22579,6,0,P|216:216|180:188,1,75,4|0,0:0|0:0,0:0:0:0:
100,140,22954,1,8,0:0:0:0:
196,116,23141,2,0,P|180:196|124:240,1,150,4|0,0:0|0:0,0:0:0:0:
196,316,23704,2,0,L|272:316,1,75,8|0,0:0|0:0,0:0:0:0:
364,292,24079,1,4,0:0:0:0:
364,292,24266,1,0,0:0:0:0:
428,216,24454,1,8,0:0:0:0:
428,216,24641,1,0,0:0:0:0:
384,128,24829,2,0,L|392:88,7,37.5,4|0|0|0|8|0|0|0,0:0|0:0|0:0|0:0|0:0|0:0|0:0|0:0,0:0:0:0:
384,128,25579,6,0,P|328:128|268:112,1,112.500004291535,4|0,0:0|0:0,0:0:0:0:
192,76,26141,1,0,0:0:0:0:
120,132,26329,2,0,P|136:196|168:240,1,112.500004291535,2|0,0:0|0:0,0:0:0:0:
240,280,26891,1,0,0:0:0:0:
320,320,27079,2,0,P|344:276|348:208,1,112.500004291535,2|0,0:0|0:0,0:0:0:0:
288,148,27641,1,0,0:0:0:0:
372,80,27829,1,2,0:0:0:0:
372,80,28204,6,0,L|364:152,1,56.2500021457673
292,216,28579,2,0,P|264:200|240:180,1,56.2500021457673,2|0,0:0|0:0,0:0:0:0:
200,108,28954,1,0,0:0:0:0:
128,52,29141,2,0,P|84:96|76:152,1,112.500004291535,2|0,0:0|0:0,0:0:0:0:
75,240,29704,2,0,P|87:294|128:332,1,112.500004291535
200,276,30266,1,0,0:0:0:0:
284,332,30454,2,0,L|344:344,1,56.2500021457673
400,260,30829,1,2,0:0:0:0:
400,260,31204,6,0,L|400:184,1,56.2500021457673
380,100,31579,2,0,P|328:108|272:152,1,112.500004291535,2|0,0:0|0:0,0:0:0:0:
268,244,32141,2,0,P|213:234|167:202,1,112.500004291535
112,116,32704,1,0,0:0:0:0:
112,116,33079,6,0,P|160:72|208:64,1,112.500004291535,2|0,0:0|0:0,0:0:0:0:
256,152,33641,1,0,0:0:0:0:
306,63,33829,2,0,P|361:76|400:116,1,112.500004291535,2|0,0:0|0:0,0:0:0:0:
360,244,34579,5,2,0:0:0:0:
284,296,34766,2,0,P|256:300|228:296,1,56.2500021457673
152,244,35141,1,0,0:0:0:0:
256,84,35516,1,0,0:0:0:0:
256,84,35704,2,0,L|256:156,1,56.2500021457673
272,236,36079,6,0,P|324:200|348:136,1,112.500004291535,2|0,0:0|0:0,0:0:0:0:
176,148,36829,1,0,0:0:0:0:
100,212,37016,2,0,L|96:252,2,37.5
84,116,37391,1,0,0:0:0:0:
84,116,37579,6,0,P|152:72|224:68,1,150,4|8,0:2|0:0,0:0:0:0:
324,88,38141,1,0,0:0:0:0:
324,88,38329,2,0,L|336:168,1,75,4|0,0:0|0:0,0:0:0:0:
440,148,38704,2,0,L|428:228,1,75,8|0,0:0|0:0,0:0:0:0:
400,324,39079,1,0,0:0:0:0:
324,252,39266,1,0,0:0:0:0:
256,332,39454,2,0,L|172:320,1,75,8|0,0:0|0:0,0:0:0:0:
80,296,39829,1,0,0:0:0:0:
80,296,40016,2,0,L|100:204,1,75,0|8,0:0|0:0,0:0:0:0:
116,120,40391,5,0,0:0:0:0:
196,52,40579,1,2,0:0:0:0:
256,136,40766,1,0,0:0:0:0:
320,52,40954,2,0,L|384:116,1,75,8|0,0:0|0:0,0:0:0:0:
444,180,41329,1,2,0:0:0:0:
420,280,41516,1,0,0:0:0:0:
328,332,41704,2,0,L|240:332,1,75,8|0,0:0|0:0,0:0:0:0:
156,296,42079,6,0,P|140:264|128:216,1,75
116,120,42454,1,8,0:0:0:0:
196,52,42641,1,0,0:0:0:0:
256,136,42829,2,0,P|276:172|304:204,1,75
380,264,43204,1,8,0:0:0:0:
444,180,43391,1,0,0:0:0:0:
432,76,43579,6,0,L|352:64,1,75,4|0,0:2|0:0,0:0:0:0:
256,48,43954,1,8,0:0:0:0:
160,88,44141,1,0,0:0:0:0:
89,166,44329,2,0,P|113:246|165:302,1,150,0|8,0:0|0:0,0:0:0:0:
256,328,44891,2,0,P|330:320|394:283,1,150,4|0,0:0|0:0,0:0:0:0:
460,200,45454,1,8,0:0:0:0:
436,100,45641,1,0,0:0:0:0:
348,44,45829,2,0,L|328:120,1,75
296,216,46204,1,8,0:0:0:0:
212,152,46391,1,0,0:0:0:0:
200,48,46579,1,4,0:0:0:0:
256,192,46766,12,0,49204,0:0:0:0:
84,172,49579,6,0,P|140:108|216:88,1,150,4|8,0:2|0:0,0:0:0:0:
312,88,50141,2,0,P|381:114|428:172,1,150
372,252,50704,1,8,0:0:0:0:
372,252,50891,1,0,0:0:0:0:
140,252,51266,1,0,0:0:0:0:
140,252,51641,6,0,P|192:208|220:120,1,150
260,44,52204,2,0,L|312:100,1,75,8|0,0:0|0:0,0:0:0:0:
404,176,52579,2,0,P|380:236|312:288,1,150,4|8,0:0|0:0,0:0:0:0:
198,285,53141,2,0,P|137:243|108:176,1,150
168,100,53704,1,8,0:0:0:0:
168,100,53891,1,0,0:0:0:0:
344,100,54266,1,0,0:0:0:0:
344,100,54641,6,0,P|312:172|312:256,1,150
368,324,55204,2,0,P|396:296|416:252,1,75,8|0,0:0|0:0,0:0:0:0:
424,160,55579,2,0,P|372:104|300:76,1,150,4|8,0:0|0:0,0:0:0:0:
207,76,56141,2,0,P|138:105|88:160,1,150,4|0,0:0|0:0,0:0:0:0:
152,236,56704,1,8,0:0:0:0:
152,236,56891,1,0,0:0:0:0:
360,236,57266,1,0,0:0:0:0:
360,236,57641,6,0,P|316:184|304:104,1,150
376,36,58204,2,0,P|400:64|416:104,1,75
436,196,58579,2,0,P|440:256|416:316,2,112.5,4|0|0,0:0|0:0|0:0,0:0:0:0:
368,116,59329,1,0,0:0:0:0:
284,52,59516,2,0,L|248:20,2,37.5
272,160,59891,1,0,0:0:0:0:
256,192,60079,12,4,61579,0:0:0:0:
100,300,62329,6,0,L|180:300,1,75
256,220,62704,2,0,L|336:220,1,75
436,176,63079,2,0,P|396:120|308:96,1,150,4|8,0:2|0:0,0:0:0:0:
216,108,63641,1,0,0:0:0:0:
116,144,63829,2,0,P|116:176|136:228,1,75
204,292,64204,2,0,L|292:316,1,75,8|0,0:0|0:0,0:0:0:0:
344,232,64579,1,0,0:0:0:0:
428,296,64766,2,0,L|432:336,2,37.5,0|0|8,0:0|0:0|0:0,0:0:0:0:
456,196,65141,2,0,P|416:128|340:88,1,150
264,44,65704,2,0,L|272:128,1,75,8|0,0:0|0:0,0:0:0:0:
252,224,66079,6,0,P|184:196|140:128,1,150,4|8,0:0|0:0,0:0:0:0:
172,44,66641,1,0,0:0:0:0:
141,134,66829,2,0,L|133:246,2,112.5
172,44,67579,2,0,L|228:96,1,75
296,36,67954,1,8,0:0:0:0:
296,36,68141,2,0,P|353:82|382:151,1,150
340,240,68704,2,0,L|272:296,1,75,8|0,0:0|0:0,0:0:0:0:
184,328,69079,6,0,P|148:308|116:272,1,75,4|0,0:0|0:0,0:0:0:0:
76,200,69454,1,8,0:0:0:0:
140,124,69641,2,0,P|216:96|288:104,1,150
376,152,70204,2,0,L|368:236,1,75,8|0,0:0|0:0,0:0:0:0:
312,316,70579,1,0,0:0:0:0:
244,236,70766,1,0,0:0:0:0:
184,328,70954,2,0,P|132:272|124:196,1,150,8|0,0:0|0:0,0:0:0:0:
164,84,71516,2,0,L|204:156,1,75,0|8,0:0|0:0,0:0:0:0:
244,236,71891,1,0,0:0:0:0:
312,316,72079,6,0,P|352:268|368:176,1,150,4|8,0:0|0:0,0:0:0:0:
340,84,72641,1,0,0:0:0:0:
248,48,72829,2,0,P|208:60|176:76,1,75
104,140,73204,1,8,0:0:0:0:
136,240,73391,2,0,P|204:204|244:136,1,150,4|0,0:0|0:0,0:0:0:0:
308,60,73954,2,0,L|352:128,1,75,8|0,0:0|0:0,0:0:0:0:
396,216,74329,2,0,L|412:264,3,37.5,4|0|0|0,0:0|0:0|0:0|0:0,0:0:0:0:
352,244,74704,2,0,L|352:284,3,37.5,8|0|0|0,0:0|0:0|0:0|0:0,0:0:0:0:
308,264,75079,6,0,P|236:224|200:168,1,150,4|8,0:2|0:0,0:0:0:0:
216,72,75641,1,0,0:0:0:0:
308,44,75829,2,0,L|332:120,1,75
436,100,76204,2,0,L|412:176,1,75,8|0,0:0|0:0,0:0:0:0:
316,212,76579,1,4,0:0:0:0:
420,272,76766,2,0,L|464:248,2,37.5,0|0|8,0:0|0:0|0:0,0:0:0:0:
320,304,77141,2,0,P|240:280|192:216,1,150
116,168,77704,2,0,L|184:120,1,75,8|0,0:0|0:0,0:0:0:0:
268,60,78079,6,0,P|336:92|392:156,1,150,4|8,0:0|0:0,0:0:0:0:
352,240,78641,1,0,0:0:0:0:
386,146,78829,2,0,L|422:34,2,112.5
352,240,79579,2,0,L|304:180,1,75
244,256,79954,1,8,0:0:0:0:
244,256,80141,2,0,P|180:236|132:172,1,150
100,76,80704,2,0,L|180:84,1,75,8|0,0:0|0:0,0:0:0:0:
256,160,81079,6,0,P|296:140|328:104,1,75,4|0,0:0|0:0,0:0:0:0:
392,44,81454,1,8,0:0:0:0:
468,108,81641,2,0,P|444:184|388:232,1,150
328,304,82204,2,0,L|256:252,1,75,8|0,0:0|0:0,0:0:0:0:
180,216,82579,1,0,0:0:0:0:
128,300,82766,1,0,0:0:0:0:
68,220,82954,2,0,P|76:160|136:88,1,150,8|0,0:0|0:0,0:0:0:0:
220,124,83516,1,0,0:0:0:0:
284,208,83704,2,0,P|320:184|348:144,1,75,8|0,0:0|0:0,0:0:0:0:
372,60,84079,1,0,0:0:0:0:
256,192,84266,12,6,87079,0:0:0:0:
144,84,87829,6,0,L|160:212,1,112.500004291535
224,300,88579,2,0,P|180:316|128:316,2,84.3750032186509
356,280,89704,1,0,0:0:0:0:
400,128,90079,5,2,0:0:0:0:
400,128,90829,2,0,P|400:172|376:224,2,84.3750032186509
312,68,91579,2,0,L|204:80,1,84.3750032186509
124,152,92141,1,0,0:0:0:0:
188,284,92704,5,0,0:0:0:0:
188,284,93079,2,0,L|256:292,1,56.2500021457673,2|0,0:0|0:0,0:0:0:0:
344,256,93454,1,0,0:0:0:0:
344,256,93641,2,0,P|364:204|356:128,1,112.500004291535
304,56,94204,2,0,L|264:108,1,56.2500021457673
196,180,94579,1,2,0:0:0:0:
116,112,94766,1,0,0:0:0:0:
80,212,94954,2,0,L|80:280,1,56.2500021457673
220,336,95516,6,0,L|276:328,1,56.2500021457673,2|0,0:0|0:0,0:0:0:0:
376,312,95891,1,0,0:0:0:0:
356,212,96079,1,2,2:0:0:0:
256,192,96266,12,0,99829,0:0:0:0:
