osu file format v13

[General]
AudioFilename: Audio.mp3
AudioLeadIn: 0
PreviewTime: 147582
Countdown: 1
SampleSet: Soft
StackLeniency: 0.7
Mode: 0
LetterboxInBreaks: 1
WidescreenStoryboard: 1

[Editor]
DistanceSpacing: 0.8
BeatDivisor: 4
GridSize: 4
TimelineZoom: 1

[Metadata]
Title:Tsuki ni Murakumo Hana ni Kaze
TitleUnicode:月に叢雲華に風
Artist:senya
ArtistUnicode:senya
Creator:Number5
Version:Lunatic
Source:Touhou
Tags:Komeiji Koishi Kochiya Sanae Yuuhei Satellite
BeatmapID:529790
BeatmapSetID:223556

[Difficulty]
HPDrainRate:8
CircleSize:4
OverallDifficulty:8
ApproachRate:9
SliderMultiplier:1.8
SliderTickRate:1

[Events]
//Background and Video events
0,0,"ss+(2014-08-12+at+05.18.21).jpg",0,0
//Break Periods
//Storyboard Layer 0 (Background)
//Storyboard Layer 1 (Fail)
//Storyboard Layer 2 (Pass)
//Storyboard Layer 3 (Foreground)
//Storyboard Sound Samples
//Background Colour Transformations
3,100,163,162,255

[TimingPoints]
-168,375,4,2,2,50,1,0
13332,-100,4,2,2,70,0,0
16144,-100,4,2,2,70,0,0
16707,-100,4,2,2,70,0,0
25332,-100,4,2,2,40,0,0
36582,-100,4,2,2,50,0,0
37332,-100,4,2,2,60,0,0
62832,-83.3333333333333,4,2,2,80,0,1
86832,-100,4,2,2,80,0,0
97332,-100,4,2,2,70,0,0
148332,-100,4,2,2,70,0,1
172332,-100,4,2,2,70,0,0
209832,-100,4,2,2,70,0,0
211332,-100,4,2,2,80,0,1
235332,-100,4,2,2,80,0,1
259332,-100,4,2,2,80,0,0

[Colours]
Combo1 : 255,240,224
Combo2 : 224,255,224
Combo3 : 224,224,255
Combo4 : 255,255,224
Combo5 : 255,160,160

[HitObjects]
96,104,582,5,0,0:0:0:0:
104,108,957,1,0,0:0:0:0:
112,112,1332,2,0,P|164:112|180:4,1,180
304,48,1894,1,0,0:0:0:0:
272,160,2082,2,0,P|228:192|168:212,1,90
44,324,2457,2,0,P|88:292|148:272,1,90
236,288,2832,2,0,P|296:264|360:192,1,135
346,215,3207,2,0,P|370:251|426:259,1,90
448,248,3488,1,0,0:0:0:0:
476,228,3582,1,0,0:0:0:0:
408,56,3769,1,0,0:0:0:0:
346,215,3957,1,0,0:0:0:0:
168,196,4144,1,0,0:0:0:0:
132,208,4238,1,0,0:0:0:0:
96,216,4332,6,0,L|0:244,1,90
48,88,4707,1,0,0:0:0:0:
156,48,4894,1,0,0:0:0:0:
280,48,5082,2,0,P|264:104|320:160,2,135,0|0|0,0:0|0:0|0:0,0:0:0:0:
280,248,5832,2,0,P|336:252|392:216,1,90
392,216,6113,1,0,0:0:0:0:
428,208,6207,2,0,P|452:256|448:316,1,90
324,352,6582,1,0,0:0:0:0:
148,300,6769,1,0,0:0:0:0:
280,248,6957,1,0,0:0:0:0:
180,128,7144,1,0,0:0:0:0:
264,32,7332,6,0,P|324:40|448:16,1,180
180,128,7894,2,0,P|120:136|-4:112,1,180
60,296,8457,1,0,0:0:0:0:
100,172,8644,1,0,0:0:0:0:
224,256,8832,2,0,P|244:300|244:364,2,90,0|0|0,0:0|0:0|0:0,0:0:0:0:
288,164,9394,2,0,P|356:176|480:148,1,180
320,340,9957,1,0,0:0:0:0:
204,68,10144,1,0,0:0:0:0:
56,169,10332,5,0,0:0:0:0:
73,201,10425,1,0,0:0:0:0:
97,227,10519,1,0,0:0:0:0:
130,241,10613,1,0,0:0:0:0:
166,239,10707,1,0,0:0:0:0:
199,225,10800,1,0,0:0:0:0:
229,206,10894,1,0,0:0:0:0:
258,185,10988,1,0,0:0:0:0:
288,164,11082,1,0,0:0:0:0:
318,145,11175,1,0,0:0:0:0:
352,133,11269,1,0,0:0:0:0:
388,136,11363,1,0,0:0:0:0:
415,159,11457,1,0,0:0:0:0:
430,191,11550,1,0,0:0:0:0:
440,224,11644,1,0,0:0:0:0:
440,260,11738,1,0,0:0:0:0:
412,284,11832,6,0,L|340:308,1,45
484,244,12019,2,0,L|412:268,1,45
432,192,12207,2,0,L|360:216,1,45
504,152,12394,2,0,L|432:176,1,45
316,72,12582,2,0,L|252:64,1,45
168,92,12769,2,0,L|104:84,1,45
228,216,12957,2,0,L|240:268,1,45,8|0,0:0|0:0,0:0:0:0:
168,92,13144,2,0,L|180:144,1,45,8|0,0:0|0:0,0:0:0:0:
316,72,13332,6,0,P|364:96|432:-4,1,180,0|8,0:0|0:0,0:0:0:0:
168,92,13894,2,0,P|96:112|64:112,2,90,0|0|0,0:0|0:0|0:0,0:0:0:0:
228,216,14457,2,0,P|276:192|344:292,1,180,8|0,0:0|0:0,0:0:0:0:
496,248,15019,1,0,0:0:0:0:
336,168,15207,1,8,0:0:0:0:
116,168,15394,1,0,0:0:0:0:
120,204,15488,1,0,0:0:0:0:
112,240,15582,1,0,0:0:0:0:
296,340,15769,1,0,0:0:0:0:
248,80,15957,1,8,0:0:0:0:
228,216,16144,6,0,B|280:216|336:168|336:168|304:220|332:264,1,180
422,223,16707,2,0,L|522:215,1,90,8|0,0:0|0:0,0:0:0:0:
458,68,17082,2,0,P|378:92|322:56,1,135
335,70,17457,2,0,P|281:67|229:91,1,90,8|0,0:0|0:0,0:0:0:0:
96,64,17832,1,0,0:0:0:0:
84,96,17925,1,0,0:0:0:0:
72,128,18019,1,0,0:0:0:0:
132,328,18207,1,8,0:0:0:0:
260,192,18394,1,0,0:0:0:0:
296,196,18488,1,0,0:0:0:0:
332,200,18582,1,0,0:0:0:0:
428,336,18769,2,0,L|384:360,1,45
456,224,18957,2,0,L|500:248,1,45,8|0,0:0|0:0,0:0:0:0:
416,112,19144,2,0,L|372:136,1,45
227,66,19332,6,0,P|163:78|83:58,1,135,0|0,0:0|0:0,0:0:0:0:
60,52,19707,1,8,0:0:0:0:
68,236,19894,1,0,0:0:0:0:
104,228,19988,1,0,0:0:0:0:
140,232,20082,2,0,L|208:244,1,45
168,140,20269,2,0,L|100:152,1,45
188,304,20457,2,0,L|256:316,1,45,8|0,0:0|0:0,0:0:0:0:
228,66,20644,2,0,L|160:78,1,45
316,184,20832,1,0,0:0:0:0:
352,172,20925,1,0,0:0:0:0:
388,172,21019,1,0,0:0:0:0:
420,188,21113,1,0,0:0:0:0:
440,220,21207,1,8,0:0:0:0:
440,256,21300,1,0,0:0:0:0:
436,292,21394,2,0,B|420:304|420:304|408:280|408:280|400:312|400:312|388:288|388:288|308:288,1,180
232,344,21957,2,0,P|212:288|224:228,1,90,8|0,0:0|0:0,0:0:0:0:
148,116,22332,5,8,0:0:0:0:
272,44,22519,1,0,0:0:0:0:
272,188,22707,1,0,0:0:0:0:
108,188,22894,1,8,0:0:0:0:
232,116,23081,1,0,0:0:0:0:
232,260,23269,1,0,0:0:0:0:
68,260,23457,1,8,0:0:0:0:
192,188,23644,2,0,B|228:160|232:116|232:116|296:136|344:100,1,180
412,60,24207,2,0,P|424:112|412:160,1,90
404,180,24488,1,0,0:0:0:0:
376,204,24582,2,0,L|344:160,1,45,8|8,0:0|0:0,0:0:0:0:
448,280,24769,2,0,L|480:236,1,45,8|8,0:0|0:0,0:0:0:0:
232,260,24957,2,0,L|200:216,1,45,8|8,0:0|0:0,0:0:0:0:
304,336,25144,2,0,L|336:292,1,45,8|8,0:0|0:0,0:0:0:0:
220,116,25332,6,0,P|148:144|88:44,1,180
264,32,25894,1,0,0:0:0:0:
269,219,26082,2,0,P|341:247|401:147,1,180,0|0,0:0|0:0,0:0:0:0:
396,56,26644,1,0,0:0:0:0:
180,156,26832,2,0,L|72:188,1,90
16,284,27207,2,0,L|124:252,1,90
340,252,27582,2,0,P|296:292|192:220,1,180
180,156,28144,1,0,0:0:0:0:
284,80,28332,6,0,L|376:100,2,90,0|0|0,0:0|0:0|0:0,0:0:0:0:
192,68,28894,2,0,P|132:76|96:204,1,180
152,308,29457,1,0,0:0:0:0:
180,156,29644,1,0,0:0:0:0:
352,248,29832,1,0,0:0:0:0:
424,136,30019,1,0,0:0:0:0:
252,288,30207,1,0,0:0:0:0:
324,176,30394,1,0,0:0:0:0:
316,172,30582,1,0,0:0:0:0:
244,60,30769,1,0,0:0:0:0:
96,188,30957,2,0,L|204:148,1,90
316,172,31332,6,0,P|341:104|427:148,1,180
244,60,31894,2,0,P|219:128|133:84,1,180,0|0,0:0|0:0,0:0:0:0:
120,316,32457,1,0,0:0:0:0:
96,188,32644,1,0,0:0:0:0:
232,248,32832,2,0,L|336:264,1,90
7,174,33207,2,0,L|111:190,1,90
244,59,33582,2,0,L|333:46,1,90
19,133,33957,2,0,L|108:120,1,90
136,300,34332,5,0,0:0:0:0:
244,60,34519,1,0,0:0:0:0:
248,72,34707,1,0,0:0:0:0:
308,232,34894,1,0,0:0:0:0:
448,116,35082,1,0,0:0:0:0:
428,108,35269,1,0,0:0:0:0:
232,156,35457,1,0,0:0:0:0:
224,304,35644,1,0,0:0:0:0:
76,208,35832,1,0,0:0:0:0:
100,180,35926,1,0,0:0:0:0:
116,148,36020,1,0,0:0:0:0:
116,112,36114,1,0,0:0:0:0:
84,92,36207,2,0,L|96:156,1,45
232,156,36395,2,0,L|216:112,1,45
228,80,36582,1,8,0:0:0:0:
256,56,36675,1,0,0:0:0:0:
368,112,36769,1,0,0:0:0:0:
364,148,36863,1,0,0:0:0:0:
340,172,36957,2,0,L|256:168,1,45,8|0,0:0|0:0,0:0:0:0:
232,156,37144,2,0,L|160:164,1,45,8|0,0:0|0:0,0:0:0:0:
100,180,37332,6,0,P|148:192|104:292,1,180,0|8,0:0|0:0,0:0:0:0:
288,344,37894,1,0,0:0:0:0:
386,248,38082,2,0,P|346:188|334:140,1,90
208,24,38457,2,0,P|208:76|184:152,1,90,8|0,0:0|0:0,0:0:0:0:
324,28,38832,6,0,P|364:76|468:4,1,180,0|8,0:0|0:0,0:0:0:0:
424,320,39394,1,0,0:0:0:0:
168,216,39582,2,0,L|84:232,1,45
96,112,39769,1,8,0:0:0:0:
252,136,39957,2,0,P|320:160|376:144,1,90,8|0,0:0|0:0,0:0:0:0:
424,92,40332,6,0,L|428:164,1,45
324,28,40519,2,0,L|320:80,1,45
200,32,40707,2,0,L|192:88,1,45,8|0,0:0|0:0,0:0:0:0:
92,68,40894,2,0,L|100:152,1,45
72,224,41082,2,0,P|132:200|184:208,1,90
248,216,41363,1,0,0:0:0:0:
280,192,41457,2,0,P|296:252|384:276,1,135,8|0,0:0|0:0,0:0:0:0:
424,292,41832,6,0,B|432:248|400:224|400:224|448:216|460:180,1,135
392,148,42207,2,0,B|392:88|352:60|352:60|336:88|320:96,1,135,8|0,0:0|0:0,0:0:0:0:
260,120,42582,2,0,P|200:120|144:96,1,90,0|8,0:0|0:0,0:0:0:0:
76,312,42957,1,8,0:0:0:0:
328,232,43144,1,8,0:0:0:0:
52,52,43332,5,0,0:0:0:0:
96,232,43519,1,0,0:0:0:0:
168,92,43707,1,8,0:0:0:0:
208,284,43894,1,0,0:0:0:0:
260,120,44082,1,0,0:0:0:0:
472,88,44269,2,0,L|352:104,1,90,8|8,0:0|0:0,0:0:0:0:
328,232,44644,6,0,P|408:252|480:184,1,180
384,160,45207,1,8,0:0:0:0:
260,120,45394,1,0,0:0:0:0:
208,284,45582,2,0,L|184:180,2,90,0|8|8,0:0|0:0|0:0,0:0:0:0:
80,276,46144,1,8,0:0:0:0:
87,69,46332,5,0,0:0:0:0:
109,66,46425,1,0,0:0:0:0:
131,62,46519,1,0,0:0:0:0:
153,59,46613,1,0,0:0:0:0:
176,56,46707,1,8,0:0:0:0:
198,52,46800,1,0,0:0:0:0:
220,49,46894,1,0,0:0:0:0:
242,45,46988,1,0,0:0:0:0:
264,42,47082,1,0,0:0:0:0:
287,44,47175,1,0,0:0:0:0:
309,48,47269,1,0,0:0:0:0:
331,51,47363,1,0,0:0:0:0:
353,55,47457,1,8,0:0:0:0:
376,58,47550,1,0,0:0:0:0:
398,62,47644,1,0,0:0:0:0:
420,65,47738,1,0,0:0:0:0:
440,68,47832,6,0,L|440:128,1,45,8|0,0:0|0:0,0:0:0:0:
376,156,48019,2,0,L|412:204,1,45,8|0,0:0|0:0,0:0:0:0:
364,256,48207,2,0,L|428:280,1,45,8|0,0:0|0:0,0:0:0:0:
396,344,48394,2,0,L|472:340,1,45,8|0,0:0|0:0,0:0:0:0:
404,336,48582,1,8,0:0:0:0:
244,312,48675,1,8,0:0:0:0:
208,300,48769,1,8,0:0:0:0:
176,284,48863,1,8,0:0:0:0:
148,264,48957,1,8,0:0:0:0:
124,240,49050,1,8,0:0:0:0:
112,208,49144,1,8,0:0:0:0:
100,172,49238,1,8,0:0:0:0:
92,136,49332,6,0,P|144:128|104:36,1,180,8|0,0:0|0:0,0:0:0:0:
253,135,49894,2,0,P|238:175|90:235,1,180,8|0,0:0|0:0,0:0:0:0:
300,252,50457,1,8,0:0:0:0:
300,252,50644,2,0,P|340:184|352:84,1,180,8|0,0:0|0:0,0:0:0:0:
252,136,51207,1,0,0:0:0:0:
156,92,51394,2,0,P|80:120|0:64,1,180,8|0,0:0|0:0,0:0:0:0:
88,24,51957,1,8,0:0:0:0:
72,188,52144,1,8,0:0:0:0:
212,292,52332,6,0,P|260:280|312:296,2,90,8|0|0,0:0|0:0|0:0,0:0:0:0:
288,200,52894,2,0,P|340:216|436:340,1,180,8|0,0:0|0:0,0:0:0:0:
448,176,53457,1,8,0:0:0:0:
448,176,53644,2,0,P|372:128|264:96,1,180,8|0,0:0|0:0,0:0:0:0:
188,84,54207,1,0,0:0:0:0:
100,28,54394,2,0,P|80:104|160:180,1,180,8|0,0:0|0:0,0:0:0:0:
208,288,54957,1,8,0:0:0:0:
264,184,55144,1,8,0:0:0:0:
188,84,55332,6,0,L|388:48,1,180,8|0,0:0|0:0,0:0:0:0:
264,184,55894,2,0,L|64:220,1,180,8|0,0:0|0:0,0:0:0:0:
208,288,56457,2,0,P|212:336|236:380,1,90,8|8,0:0|0:0,0:0:0:0:
240,364,56738,1,0,0:0:0:0:
248,352,56832,5,0,0:0:0:0:
256,344,56925,1,0,0:0:0:0:
264,336,57019,1,0,0:0:0:0:
272,328,57113,1,0,0:0:0:0:
280,320,57207,1,0,0:0:0:0:
344,212,57394,1,8,0:0:0:0:
352,220,57487,1,0,0:0:0:0:
360,228,57581,1,0,0:0:0:0:
368,236,57675,1,0,0:0:0:0:
376,244,57769,1,0,0:0:0:0:
456,136,57957,1,8,0:0:0:0:
276,68,58144,1,8,0:0:0:0:
156,156,58332,6,0,P|172:200|168:256,1,90,8|0,0:0|0:0,0:0:0:0:
168,252,58613,1,8,0:0:0:0:
164,260,58707,2,0,P|208:252|268:260,1,90,0|8,0:0|0:0,0:0:0:0:
248,248,58988,1,0,0:0:0:0:
244,240,59082,2,0,P|248:188|268:144,1,90,8|0,0:0|0:0,0:0:0:0:
268,152,59363,1,8,0:0:0:0:
276,152,59457,2,0,P|320:168|372:160,1,90,0|8,0:0|0:0,0:0:0:0:
368,160,59738,1,0,0:0:0:0:
376,156,59832,6,0,L|384:204,1,45,8|0,0:0|0:0,0:0:0:0:
456,200,60019,2,0,L|452:268,1,45,8|0,0:0|0:0,0:0:0:0:
320,244,60207,2,0,L|328:292,1,45,8|0,0:0|0:0,0:0:0:0:
512,288,60394,2,0,L|508:356,1,45,8|0,0:0|0:0,0:0:0:0:
256,336,60582,2,0,L|176:348,1,45,8|0,0:0|0:0,0:0:0:0:
188,216,60769,2,0,L|112:208,1,45,8|0,0:0|0:0,0:0:0:0:
112,320,60957,2,0,L|32:332,1,45,8|0,0:0|0:0,0:0:0:0:
44,252,61144,2,0,L|-32:244,1,45,8|0,0:0|0:0,0:0:0:0:
48,152,61332,5,8,0:0:0:0:
56,148,61425,1,8,0:0:0:0:
68,144,61519,1,8,0:0:0:0:
76,140,61613,1,8,0:0:0:0:
88,136,61707,1,8,0:0:0:0:
100,132,61800,1,8,0:0:0:0:
112,128,61894,1,8,0:0:0:0:
120,124,61988,1,8,0:0:0:0:
132,120,62082,1,8,0:0:0:0:
144,124,62175,1,8,0:0:0:0:
156,128,62269,1,8,0:0:0:0:
168,132,62363,1,8,0:0:0:0:
180,136,62457,1,8,0:0:0:0:
192,140,62550,1,8,0:0:0:0:
204,144,62644,1,8,0:0:0:0:
216,148,62738,1,8,0:0:0:0:
228,152,62832,6,0,P|276:156|308:4,1,215.999993408203,0|8,0:0|0:0,0:0:0:0:
440,80,63394,1,0,0:0:0:0:
164,28,63582,2,0,L|260:76,1,107.999996704102
464,240,63957,2,0,L|368:192,1,107.999996704102,8|0,0:0|0:0,0:0:0:0:
232,208,64332,6,0,P|228:256|196:328,1,107.999996704102
120,228,64707,2,0,P|124:180|156:112,1,107.999996704102,8|0,0:0|0:0,0:0:0:0:
124,244,64988,1,0,0:0:0:0:
132,256,65082,2,0,P|115:301|64:352,1,107.999996704102,0|8,0:0|0:0,0:0:0:0:
260,368,65457,1,8,0:0:0:0:
424,296,65644,1,0,0:0:0:0:
456,140,65832,6,0,P|392:164|352:48,1,215.999993408203,0|8,0:0|0:0,0:0:0:0:
188,88,66394,1,0,0:0:0:0:
132,200,66582,2,0,P|216:212|284:172,1,161.999995056153
152,296,66957,2,0,P|88:276|36:240,1,107.999996704102,8|0,0:0|0:0,0:0:0:0:
188,88,67332,6,0,L|348:52,1,161.999995056153
248,152,67707,2,0,B|216:160|216:160|168:176|120:136,1,107.999996704102,8|0,0:0|0:0,0:0:0:0:
264,152,67988,1,0,0:0:0:0:
280,152,68082,2,0,B|312:160|312:160|360:176|404:140,1,107.999996704102,0|8,0:0|0:0,0:0:0:0:
508,84,68457,2,0,B|476:76|476:76|428:60|384:96,1,107.999996704102,8|0,0:0|0:0,0:0:0:0:
400,340,68832,6,0,P|388:280|448:140,1,215.999993408203,0|8,0:0|0:0,0:0:0:0:
268,64,69394,2,0,P|280:124|220:264,1,215.999993408203,0|8,0:0|0:0,0:0:0:0:
72,16,69957,2,0,P|68:68|88:136,1,107.999996704102,8|0,0:0|0:0,0:0:0:0:
120,132,70238,1,0,0:0:0:0:
120,132,70332,5,0,0:0:0:0:
268,64,70519,1,0,0:0:0:0:
324,248,70707,2,0,L|216:224,1,107.999996704102,8|0,0:0|0:0,0:0:0:0:
384,112,71082,1,0,0:0:0:0:
384,112,71269,2,0,L|440:104,1,53.9999983520508,8|0,0:0|0:0,0:0:0:0:
304,176,71457,2,0,L|248:168,1,53.9999983520508,8|0,0:0|0:0,0:0:0:0:
152,252,71644,2,0,L|208:244,1,53.9999983520508,8|0,0:0|0:0,0:0:0:0:
120,132,71832,5,8,0:0:0:0:
104,136,71925,1,0,0:0:0:0:
88,140,72019,1,0,0:0:0:0:
72,144,72113,1,0,0:0:0:0:
92,44,72207,1,8,0:0:0:0:
116,32,72300,1,0,0:0:0:0:
140,20,72394,1,0,0:0:0:0:
164,8,72488,1,0,0:0:0:0:
256,40,72582,1,8,0:0:0:0:
288,60,72675,1,0,0:0:0:0:
320,80,72769,1,0,0:0:0:0:
352,100,72863,1,0,0:0:0:0:
384,120,72957,1,8,0:0:0:0:
384,120,73144,6,0,P|408:172|360:332,1,215.999993408203,8|0,0:0|0:0,0:0:0:0:
280,272,73707,2,0,P|200:256|140:280,1,107.999996704102,8|8,0:0|0:0,0:0:0:0:
304,264,73988,1,0,0:0:0:0:
324,256,74082,1,8,0:0:0:0:
344,248,74175,1,8,0:0:0:0:
364,240,74269,1,8,0:0:0:0:
384,232,74363,1,8,0:0:0:0:
384,120,74457,1,8,0:0:0:0:
404,128,74550,1,8,0:0:0:0:
424,136,74644,1,8,0:0:0:0:
444,144,74738,1,8,0:0:0:0:
304,44,74832,6,0,P|252:64|184:32,1,107.999996704102
4,168,75207,2,0,P|56:148|124:180,1,107.999996704102,8|0,0:0|0:0,0:0:0:0:
192,328,75582,2,0,P|256:260|272:116,1,215.999993408203,0|8,0:0|0:0,0:0:0:0:
464,136,76144,1,0,0:0:0:0:
440,148,76238,1,0,0:0:0:0:
420,160,76332,6,0,L|392:56,1,107.999996704102
348,240,76613,2,0,P|352:276|340:324,2,53.9999983520508,0|8|0,0:0|0:0|0:0,0:0:0:0:
332,328,76894,2,0,L|400:324,1,53.9999983520508
428,320,77082,1,0,0:0:0:0:
440,308,77175,1,0,0:0:0:0:
452,296,77269,1,8,0:0:0:0:
464,284,77363,1,0,0:0:0:0:
420,160,77457,1,8,0:0:0:0:
408,148,77550,1,0,0:0:0:0:
396,136,77644,1,0,0:0:0:0:
384,124,77738,1,0,0:0:0:0:
288,56,77832,6,0,P|216:84|76:8,1,215.999993408203,0|8,0:0|0:0,0:0:0:0:
24,176,78394,1,0,0:0:0:0:
24,176,78488,1,0,0:0:0:0:
100,216,78582,2,0,P|108:156|48:92,1,107.999996704102
76,244,78863,1,0,0:0:0:0:
48,260,78957,2,0,P|96:224|98:135,1,107.999996704102,8|0,0:0|0:0,0:0:0:0:
212,200,79332,6,0,P|276:188|340:208,1,107.999996704102
404,328,79613,1,0,0:0:0:0:
416,300,79707,2,0,P|428:244|424:176,1,107.999996704102,8|0,0:0|0:0,0:0:0:0:
400,188,79988,2,0,L|464:160,1,53.9999983520508
472,144,80175,1,0,0:0:0:0:
480,116,80269,1,8,0:0:0:0:
468,88,80363,1,0,0:0:0:0:
444,72,80457,2,0,L|332:80,1,107.999996704102,8|0,0:0|0:0,0:0:0:0:
308,80,80738,1,0,0:0:0:0:
276,72,80832,6,0,P|288:132|268:196,2,107.999996704102,0|0|8,0:0|0:0|0:0,0:0:0:0:
40,128,81394,2,0,L|208:120,1,161.999995056153
188,160,81769,2,0,L|192:224,1,53.9999983520508
320,212,81957,2,0,L|312:276,1,53.9999983520508,8|0,0:0|0:0,0:0:0:0:
436,260,82144,2,0,L|448:320,1,53.9999983520508
508,168,82332,6,0,P|444:168|392:144,1,107.999996704102
360,32,82707,2,0,P|424:32|476:56,1,107.999996704102,8|0,0:0|0:0,0:0:0:0:
188,160,82988,1,0,0:0:0:0:
176,136,83082,2,0,P|120:128|56:156,1,107.999996704102,0|8,0:0|0:0,0:0:0:0:
40,128,83363,1,0,0:0:0:0:
16,164,83457,2,0,L|24:244,1,53.9999983520508,8|0,0:0|0:0,0:0:0:0:
56,88,83644,2,0,L|48:8,1,53.9999983520508,8|0,0:0|0:0,0:0:0:0:
108,284,83832,6,0,L|48:300,1,53.9999983520508,8|0,0:0|0:0,0:0:0:0:
404,284,84019,2,0,L|464:300,1,53.9999983520508,8|0,0:0|0:0,0:0:0:0:
196,200,84207,2,0,L|136:216,1,53.9999983520508,8|0,0:0|0:0,0:0:0:0:
316,200,84394,2,0,L|376:216,1,53.9999983520508,8|0,0:0|0:0,0:0:0:0:
312,106,84582,2,0,L|260:120,1,53.9999983520508,8|0,0:0|0:0,0:0:0:0:
87,106,84769,2,0,L|140:120,1,53.9999983520508,8|0,0:0|0:0,0:0:0:0:
400,22,84957,2,0,L|348:36,1,53.9999983520508,8|0,0:0|0:0,0:0:0:0:
0,22,85144,2,0,L|52:36,1,53.9999983520508,8|0,0:0|0:0,0:0:0:0:
256,352,85332,5,8,0:0:0:0:
229,305,85425,1,8,0:0:0:0:
191,267,85519,1,8,0:0:0:0:
152,229,85613,1,8,0:0:0:0:
121,185,85707,1,8,0:0:0:0:
116,133,85800,1,8,0:0:0:0:
153,97,85894,1,8,0:0:0:0:
207,99,85988,1,8,0:0:0:0:
255,122,86082,1,8,0:0:0:0:
304,99,86175,1,8,0:0:0:0:
358,97,86269,1,8,0:0:0:0:
395,133,86363,1,8,0:0:0:0:
390,185,86456,1,8,0:0:0:0:
359,229,86550,1,8,0:0:0:0:
320,267,86644,1,8,0:0:0:0:
282,305,86738,1,8,0:0:0:0:
256,352,86831,1,8,0:0:0:0:
