osu file format v13

[General]
AudioFilename: Audio.mp3
AudioLeadIn: 0
PreviewTime: 147582
Countdown: 1
SampleSet: None
StackLeniency: 0.7
Mode: 0
LetterboxInBreaks: 1
WidescreenStoryboard: 0

[Editor]
DistanceSpacing: 1
BeatDivisor: 4
GridSize: 4
TimelineZoom: 1

[Metadata]
Title:Tsuki ni Murakumo Hana ni Kaze
TitleUnicode:月に叢雲華に風
Artist:senya
ArtistUnicode:senya
Creator:Number5
Version:Extra
Source:Touhou
Tags:Komeiji Koishi Kochiya Sanae
BeatmapID:524985
BeatmapSetID:224913

[Difficulty]
HPDrainRate:8
CircleSize:4
OverallDifficulty:9
ApproachRate:9
SliderMultiplier:1.8
SliderTickRate:1

[Events]
//Background and Video events
0,0,"ss+(2014-08-12+at+05.18.21).jpg",0,0
//Break Periods
2,87032,97482
//Storyboard Layer 0 (Background)
//Storyboard Layer 1 (Fail)
//Storyboard Layer 2 (Pass)
//Storyboard Layer 3 (Foreground)
//Storyboard Sound Samples
//Background Colour Transformations
3,100,163,162,255

[TimingPoints]
-168,375,4,2,2,50,1,0
13332,-100,4,2,2,70,0,0
16144,-80,4,2,2,70,0,0
16707,-100,4,2,2,70,0,0
25332,-100,4,2,2,40,0,0
36582,-100,4,2,2,50,0,0
37332,-100,4,2,2,60,0,0
62832,-58.8235294117647,4,2,2,80,0,1
86832,-58.8235294117647,4,2,2,80,0,0
97332,-100,4,2,2,70,0,0
148332,-71.4285714285714,4,2,2,70,0,1
172332,-83.3333333333333,4,2,2,70,0,0
209832,-125,4,2,2,70,0,0
211332,-71.4285714285714,4,2,2,80,0,1
235332,-90.9090909090909,4,2,2,80,0,1
259332,-71.4285714285714,4,2,2,80,0,0

[Colours]
Combo1 : 255,240,224
Combo2 : 224,255,224
Combo3 : 224,224,255
Combo4 : 255,255,224
Combo5 : 255,160,160

[HitObjects]
88,88,582,5,0,0:0:0:0:
216,124,957,1,0,0:0:0:0:
344,88,1332,5,0,0:0:0:0:
366,126,1425,1,0,0:0:0:0:
376,170,1519,1,0,0:0:0:0:
372,215,1613,1,0,0:0:0:0:
356,257,1707,1,0,0:0:0:0:
172,240,1894,2,0,L|188:308,2,45,0|0|0,0:0|0:0|0:0,0:0:0:0:
216,124,2269,1,0,0:0:0:0:
344,88,2457,1,0,0:0:0:0:
377,59,2550,1,0,0:0:0:0:
421,55,2644,1,0,0:0:0:0:
460,77,2738,1,0,0:0:0:0:
479,117,2832,5,0,0:0:0:0:
370,264,3019,1,0,0:0:0:0:
356,304,3113,1,0,0:0:0:0:
228,312,3300,1,0,0:0:0:0:
195,278,3394,1,0,0:0:0:0:
216,124,3582,6,0,P|160:104|100:116,1,90
40,204,3957,2,0,L|84:312,1,90
228,312,4332,6,0,P|291:326|368:296,1,135
370,264,4707,2,0,L|378:152,1,90
244,68,5082,5,0,0:0:0:0:
156,212,5269,1,0,0:0:0:0:
156,212,5363,1,0,0:0:0:0:
312,160,5550,1,0,0:0:0:0:
312,160,5644,1,0,0:0:0:0:
424,64,5832,5,0,0:0:0:0:
370,265,6019,1,0,0:0:0:0:
370,265,6113,1,0,0:0:0:0:
156,212,6300,1,0,0:0:0:0:
156,212,6393,1,0,0:0:0:0:
66,76,6582,5,0,0:0:0:0:
109,63,6675,1,0,0:0:0:0:
154,60,6769,1,0,0:0:0:0:
199,62,6863,1,0,0:0:0:0:
244,68,6957,1,0,0:0:0:0:
288,59,7050,1,0,0:0:0:0:
332,53,7144,1,0,0:0:0:0:
377,53,7238,1,0,0:0:0:0:
424,64,7332,6,0,P|440:136|400:200,1,135
368,192,7707,2,0,L|272:200,1,90
120,152,8082,1,0,0:0:0:0:
368,192,8269,1,0,0:0:0:0:
72,284,8457,1,0,0:0:0:0:
279,199,8644,1,0,0:0:0:0:
192,300,8832,6,0,P|252:312|312:288,1,90
460,276,9207,2,0,P|400:264|340:288,1,90,0|0,0:0|0:0,0:0:0:0:
279,199,9582,1,0,0:0:0:0:
332,40,9769,1,0,0:0:0:0:
256,100,9957,1,0,0:0:0:0:
420,66,10144,1,0,0:0:0:0:
460,282,10332,5,0,0:0:0:0:
416,294,10425,1,0,0:0:0:0:
371,297,10519,1,0,0:0:0:0:
326,298,10613,1,0,0:0:0:0:
281,298,10707,1,0,0:0:0:0:
236,297,10800,1,0,0:0:0:0:
192,300,10894,1,0,0:0:0:0:
147,308,10988,1,0,0:0:0:0:
106,325,11082,1,0,0:0:0:0:
64,340,11175,1,0,0:0:0:0:
65,295,11269,1,0,0:0:0:0:
57,250,11363,1,0,0:0:0:0:
56,208,11457,1,0,0:0:0:0:
55,163,11550,1,0,0:0:0:0:
45,119,11644,1,0,0:0:0:0:
31,76,11738,1,0,0:0:0:0:
24,32,11832,5,0,0:0:0:0:
66,46,11925,1,0,0:0:0:0:
108,59,12019,1,0,0:0:0:0:
152,69,12113,1,0,0:0:0:0:
197,76,12207,1,0,0:0:0:0:
241,80,12300,1,0,0:0:0:0:
286,81,12394,1,0,0:0:0:0:
331,78,12488,1,0,0:0:0:0:
376,73,12582,1,0,0:0:0:0:
420,65,12675,1,0,0:0:0:0:
432,108,12769,1,0,0:0:0:0:
426,152,12863,1,0,0:0:0:0:
391,178,12957,1,0,0:0:0:0:
347,187,13050,1,0,0:0:0:0:
302,192,13144,1,0,0:0:0:0:
256,179,13238,1,0,0:0:0:0:
212,164,13332,6,0,P|148:144|72:196,1,135
80,216,13707,2,0,L|108:324,1,90,8|0,0:0|0:0,0:0:0:0:
244,312,14082,1,0,0:0:0:0:
391,178,14269,1,0,0:0:0:0:
168,224,14457,1,8,0:0:0:0:
357,284,14644,1,0,0:0:0:0:
152,72,14832,5,0,0:0:0:0:
192,88,14925,1,0,0:0:0:0:
236,92,15019,1,0,0:0:0:0:
391,178,15207,1,8,0:0:0:0:
168,224,15394,1,0,0:0:0:0:
128,244,15488,1,0,0:0:0:0:
84,248,15582,1,0,0:0:0:0:
152,72,15769,1,0,0:0:0:0:
357,284,15957,1,8,0:0:0:0:
391,178,16144,6,0,B|360:120|380:104|380:104|297:108|231:91,1,225
84,248,16707,1,8,0:0:0:0:
152,72,16894,1,0,0:0:0:0:
232,253,17082,2,0,P|312:289|364:281,1,135
384,320,17457,2,0,L|396:208,1,90,8|0,0:0|0:0,0:0:0:0:
344,40,17832,5,0,0:0:0:0:
152,72,18019,1,0,0:0:0:0:
232,252,18207,1,8,0:0:0:0:
428,248,18394,1,0,0:0:0:0:
452,284,18488,1,0,0:0:0:0:
476,320,18582,1,0,0:0:0:0:
232,252,18769,1,0,0:0:0:0:
444,108,18957,1,8,0:0:0:0:
152,72,19144,1,0,0:0:0:0:
68,176,19332,6,0,P|56:240|76:276,1,90
100,292,19613,1,0,0:0:0:0:
136,316,19707,2,0,L|236:340,1,90,8|0,0:0|0:0,0:0:0:0:
328,88,20082,2,0,P|308:164|312:208,1,90
68,176,20457,1,8,0:0:0:0:
412,264,20644,1,0,0:0:0:0:
184,240,20832,5,0,0:0:0:0:
328,88,21019,1,0,0:0:0:0:
396,184,21207,2,0,P|456:172|488:144,1,90,8|0,0:0|0:0,0:0:0:0:
328,88,21582,1,0,0:0:0:0:
160,92,21769,1,0,0:0:0:0:
68,176,21957,1,8,0:0:0:0:
52,276,22144,1,0,0:0:0:0:
92,356,22332,6,0,P|144:360|196:344,2,90,8|0|0,0:0|0:0|0:0,0:0:0:0:
316,200,22894,2,0,L|296:316,2,90,8|0|0,0:0|0:0|0:0,0:0:0:0:
448,80,23457,2,0,P|388:96|332:84,1,90,8|0,0:0|0:0,0:0:0:0:
208,68,23832,5,8,0:0:0:0:
24,156,24019,1,0,0:0:0:0:
316,200,24207,1,8,0:0:0:0:
8,200,24394,1,0,0:0:0:0:
24,156,24488,1,0,0:0:0:0:
36,112,24582,2,0,L|36:64,1,45,8|0,0:0|0:0,0:0:0:0:
96,196,24769,2,0,L|96:132,1,45,8|0,0:0|0:0,0:0:0:0:
160,280,24957,2,0,L|160:232,1,45,8|8,0:0|0:0,0:0:0:0:
220,364,25144,2,0,L|220:300,1,45,8|8,0:0|0:0,0:0:0:0:
240,280,25332,6,0,P|336:304|336:376,1,180
368,288,25894,1,0,0:0:0:0:
392,200,26082,2,0,P|400:144|392:96,1,90
324,56,26457,2,0,P|316:112|324:160,1,90
392,200,26832,6,0,P|284:224|232:144,2,180,0|0|0,0:0|0:0|0:0,0:0:0:0:
368,40,27769,1,0,0:0:0:0:
324,56,27863,1,0,0:0:0:0:
236,80,27957,2,0,P|156:96|108:92,1,90
68,52,28332,6,0,P|68:136|160:188,1,180
228,168,28894,1,0,0:0:0:0:
420,112,29082,1,0,0:0:0:0:
412,156,29175,1,0,0:0:0:0:
404,200,29269,1,0,0:0:0:0:
228,168,29457,1,0,0:0:0:0:
92,240,29644,1,0,0:0:0:0:
120,276,29738,1,0,0:0:0:0:
144,312,29832,5,0,0:0:0:0:
228,168,30019,1,0,0:0:0:0:
404,200,30207,1,0,0:0:0:0:
432,32,30394,1,0,0:0:0:0:
228,168,30582,1,0,0:0:0:0:
252,204,30675,1,0,0:0:0:0:
276,244,30769,1,0,0:0:0:0:
288,288,30863,1,0,0:0:0:0:
280,332,30957,1,0,0:0:0:0:
324,328,31050,1,0,0:0:0:0:
368,324,31144,1,0,0:0:0:0:
412,332,31238,1,0,0:0:0:0:
456,320,31332,6,0,P|479:243|392:203,1,180
452,124,31894,1,0,0:0:0:0:
220,80,32082,1,0,0:0:0:0:
224,124,32175,1,0,0:0:0:0:
228,168,32269,1,0,0:0:0:0:
412,332,32457,1,0,0:0:0:0:
452,124,32644,1,0,0:0:0:0:
228,168,32832,6,0,L|120:200,1,90
168,280,33207,2,0,L|60:312,1,90
266,194,33582,2,0,L|374:226,1,90
326,306,33957,2,0,L|434:338,1,90
456,252,34332,5,0,0:0:0:0:
447,208,34425,1,0,0:0:0:0:
453,163,34519,1,0,0:0:0:0:
466,120,34613,1,0,0:0:0:0:
483,78,34707,1,0,0:0:0:0:
468,36,34800,1,0,0:0:0:0:
423,41,34894,1,0,0:0:0:0:
378,44,34988,1,0,0:0:0:0:
333,47,35082,1,0,0:0:0:0:
288,53,35175,1,0,0:0:0:0:
244,60,35269,1,0,0:0:0:0:
200,70,35363,1,0,0:0:0:0:
156,79,35457,1,0,0:0:0:0:
112,74,35550,1,0,0:0:0:0:
81,42,35644,1,0,0:0:0:0:
62,1,35738,1,0,0:0:0:0:
40,40,35832,5,0,0:0:0:0:
36,85,35925,1,0,0:0:0:0:
47,129,36019,1,0,0:0:0:0:
64,170,36113,1,0,0:0:0:0:
92,204,36207,2,0,P|112:156|112:140,1,45
35,289,36394,1,0,0:0:0:0:
2,315,36488,1,0,0:0:0:0:
36,344,36582,1,8,0:0:0:0:
80,336,36675,1,0,0:0:0:0:
124,340,36769,2,0,L|116:388,1,45
209,274,36957,1,8,0:0:0:0:
235,237,37050,1,0,0:0:0:0:
251,195,37144,1,8,0:0:0:0:
269,226,37238,1,8,0:0:0:0:
304,256,37332,6,0,P|352:280|400:176,1,180,0|8,0:0|0:0,0:0:0:0:
251,195,37894,1,0,0:0:0:0:
209,274,38082,2,0,P|161:298|113:194,1,180,0|8,0:0|0:0,0:0:0:0:
172,52,38644,1,0,0:0:0:0:
184,96,38738,1,0,0:0:0:0:
196,140,38832,5,0,0:0:0:0:
448,88,39019,1,0,0:0:0:0:
251,195,39207,1,8,0:0:0:0:
432,180,39394,1,0,0:0:0:0:
420,224,39488,1,0,0:0:0:0:
408,268,39582,1,0,0:0:0:0:
294,178,39769,1,0,0:0:0:0:
251,195,39863,1,0,0:0:0:0:
216,276,39957,1,8,0:0:0:0:
172,288,40050,1,0,0:0:0:0:
119,231,40144,1,0,0:0:0:0:
75,243,40238,1,0,0:0:0:0:
32,256,40332,6,0,P|20:320|40:364,1,90
180,320,40707,2,0,L|68:300,1,90,8|0,0:0|0:0,0:0:0:0:
207,207,41082,1,0,0:0:0:0:
332,44,41269,1,0,0:0:0:0:
328,252,41457,1,8,0:0:0:0:
212,80,41644,1,0,0:0:0:0:
404,144,41832,6,0,P|447:132|487:148,1,90,8|0,0:0|0:0,0:0:0:0:
444,208,42113,1,0,0:0:0:0:
444,232,42207,2,0,P|428:276|432:336,1,90,8|0,0:0|0:0,0:0:0:0:
512,292,42488,1,0,0:0:0:0:
348,316,42582,2,0,L|252:328,1,90,8|0,0:0|0:0,0:0:0:0:
128,240,42957,1,8,0:0:0:0:
212,80,43144,1,8,0:0:0:0:
404,148,43332,6,0,L|304:196,1,90
28,184,43707,2,0,L|128:136,1,90,8|0,0:0|0:0,0:0:0:0:
212,80,44082,1,0,0:0:0:0:
128,240,44269,1,8,0:0:0:0:
128,240,44457,1,8,0:0:0:0:
300,237,44644,6,0,P|380:233|380:117,1,180
212,80,45207,1,8,0:0:0:0:
300,237,45394,1,0,0:0:0:0:
320,276,45488,1,0,0:0:0:0:
340,316,45582,1,8,0:0:0:0:
440,64,45769,1,8,0:0:0:0:
128,240,45957,1,8,0:0:0:0:
84,24,46144,1,8,0:0:0:0:
24,204,46332,5,8,0:0:0:0:
40,246,46425,1,0,0:0:0:0:
50,289,46519,1,0,0:0:0:0:
51,334,46613,1,0,0:0:0:0:
83,363,46707,1,8,0:0:0:0:
125,348,46800,1,0,0:0:0:0:
165,328,46894,1,0,0:0:0:0:
207,311,46988,1,0,0:0:0:0:
251,309,47082,1,8,0:0:0:0:
296,317,47175,1,0,0:0:0:0:
341,316,47269,1,0,0:0:0:0:
382,300,47363,1,0,0:0:0:0:
417,272,47457,1,8,0:0:0:0:
444,236,47550,1,0,0:0:0:0:
421,205,47644,1,0,0:0:0:0:
428,160,47738,1,0,0:0:0:0:
428,112,47832,5,8,0:0:0:0:
440,64,47925,1,0,0:0:0:0:
484,80,48019,2,0,L|520:128,1,45,8|0,0:0|0:0,0:0:0:0:
306,57,48207,1,8,0:0:0:0:
262,48,48300,1,0,0:0:0:0:
307,57,48394,2,0,L|352:16,1,45
156,64,48582,1,8,0:0:0:0:
170,107,48675,1,8,0:0:0:0:
150,145,48769,1,8,0:0:0:0:
108,164,48863,1,8,0:0:0:0:
84,124,48957,2,0,P|104:92|128:76,1,45,8|8,0:0|0:0,0:0:0:0:
269,211,49144,1,8,0:0:0:0:
308,188,49238,1,8,0:0:0:0:
336,152,49332,5,8,0:0:0:0:
336,152,49707,1,0,0:0:0:0:
181,205,49894,2,0,L|192:312,1,90,8|0,0:0|0:0,0:0:0:0:
190,294,50269,1,0,0:0:0:0:
440,216,50457,1,8,0:0:0:0:
336,152,50644,1,8,0:0:0:0:
216,80,50832,5,0,0:0:0:0:
172,64,50925,1,0,0:0:0:0:
128,56,51019,1,0,0:0:0:0:
190,294,51207,1,0,0:0:0:0:
190,294,51394,2,0,B|264:280|328:308|328:308|336:264,1,180,8|0,0:0|0:0,0:0:0:0:
334,269,51957,1,8,0:0:0:0:
336,60,52144,1,8,0:0:0:0:
334,269,52332,5,8,0:0:0:0:
334,269,52707,1,0,0:0:0:0:
120,204,52894,2,0,L|128:100,1,90,8|0,0:0|0:0,0:0:0:0:
126,114,53269,1,0,0:0:0:0:
336,60,53457,1,8,0:0:0:0:
488,176,53644,1,8,0:0:0:0:
334,269,53832,5,0,0:0:0:0:
126,114,54019,1,0,0:0:0:0:
368,164,54207,1,0,0:0:0:0:
228,76,54394,1,8,0:0:0:0:
336,60,54582,1,0,0:0:0:0:
288,180,54769,1,0,0:0:0:0:
196,300,54957,1,8,0:0:0:0:
28,340,55144,1,8,0:0:0:0:
64,148,55332,5,8,0:0:0:0:
64,148,55707,1,0,0:0:0:0:
288,180,55894,2,0,L|396:200,1,90,8|0,0:0|0:0,0:0:0:0:
64,148,56269,1,0,0:0:0:0:
196,300,56457,2,0,L|312:284,1,90,8|8,0:0|0:0,0:0:0:0:
368,36,56832,5,0,0:0:0:0:
156,180,57019,1,0,0:0:0:0:
288,180,57207,1,0,0:0:0:0:
456,116,57394,1,8,0:0:0:0:
456,160,57488,1,0,0:0:0:0:
456,204,57582,1,0,0:0:0:0:
104,80,57769,1,0,0:0:0:0:
412,300,57957,1,8,0:0:0:0:
164,340,58144,1,8,0:0:0:0:
288,180,58332,5,8,0:0:0:0:
272,188,58425,1,0,0:0:0:0:
224,192,58519,1,0,0:0:0:0:
160,152,58613,1,8,0:0:0:0:
152,164,58707,1,0,0:0:0:0:
99,227,58800,1,0,0:0:0:0:
160,264,58894,1,8,0:0:0:0:
152,276,58988,1,0,0:0:0:0:
164,340,59082,1,8,0:0:0:0:
232,316,59175,1,0,0:0:0:0:
248,309,59269,1,0,0:0:0:0:
284,288,59363,1,8,0:0:0:0:
352,304,59457,1,0,0:0:0:0:
368,304,59550,1,0,0:0:0:0:
412,300,59644,1,8,0:0:0:0:
392,228,59738,1,0,0:0:0:0:
390,213,59832,5,8,0:0:0:0:
386,168,59925,1,0,0:0:0:0:
385,123,60019,1,8,0:0:0:0:
386,78,60113,1,0,0:0:0:0:
340,72,60207,1,8,0:0:0:0:
296,71,60300,1,0,0:0:0:0:
251,64,60394,1,8,0:0:0:0:
207,55,60488,1,0,0:0:0:0:
162,49,60582,1,8,0:0:0:0:
118,53,60675,1,0,0:0:0:0:
91,86,60769,1,8,0:0:0:0:
52,81,60863,1,0,0:0:0:0:
24,115,60957,1,8,0:0:0:0:
12,158,61050,1,0,0:0:0:0:
6,203,61144,1,8,0:0:0:0:
2,248,61238,1,0,0:0:0:0:
12,292,61332,5,8,0:0:0:0:
50,313,61425,1,8,0:0:0:0:
95,312,61519,1,8,0:0:0:0:
128,283,61613,1,8,0:0:0:0:
149,244,61707,1,8,0:0:0:0:
163,201,61800,1,8,0:0:0:0:
188,164,61894,1,8,0:0:0:0:
215,199,61988,1,8,0:0:0:0:
252,224,62082,1,8,0:0:0:0:
295,223,62175,1,8,0:0:0:0:
325,193,62269,1,8,0:0:0:0:
352,229,62363,1,8,0:0:0:0:
386,258,62457,1,8,0:0:0:0:
424,272,62550,1,8,0:0:0:0:
438,229,62644,1,8,0:0:0:0:
452,186,62738,1,8,0:0:0:0:
452,140,62832,6,0,P|372:80|236:104,1,229.500004377365
204,32,63207,2,0,L|220:188,1,153.000002918243,8|0,0:0|0:0,0:0:0:0:
168,244,63488,1,0,0:0:0:0:
108,292,63582,2,0,P|172:320|244:264,1,153.000002918243
438,229,63957,2,0,P|374:201|302:257,1,153.000002918243,8|0,0:0|0:0,0:0:0:0:
16,144,64332,6,0,P|76:188|156:144,1,153.000002918243
208,120,64613,1,0,0:0:0:0:
272,76,64707,2,0,P|340:50|399:94,1,153.000002918243,8|0,0:0|0:0,0:0:0:0:
208,328,65082,1,0,0:0:0:0:
208,120,65269,1,0,0:0:0:0:
332,124,65457,1,8,0:0:0:0:
148,232,65644,1,8,0:0:0:0:
260,184,65832,6,0,P|340:212|384:40,1,306.000005836487,0|8,0:0|0:0,0:0:0:0:
208,120,66394,1,0,0:0:0:0:
148,232,66582,2,0,P|215:246|260:180,1,153.000002918243
332,208,66863,1,0,0:0:0:0:
400,172,66957,2,0,P|440:231|512:219,1,153.000002918243,8|0,0:0|0:0,0:0:0:0:
480,16,67332,6,0,L|468:172,1,153.000002918243
440,240,67613,1,0,0:0:0:0:
376,284,67707,2,0,B|328:304|280:280|280:280|236:336,1,153.000002918243,8|0,0:0|0:0,0:0:0:0:
208,172,68082,1,8,0:0:0:0:
208,172,68269,1,8,0:0:0:0:
480,16,68457,1,8,0:0:0:0:
480,16,68644,1,8,0:0:0:0:
440,240,68832,6,0,P|416:144|352:116,1,153.000002918243
208,172,69207,1,8,0:0:0:0:
84,68,69394,2,0,L|144:8,1,76.5000014591217
96,220,69582,2,0,P|132:292|248:288,1,153.000002918243
339,251,69957,2,0,L|207:171,1,153.000002918243,8|0,0:0|0:0,0:0:0:0:
360,52,70332,5,0,0:0:0:0:
500,56,70519,1,0,0:0:0:0:
208,172,70707,1,8,0:0:0:0:
432,196,70894,1,0,0:0:0:0:
440,272,70988,1,0,0:0:0:0:
448,348,71082,1,0,0:0:0:0:
104,328,71269,2,0,B|96:288|96:288|108:232,1,76.5000014591217
208,172,71457,2,0,B|216:212|216:212|204:268,1,76.5000014591217,8|0,0:0|0:0,0:0:0:0:
312,328,71644,2,0,B|304:288|304:288|316:232,1,76.5000014591217
340,180,71832,6,0,L|304:112,1,76.5000014591217,8|0,0:0|0:0,0:0:0:0:
180,44,72019,2,0,P|128:48|88:80,1,76.5000014591217,0|0,0:0|0:0,0:0:0:0:
64,148,72207,2,0,L|64:240,1,76.5000014591217,8|0,0:0|0:0,0:0:0:0:
208,248,72394,2,0,B|208:156,1,76.5000014591217
340,180,72582,2,0,L|340:272,1,76.5000014591217,8|0,0:0|0:0,0:0:0:0:
472,272,72769,2,0,P|496:224|488:176,1,76.5000014591217
512,84,72957,2,0,P|508:46|487:14,1,76.5000014591217,8|0,0:0|0:0,0:0:0:0:
340,180,73144,6,0,P|252:192|296:40,1,306.000005836487,8|0,0:0|0:0,0:0:0:0:
436,68,73707,2,0,L|288:120,1,153.000002918243,8|8,0:0|0:0,0:0:0:0:
278,43,74082,1,8,0:0:0:0:
238,107,74175,1,8,0:0:0:0:
233,182,74269,1,8,0:0:0:0:
264,252,74363,1,8,0:0:0:0:
185,343,74457,1,8,0:0:0:0:
260,356,74550,1,8,0:0:0:0:
332,333,74644,1,8,0:0:0:0:
385,278,74738,1,8,0:0:0:0:
392,200,74832,6,0,P|264:188|248:76,1,229.500004377365
293,287,75207,2,0,P|224:257|180:196,1,153.000002918243,8|0,0:0|0:0,0:0:0:0:
392,200,75582,1,0,0:0:0:0:
336,120,75769,1,0,0:0:0:0:
268,244,75957,1,8,0:0:0:0:
344,128,76144,1,0,0:0:0:0:
213,199,76332,6,0,B|224:148|200:112|200:112|244:56|200:-16,1,229.500004377365,0|0,0:0|0:0,0:0:0:0:
144,325,76707,2,0,L|144:161,1,153.000002918243,8|0,0:0|0:0,0:0:0:0:
288,108,77082,1,0,0:0:0:0:
360,310,77269,1,8,0:0:0:0:
144,325,77457,1,8,0:0:0:0:
152,48,77644,1,0,0:0:0:0:
76,36,77738,1,0,0:0:0:0:
160,179,77832,6,0,P|260:207|260:79,1,229.500004377365
224,144,78207,2,0,L|288:284,1,153.000002918243,8|0,0:0|0:0,0:0:0:0:
444,300,78582,2,0,B|436:264|408:244|408:244|452:168,1,153.000002918243
388,124,78863,1,0,0:0:0:0:
352,68,78957,2,0,B|360:104|388:124|388:124|344:200,1,153.000002918243,8|0,0:0|0:0,0:0:0:0:
160,180,79332,6,0,P|192:252|108:284,1,153.000002918243
224,268,79613,1,0,0:0:0:0:
297,231,79707,2,0,P|381:163|385:103,1,153.000002918243,8|0,0:0|0:0,0:0:0:0:
204,40,80082,2,0,P|192:84|208:132,1,76.5000014591217
256,156,80269,2,0,P|267:119|262:82,1,76.5000014591217,8|0,0:0|0:0,0:0:0:0:
336,44,80457,2,0,B|328:64|336:88|336:88|344:148|312:200,1,153.000002918243,8|0,0:0|0:0,0:0:0:0:
224,268,80832,6,0,P|328:308|376:212,1,229.500004377365
360,148,81207,1,8,0:0:0:0:
72,120,81394,2,0,B|60:88|60:88|72:64|56:24,1,76.5000014591217
94,207,81582,2,0,P|162:263|274:247,1,153.000002918243
360,148,81957,2,0,P|292:92|180:108,1,153.000002918243,8|0,0:0|0:0,0:0:0:0:
224,268,82332,5,0,0:0:0:0:
360,148,82519,1,0,0:0:0:0:
420,320,82707,1,8,0:0:0:0:
464,144,82894,1,0,0:0:0:0:
436,72,82988,1,0,0:0:0:0:
368,36,83082,2,0,P|288:20|192:40,1,153.000002918243,0|8,0:0|0:0,0:0:0:0:
20,104,83457,2,0,P|100:120|196:100,1,153.000002918243,8|8,0:0|0:0,0:0:0:0:
260,100,83832,6,0,B|272:144|272:144|264:200,1,76.5000014591217,8|0,0:0|0:0,0:0:0:0:
368,223,84019,2,0,B|356:179|356:179|364:123,1,76.5000014591217
464,192,84207,2,0,B|476:236|476:236|468:292,1,76.5000014591217,8|0,0:0|0:0,0:0:0:0:
320,324,84394,1,0,0:0:0:0:
244,304,84488,1,0,0:0:0:0:
20,104,84582,2,0,P|56:124|96:176,1,76.5000014591217,8|0,0:0|0:0,0:0:0:0:
172,276,84769,2,0,P|136:256|96:204,1,76.5000014591217,0|0,0:0|0:0,0:0:0:0:
198,140,84957,2,0,P|238:124|270:72,1,76.5000014591217,8|0,0:0|0:0,0:0:0:0:
344,60,85144,2,0,P|384:76|416:128,1,76.5000014591217,8|0,0:0|0:0,0:0:0:0:
464,192,85332,5,8,0:0:0:0:
406,248,85425,1,8,0:0:0:0:
322,245,85519,1,8,0:0:0:0:
258,197,85613,1,8,0:0:0:0:
198,140,85707,1,8,0:0:0:0:
117,124,85800,1,8,0:0:0:0:
55,175,85894,1,8,0:0:0:0:
35,252,85988,1,8,0:0:0:0:
78,315,86082,1,8,0:0:0:0:
144,353,86175,1,8,0:0:0:0:
223,346,86269,1,8,0:0:0:0:
249,274,86363,1,8,0:0:0:0:
258,197,86457,1,8,0:0:0:0:
295,127,86550,1,8,0:0:0:0:
344,60,86644,1,8,0:0:0:0:
416,34,86738,1,8,0:0:0:0:
492,39,86832,1,8,0:0:0:0:
100,88,98082,5,0,0:0:0:0:
168,148,98269,1,0,0:0:0:0:
168,148,98363,1,0,0:0:0:0:
168,148,98457,1,0,0:0:0:0:
100,88,98644,1,0,0:0:0:0:
100,88,98738,1,0,0:0:0:0:
100,88,98832,6,0,P|144:68|192:64,2,90,0|0|8,0:0|0:0|0:0,0:0:0:0:
64,232,99394,1,0,0:0:0:0:
100,260,99488,1,0,0:0:0:0:
392,144,99582,2,0,P|324:128|284:144,1,90,0|0,0:0|0:0,0:0:0:0:
140,280,99957,2,0,P|208:296|248:280,1,90,8|0,0:0|0:0,0:0:0:0:
328,324,100332,5,0,0:0:0:0:
336,204,100519,1,0,0:0:0:0:
212,108,100707,1,8,0:0:0:0:
215,98,100894,1,0,0:0:0:0:
140,280,101082,1,0,0:0:0:0:
200,344,101269,1,0,0:0:0:0:
40,348,101457,1,0,0:0:0:0:
48,228,101644,1,8,0:0:0:0:
140,280,101832,6,0,P|184:336|224:352,1,90
244,344,102113,1,0,0:0:0:0:
288,344,102207,2,0,L|344:340,1,45,8|0,0:0|0:0,0:0:0:0:
248,264,102394,2,0,L|304:260,1,45,0|0,0:0|0:0,0:0:0:0:
214,176,102582,2,0,L|270:172,1,45,0|0,0:0|0:0,0:0:0:0:
174,96,102769,2,0,L|230:92,1,45,0|0,0:0|0:0,0:0:0:0:
320,60,102957,1,8,0:0:0:0:
364,72,103050,1,0,0:0:0:0:
408,84,103144,1,0,0:0:0:0:
452,96,103238,1,0,0:0:0:0:
499,152,103332,6,0,P|499:130|496:108,1,45
420,195,103519,2,0,P|420:217|424:240,1,45,0|0,0:0|0:0,0:0:0:0:
323,176,103707,2,0,P|323:154|320:132,1,45,8|0,0:0|0:0,0:0:0:0:
244,219,103894,2,0,P|244:241|248:264,1,45,0|0,0:0|0:0,0:0:0:0:
174,96,104082,2,0,P|126:132|82:128,1,90
72,48,104457,6,0,L|104:244,1,180,8|0,0:0|0:0,0:0:0:0:
248,264,105019,1,0,0:0:0:0:
320,132,105207,1,8,0:0:0:0:
174,96,105394,2,0,B|188:44|240:32|240:32|284:56|326:38,1,180
416,256,105957,1,8,0:0:0:0:
320,132,106144,1,0,0:0:0:0:
248,264,106332,6,0,L|204:264,2,45,0|0|0,0:0|0:0|0:0,0:0:0:0:
432,152,106707,1,8,0:0:0:0:
192,172,106894,1,0,0:0:0:0:
148,168,106988,1,0,0:0:0:0:
104,164,107082,1,0,0:0:0:0:
320,132,107269,1,0,0:0:0:0:
60,160,107457,1,8,0:0:0:0:
248,264,107644,1,0,0:0:0:0:
432,152,107832,6,0,P|440:204|424:248,1,90
60,160,108207,1,8,0:0:0:0:
320,132,108394,1,0,0:0:0:0:
320,132,108582,2,0,L|208:76,1,90
60,160,108957,1,8,0:0:0:0:
60,160,109144,2,0,B|120:160|156:128|156:128|316:208,1,270,0|8,0:0|0:0,0:0:0:0:
444,120,109894,5,0,0:0:0:0:
440,164,109988,1,0,0:0:0:0:
436,208,110082,1,8,0:0:0:0:
452,248,110175,1,0,0:0:0:0:
464,292,110269,1,8,0:0:0:0:
440,328,110363,1,0,0:0:0:0:
396,328,110457,1,8,0:0:0:0:
356,312,110550,1,8,0:0:0:0:
316,292,110644,1,8,0:0:0:0:
272,296,110738,1,8,0:0:0:0:
228,300,110832,6,0,P|160:312|120:208,1,180,0|8,0:0|0:0,0:0:0:0:
352,20,111394,1,0,0:0:0:0:
344,64,111488,1,0,0:0:0:0:
328,108,111582,2,0,B|308:152|308:152|324:224,1,90
184,244,111957,2,0,B|204:200|204:200|188:128,1,90,8|0,0:0|0:0,0:0:0:0:
44,48,112332,6,0,P|88:68|144:44,1,90
328,108,112707,2,0,P|284:88|228:112,1,90,8|0,0:0|0:0,0:0:0:0:
200,360,113082,1,0,0:0:0:0:
408,304,113269,1,8,0:0:0:0:
288,252,113457,2,0,L|280:160,1,90,8|0,0:0|0:0,0:0:0:0:
372,198,113832,6,0,B|396:146|388:86|388:86|344:126|288:94,1,180,0|8,0:0|0:0,0:0:0:0:
156,16,114394,2,0,L|360:38,1,180
112,216,114957,1,8,0:0:0:0:
152,236,115050,1,0,0:0:0:0:
192,256,115144,1,0,0:0:0:0:
372,198,115332,5,0,0:0:0:0:
112,216,115519,1,0,0:0:0:0:
156,18,115707,1,8,0:0:0:0:
344,296,115894,1,0,0:0:0:0:
300,304,115988,1,0,0:0:0:0:
256,312,116082,2,0,P|224:268|172:256,1,90,0|8,0:0|0:0,0:0:0:0:
156,18,116457,1,8,0:0:0:0:
420,36,116644,1,8,0:0:0:0:
372,198,116832,6,0,L|352:96,1,90
76,96,117207,1,8,0:0:0:0:
200,288,117394,2,0,L|220:186,1,90
496,186,117769,1,0,0:0:0:0:
372,198,117957,1,8,0:0:0:0:
248,210,118144,1,0,0:0:0:0:
76,96,118332,6,0,P|144:80|180:48,1,90
248,210,118707,2,0,P|298:162|314:116,1,90,8|0,0:0|0:0,0:0:0:0:
284,58,119082,2,0,P|233:105|217:151,1,90,0|8,0:0|0:0,0:0:0:0:
456,172,119457,2,0,P|388:188|352:220,1,90,8|0,0:0|0:0,0:0:0:0:
272,336,119832,5,0,0:0:0:0:
232,357,119925,1,0,0:0:0:0:
188,358,120019,1,0,0:0:0:0:
147,339,120113,1,0,0:0:0:0:
120,304,120207,1,8,0:0:0:0:
111,260,120300,1,0,0:0:0:0:
124,217,120394,1,0,0:0:0:0:
154,185,120488,1,0,0:0:0:0:
188,152,120582,1,0,0:0:0:0:
201,109,120675,1,0,0:0:0:0:
191,66,120769,1,0,0:0:0:0:
160,34,120863,1,0,0:0:0:0:
117,23,120957,1,8,0:0:0:0:
75,35,121050,1,0,0:0:0:0:
108,68,121144,2,0,P|144:76|176:72,1,45
48,156,121332,5,0,0:0:0:0:
47,200,121425,1,0,0:0:0:0:
40,245,121519,1,0,0:0:0:0:
25,287,121613,1,0,0:0:0:0:
68,304,121707,1,8,0:0:0:0:
120,304,121800,1,0,0:0:0:0:
164,288,121894,1,0,0:0:0:0:
204,264,121988,1,0,0:0:0:0:
240,236,122082,1,0,0:0:0:0:
278,212,122175,1,0,0:0:0:0:
312,288,122269,1,8,0:0:0:0:
355,301,122363,1,0,0:0:0:0:
384,220,122457,1,8,0:0:0:0:
408,180,122550,1,0,0:0:0:0:
496,264,122644,1,8,0:0:0:0:
468,228,122738,1,0,0:0:0:0:
360,100,122832,6,0,P|248:88|168:108,1,180,0|8,0:0|0:0,0:0:0:0:
278,212,123394,1,0,0:0:0:0:
88,164,123582,2,0,P|116:104|104:52,1,90
432,200,123957,2,0,P|404:260|416:312,1,90,8|0,0:0|0:0,0:0:0:0:
278,212,124332,6,0,P|232:248|144:168,1,180,0|8,0:0|0:0,0:0:0:0:
264,100,124894,1,0,0:0:0:0:
264,100,125082,2,0,L|204:192,1,90,0|8,0:0|0:0,0:0:0:0:
400,144,125457,1,8,0:0:0:0:
328,312,125644,1,0,0:0:0:0:
112,288,125832,5,0,0:0:0:0:
112,288,126019,1,0,0:0:0:0:
264,100,126207,1,8,0:0:0:0:
264,100,126394,1,0,0:0:0:0:
480,216,126582,1,0,0:0:0:0:
480,216,126769,1,0,0:0:0:0:
200,200,126957,2,0,B|216:192|224:164|224:164|272:188|308:160|308:160|316:192|328:200,1,180,8|0,0:0|0:0,0:0:0:0:
440,44,127519,5,0,0:0:0:0:
428,88,127613,1,0,0:0:0:0:
416,132,127707,1,8,0:0:0:0:
184,296,127894,1,0,0:0:0:0:
228,300,127988,1,0,0:0:0:0:
272,304,128082,1,0,0:0:0:0:
416,132,128269,1,8,0:0:0:0:
200,200,128457,1,8,0:0:0:0:
344,28,128644,1,0,0:0:0:0:
208,40,128832,5,0,0:0:0:0:
52,108,129019,1,0,0:0:0:0:
416,132,129207,1,8,0:0:0:0:
200,200,129394,1,0,0:0:0:0:
344,272,129582,1,0,0:0:0:0:
64,348,129769,1,8,0:0:0:0:
52,108,129957,1,8,0:0:0:0:
416,132,130144,6,0,P|359:167|348:280,1,180
200,200,130707,1,8,0:0:0:0:
352,68,130894,1,0,0:0:0:0:
384,100,130988,1,0,0:0:0:0:
416,132,131082,1,8,0:0:0:0:
52,108,131269,1,8,0:0:0:0:
204,332,131457,1,8,0:0:0:0:
352,68,131644,1,8,0:0:0:0:
468,272,131832,5,8,0:0:0:0:
435,302,131925,1,0,0:0:0:0:
392,315,132019,1,0,0:0:0:0:
348,307,132113,1,0,0:0:0:0:
312,280,132207,1,8,0:0:0:0:
293,242,132300,1,0,0:0:0:0:
291,196,132394,1,0,0:0:0:0:
292,152,132488,1,0,0:0:0:0:
277,110,132581,1,8,0:0:0:0:
242,82,132675,1,0,0:0:0:0:
198,76,132769,1,0,0:0:0:0:
158,95,132863,1,0,0:0:0:0:
134,132,132957,1,8,0:0:0:0:
120,176,133050,1,0,0:0:0:0:
106,218,133143,1,0,0:0:0:0:
73,248,133237,1,0,0:0:0:0:
36,272,133332,5,8,0:0:0:0:
57,311,133425,1,0,0:0:0:0:
90,341,133519,1,8,0:0:0:0:
131,358,133613,1,0,0:0:0:0:
176,361,133707,1,8,0:0:0:0:
219,348,133800,1,0,0:0:0:0:
255,322,133894,1,8,0:0:0:0:
280,285,133988,1,0,0:0:0:0:
293,242,134082,2,8,L|304:176,1,45
340,180,134269,2,8,L|351:114,1,45
290,20,134457,2,8,L|279:86,1,45
243,82,134644,2,8,L|232:148,1,45
204,160,134832,5,8,0:0:0:0:
204,160,135207,1,0,0:0:0:0:
362,267,135394,2,0,L|330:139,1,90,8|0,0:0|0:0,0:0:0:0:
340,179,135769,1,0,0:0:0:0:
108,52,135957,2,0,L|96:172,1,90,8|8,0:0|0:0,0:0:0:0:
99,141,136332,5,0,0:0:0:0:
204,160,136519,1,0,0:0:0:0:
340,179,136707,1,0,0:0:0:0:
500,204,136894,1,8,0:0:0:0:
400,292,137082,2,0,L|352:308,1,45
236,284,137269,2,0,L|284:268,1,45
192,360,137457,2,0,L|144:376,1,45,8|0,0:0|0:0,0:0:0:0:
28,352,137644,2,0,L|76:336,1,45,8|0,0:0|0:0,0:0:0:0:
104,260,137832,5,8,0:0:0:0:
104,260,138207,1,0,0:0:0:0:
220,32,138394,2,0,L|200:144,1,90,8|0,0:0|0:0,0:0:0:0:
204,120,138769,1,0,0:0:0:0:
424,212,138956,1,8,0:0:0:0:
204,120,139144,1,8,0:0:0:0:
276,196,139332,5,0,0:0:0:0:
220,32,139519,1,0,0:0:0:0:
276,196,139707,1,0,0:0:0:0:
408,124,139894,1,8,0:0:0:0:
424,168,139988,1,0,0:0:0:0:
424,212,140082,1,0,0:0:0:0:
412,256,140175,1,0,0:0:0:0:
376,284,140269,1,0,0:0:0:0:
48,272,140457,1,8,0:0:0:0:
192,116,140644,1,8,0:0:0:0:
232,328,140832,5,8,0:0:0:0:
232,328,141207,1,0,0:0:0:0:
302,110,141394,2,0,L|270:218,1,90,8|0,0:0|0:0,0:0:0:0:
376,284,141769,1,0,0:0:0:0:
416,40,141957,2,8,L|440:144,1,90
302,110,142332,6,0,L|292:168,1,45
416,40,142519,2,0,L|408:-4,1,45
440,184,142707,1,0,0:0:0:0:
16,188,142894,2,0,L|80:180,1,45,8|0,0:0|0:0,0:0:0:0:
440,184,143082,2,0,L|392:184,1,45
212,128,143269,1,8,0:0:0:0:
416,144,143457,1,8,0:0:0:0:
440,184,143550,1,0,0:0:0:0:
456,224,143644,1,8,0:0:0:0:
460,268,143738,1,0,0:0:0:0:
428,300,143832,6,0,L|380:316,1,45,8|0,0:0|0:0,0:0:0:0:
264,292,144019,2,0,L|312:276,1,45,0|8,0:0|0:0,0:0:0:0:
220,368,144207,2,0,L|172:384,1,45,0|0,0:0|0:0,0:0:0:0:
56,360,144394,2,0,L|104:344,1,45,8|0,0:0|0:0,0:0:0:0:
112,224,144582,2,0,L|96:176,1,45,8|0,0:0|0:0,0:0:0:0:
120,60,144769,2,0,L|136:108,1,45,0|8,0:0|0:0,0:0:0:0:
230,179,144957,2,0,L|214:131,1,45,0|0,0:0|0:0,0:0:0:0:
238,15,145144,2,0,L|254:63,1,45,8|0,0:0|0:0,0:0:0:0:
354,126,145332,5,8,0:0:0:0:
393,145,145425,1,0,0:0:0:0:
421,181,145519,1,8,0:0:0:0:
429,225,145613,1,0,0:0:0:0:
417,268,145707,1,8,0:0:0:0:
387,301,145800,1,0,0:0:0:0:
346,318,145894,1,8,0:0:0:0:
302,314,145988,1,0,0:0:0:0:
263,291,146082,1,8,0:0:0:0:
224,272,146175,1,0,0:0:0:0:
180,260,146269,1,8,0:0:0:0:
136,256,146363,1,0,0:0:0:0:
92,252,146457,1,8,0:0:0:0:
48,240,146550,1,0,0:0:0:0:
24,200,146644,1,8,0:0:0:0:
28,156,146738,1,0,0:0:0:0:
48,116,146832,5,8,0:0:0:0:
80,84,146925,1,8,0:0:0:0:
124,68,147019,1,8,0:0:0:0:
166,55,147112,1,8,0:0:0:0:
210,63,147206,1,8,0:0:0:0:
246,89,147300,1,8,0:0:0:0:
266,129,147394,1,8,0:0:0:0:
266,174,147487,1,8,0:0:0:0:
304,200,147582,2,8,L|376:208,1,45,8|8,0:0|0:0,0:0:0:0:
500,284,147769,2,8,L|428:276,1,45
384,184,147957,2,8,L|456:176,1,45,8|8,0:0|0:0,0:0:0:0:
420,52,148144,2,8,L|348:60,1,45,8|8,0:0|0:0,0:0:0:0:
312,296,148332,6,0,P|252:324|176:272,1,125.999996154785
88,140,148707,1,8,0:0:0:0:
304,48,148894,1,0,0:0:0:0:
476,208,149082,1,0,0:0:0:0:
32,240,149269,1,0,0:0:0:0:
248,148,149456,1,8,0:0:0:0:
420,308,149644,1,0,0:0:0:0:
123,332,149832,6,0,P|127:256|15:260,1,188.999994232178
32,240,150207,2,0,P|72:212|84:128,1,125.999996154785,8|0,0:0|0:0,0:0:0:0:
380,40,150582,1,0,0:0:0:0:
248,148,150769,1,0,0:0:0:0:
420,308,150957,1,8,0:0:0:0:
124,332,151144,1,8,0:0:0:0:
108,56,151332,5,0,0:0:0:0:
420,120,151519,1,0,0:0:0:0:
240,280,151707,1,8,0:0:0:0:
76,152,151894,1,0,0:0:0:0:
76,152,151988,1,0,0:0:0:0:
76,152,152082,1,0,0:0:0:0:
388,216,152269,1,0,0:0:0:0:
208,376,152457,1,8,0:0:0:0:
256,88,152644,1,0,0:0:0:0:
240,280,152832,5,0,0:0:0:0:
388,216,153019,1,0,0:0:0:0:
388,216,153113,1,0,0:0:0:0:
388,216,153207,1,8,0:0:0:0:
256,88,153394,1,0,0:0:0:0:
256,88,153488,1,0,0:0:0:0:
256,88,153582,1,0,0:0:0:0:
76,152,153769,1,8,0:0:0:0:
240,280,153957,1,8,0:0:0:0:
400,76,154144,1,0,0:0:0:0:
368,320,154332,6,0,P|404:292|480:328,1,125.999996154785
400,76,154707,1,8,0:0:0:0:
256,88,154894,2,0,L|80:280,1,251.999992309571
464,172,155457,1,8,0:0:0:0:
112,96,155644,1,0,0:0:0:0:
112,96,155738,1,0,0:0:0:0:
112,96,155832,5,0,0:0:0:0:
288,288,156019,1,0,0:0:0:0:
400,76,156207,1,8,0:0:0:0:
164,220,156394,1,0,0:0:0:0:
164,220,156488,1,0,0:0:0:0:
164,220,156582,1,0,0:0:0:0:
368,184,156769,1,8,0:0:0:0:
432,348,156957,1,8,0:0:0:0:
464,172,157144,1,8,0:0:0:0:
112,96,157332,5,8,0:0:0:0:
98,157,157425,1,0,0:0:0:0:
65,210,157519,1,0,0:0:0:0:
40,268,157613,1,0,0:0:0:0:
58,326,157707,1,8,0:0:0:0:
112,356,157800,1,0,0:0:0:0:
171,339,157894,1,0,0:0:0:0:
208,288,157988,1,0,0:0:0:0:
255,248,158082,1,8,0:0:0:0:
316,228,158175,1,0,0:0:0:0:
372,256,158269,1,0,0:0:0:0:
428,228,158363,1,0,0:0:0:0:
464,172,158457,1,8,0:0:0:0:
456,112,158550,1,0,0:0:0:0:
432,52,158644,6,0,P|316:124|316:228,1,251.999992309571,8|0,0:0|0:0,0:0:0:0:
112,96,159207,1,8,0:0:0:0:
112,352,159394,1,8,0:0:0:0:
255,248,159582,1,8,0:0:0:0:
229,192,159675,1,8,0:0:0:0:
256,138,159769,1,8,0:0:0:0:
315,123,159863,1,8,0:0:0:0:
356,172,159957,1,8,0:0:0:0:
412,144,160050,1,8,0:0:0:0:
464,172,160144,1,8,0:0:0:0:
484,232,160238,1,8,0:0:0:0:
460,292,160332,5,0,0:0:0:0:
156,264,160519,1,0,0:0:0:0:
315,123,160707,1,8,0:0:0:0:
104,84,160894,1,0,0:0:0:0:
104,84,160988,1,0,0:0:0:0:
104,84,161082,1,0,0:0:0:0:
24,284,161269,1,0,0:0:0:0:
230,193,161457,1,8,0:0:0:0:
328,336,161644,1,0,0:0:0:0:
315,123,161832,6,0,P|372:148|440:120,1,125.999996154785
196,208,162113,1,0,0:0:0:0:
230,193,162207,2,0,L|216:337,1,125.999996154785,8|0,0:0|0:0,0:0:0:0:
144,312,162582,1,0,0:0:0:0:
230,193,162769,1,8,0:0:0:0:
328,336,162957,1,8,0:0:0:0:
418,254,163144,1,0,0:0:0:0:
315,123,163332,5,0,0:0:0:0:
44,88,163519,1,0,0:0:0:0:
144,312,163707,1,8,0:0:0:0:
328,336,163894,1,0,0:0:0:0:
328,336,163988,1,0,0:0:0:0:
328,336,164082,1,0,0:0:0:0:
230,193,164269,1,0,0:0:0:0:
436,48,164457,1,8,0:0:0:0:
315,123,164644,1,0,0:0:0:0:
420,224,164832,5,0,0:0:0:0:
230,193,165019,1,0,0:0:0:0:
230,193,165113,1,0,0:0:0:0:
230,193,165207,1,8,0:0:0:0:
40,64,165394,1,0,0:0:0:0:
92,328,165582,1,0,0:0:0:0:
315,123,165769,1,8,0:0:0:0:
368,348,165957,1,8,0:0:0:0:
315,123,166144,1,0,0:0:0:0:
420,224,166332,5,0,0:0:0:0:
230,193,166519,1,0,0:0:0:0:
44,240,166707,1,8,0:0:0:0:
315,123,166894,1,0,0:0:0:0:
40,64,167082,1,0,0:0:0:0:
124,308,167269,1,0,0:0:0:0:
230,193,167457,1,8,0:0:0:0:
196,364,167644,1,0,0:0:0:0:
420,224,167832,5,0,0:0:0:0:
208,280,168019,1,0,0:0:0:0:
40,64,168207,1,8,0:0:0:0:
268,80,168394,1,0,0:0:0:0:
84,192,168582,1,0,0:0:0:0:
336,200,168769,1,8,0:0:0:0:
124,308,168957,1,8,0:0:0:0:
400,324,169144,1,8,0:0:0:0:
420,224,169332,5,8,0:0:0:0:
457,174,169425,1,0,0:0:0:0:
462,112,169519,1,0,0:0:0:0:
431,59,169613,1,0,0:0:0:0:
376,31,169707,1,8,0:0:0:0:
314,38,169800,1,0,0:0:0:0:
267,79,169894,1,0,0:0:0:0:
248,139,169988,1,0,0:0:0:0:
237,199,170081,1,8,0:0:0:0:
189,238,170175,1,0,0:0:0:0:
128,234,170269,1,0,0:0:0:0:
84,191,170363,1,0,0:0:0:0:
68,132,170457,1,8,0:0:0:0:
98,77,170550,1,0,0:0:0:0:
152,46,170644,1,8,0:0:0:0:
214,47,170738,1,0,0:0:0:0:
267,79,170832,5,8,0:0:0:0:
316,120,170925,1,8,0:0:0:0:
315,181,171018,1,8,0:0:0:0:
358,224,171112,1,8,0:0:0:0:
419,224,171206,1,8,0:0:0:0:
480,248,171300,1,8,0:0:0:0:
494,307,171393,1,8,0:0:0:0:
458,356,171487,1,8,0:0:0:0:
396,344,171582,1,8,0:0:0:0:
337,321,171675,1,8,0:0:0:0:
275,310,171769,1,8,0:0:0:0:
212,312,171863,1,8,0:0:0:0:
151,326,171957,1,8,0:0:0:0:
88,336,172050,1,8,0:0:0:0:
42,295,172143,1,8,0:0:0:0:
40,234,172237,1,8,0:0:0:0:
83,191,172331,5,0,0:0:0:0:
358,224,172519,1,0,0:0:0:0:
232,36,172707,1,8,0:0:0:0:
232,160,172894,2,0,L|232:204,11,26.9999991760254,0|0|0|0|0|0|0|0|0|0|0|0,0:0|0:0|0:0|0:0|0:0|0:0|0:0|0:0|0:0|0:0|0:0|0:0,0:0:0:0:
232,152,173457,1,8,0:0:0:0:
420,344,173644,1,0,0:0:0:0:
409,129,173832,6,0,L|357:225,1,107.999996704102
128,308,174207,1,8,0:0:0:0:
128,308,174394,2,0,P|148:248|40:172,1,215.999993408203,0|8,0:0|0:0,0:0:0:0:
260,40,174957,1,8,0:0:0:0:
292,256,175144,1,0,0:0:0:0:
292,256,175238,1,0,0:0:0:0:
292,256,175332,5,8,0:0:0:0:
416,96,175519,1,0,0:0:0:0:
416,96,175613,1,0,0:0:0:0:
416,96,175707,1,8,0:0:0:0:
208,152,175894,1,0,0:0:0:0:
208,152,175988,1,0,0:0:0:0:
208,152,176082,1,8,0:0:0:0:
420,224,176269,1,0,0:0:0:0:
420,224,176363,1,0,0:0:0:0:
420,224,176457,1,8,0:0:0:0:
292,256,176644,6,0,L|64:280,1,215.999993408203,8|0,0:0|0:0,0:0:0:0:
100,40,177207,1,8,0:0:0:0:
208,152,177394,1,0,0:0:0:0:
208,152,177488,1,0,0:0:0:0:
208,152,177582,1,8,0:0:0:0:
416,96,177769,1,8,0:0:0:0:
420,224,177957,1,8,0:0:0:0:
292,256,178144,1,8,0:0:0:0:
292,256,178238,1,0,0:0:0:0:
292,256,178332,6,0,L|180:244,1,107.999996704102
100,40,178707,1,8,0:0:0:0:
312,112,178894,1,0,0:0:0:0:
427,332,179082,2,0,L|419:208,1,107.999996704102
136,160,179457,1,8,0:0:0:0:
312,112,179644,2,0,L|352:168,1,53.9999983520508
368,204,179832,6,0,L|384:244,2,35.9999989013672,0|0|0,0:0|0:0|0:0,0:0:0:0:
299,146,180019,2,0,L|315:106,2,35.9999989013672,0|0|0,0:0|0:0|0:0,0:0:0:0:
236,204,180207,1,8,0:0:0:0:
200,200,180270,1,0,0:0:0:0:
164,196,180332,1,0,0:0:0:0:
136,160,180394,1,0,0:0:0:0:
100,164,180457,1,0,0:0:0:0:
64,168,180519,1,0,0:0:0:0:
96,56,180582,2,0,L|32:60,2,35.9999989013672,0|0|0,0:0|0:0|0:0,0:0:0:0:
176,16,180769,1,0,0:0:0:0:
208,28,180832,1,0,0:0:0:0:
244,36,180894,1,0,0:0:0:0:
280,24,180957,2,0,L|320:8,2,35.9999989013672,8|0|0,0:0|0:0|0:0,0:0:0:0:
312,112,181144,2,0,B|316:116|316:116|312:119|320:124|320:124|316:128|323:132|323:132|320:136|328:140|328:140|325:144|332:148|332:148|328:152|336:156|336:156|332:160|340:164|340:164|336:168|344:172|344:172|340:176,1,53.9999983520508
324,240,181332,5,0,0:0:0:0:
360,248,181394,1,0,0:0:0:0:
396,256,181457,1,0,0:0:0:0:
408,300,181519,1,0,0:0:0:0:
444,292,181582,1,0,0:0:0:0:
480,284,181644,1,8,0:0:0:0:
496,240,181707,1,0,0:0:0:0:
488,204,181769,1,0,0:0:0:0:
480,168,181832,1,0,0:0:0:0:
436,156,181894,1,0,0:0:0:0:
444,120,181957,1,0,0:0:0:0:
452,84,182019,1,0,0:0:0:0:
348,104,182082,6,0,L|312:112,2,35.9999989013672,0|0|0,0:0|0:0|0:0,0:0:0:0:
401,148,182269,2,0,L|437:156,2,35.9999989013672,0|0|0,0:0|0:0|0:0,0:0:0:0:
324,240,182457,2,0,L|216:256,1,107.999996704102,8|0,0:0|0:0,0:0:0:0:
64,220,182832,5,0,0:0:0:0:
105,187,182925,1,0,0:0:0:0:
116,136,183019,1,0,0:0:0:0:
89,90,183113,1,0,0:0:0:0:
36,76,183207,2,0,P|28:140|32:172,1,53.9999983520508,8|0,0:0|0:0,0:0:0:0:
288,160,183394,2,0,P|296:96|292:64,1,53.9999983520508
252,76,183582,1,0,0:0:0:0:
295,106,183675,1,0,0:0:0:0:
348,103,183769,1,8,0:0:0:0:
396,80,183863,1,0,0:0:0:0:
452,84,183957,1,8,0:0:0:0:
480,128,184050,1,0,0:0:0:0:
492,179,184143,1,0,0:0:0:0:
473,229,184237,1,0,0:0:0:0:
440,272,184332,6,0,P|364:272|328:236,1,107.999996704102
105,188,184613,1,0,0:0:0:0:
165,232,184707,2,0,P|118:257|65:249,1,107.999996704102,8|0,0:0|0:0,0:0:0:0:
36,76,185082,2,0,P|112:88|172:-28,1,215.999993408203,0|8,0:0|0:0,0:0:0:0:
492,179,185644,1,0,0:0:0:0:
473,229,185738,1,0,0:0:0:0:
388,160,185832,6,0,L|280:144,1,107.999996704102
76,232,186207,1,8,0:0:0:0:
240,252,186394,2,0,P|315:264|385:145,1,215.999993408203,0|8,0:0|0:0,0:0:0:0:
200,56,186957,1,8,0:0:0:0:
76,232,187144,1,0,0:0:0:0:
240,252,187332,6,0,L|160:264,1,71.9999978027344
72,320,187582,1,0,0:0:0:0:
180,348,187707,2,0,L|284:360,1,71.9999978027344,8|0,0:0|0:0,0:0:0:0:
352,320,187957,1,0,0:0:0:0:
352,208,188082,2,0,L|360:136,2,71.9999978027344,0|0|0,0:0|0:0|0:0,0:0:0:0:
240,252,188457,2,0,L|232:180,2,71.9999978027344,8|0|0,0:0|0:0|0:0,0:0:0:0:
96,184,188832,5,0,0:0:0:0:
224,60,189019,1,0,0:0:0:0:
380,148,189207,2,0,B|383:186|376:199|376:199|351:208|351:208|392:228|392:228|357:244|357:244|373:269|351:314,1,215.999993408203,8|0,0:0|0:0,0:0:0:0:
240,252,189769,2,0,L|128:268,1,107.999996704102,8|8,0:0|0:0,0:0:0:0:
224,60,190144,1,0,0:0:0:0:
224,60,190238,1,0,0:0:0:0:
224,60,190332,6,0,L|344:48,1,107.999996704102
488,137,190707,2,0,L|368:149,1,107.999996704102,8|0,0:0|0:0,0:0:0:0:
328,164,190988,1,0,0:0:0:0:
276,168,191082,2,0,P|240:168|208:176,1,53.9999983520508
187,256,191207,2,0,P|213:256|240:252,1,53.9999983520508,0|0,0:0|0:0,0:0:0:0:
128,192,191394,2,0,P|101:187|74:188,1,53.9999983520508,8|0,0:0|0:0,0:0:0:0:
336,272,191582,2,0,P|362:276|389:275,1,53.9999983520508,0|0,0:0|0:0,0:0:0:0:
479,322,191832,6,0,P|484:236|420:180,1,161.999995056153
434,185,192207,2,0,L|322:163,1,107.999996704102,8|0,0:0|0:0,0:0:0:0:
208,40,192582,1,0,0:0:0:0:
128,192,192769,1,8,0:0:0:0:
128,192,192863,1,0,0:0:0:0:
128,192,192957,1,8,0:0:0:0:
336,272,193144,1,0,0:0:0:0:
164,324,193332,6,0,L|136:328,5,26.9999991760254,0|0|0|0|0|0,0:0|0:0|0:0|0:0|0:0|0:0,0:0:0:0:
248,240,193613,6,0,L|220:244,5,26.9999991760254,0|0|8|0|0|0,0:0|0:0|0:0|0:0|0:0|0:0,0:0:0:0:
332,156,193894,6,0,L|304:160,3,26.9999991760254,0|0|0|0,0:0|0:0|0:0|0:0,0:0:0:0:
440,108,194082,6,0,L|412:104,5,26.9999991760254,0|0|0|0|0|0,0:0|0:0|0:0|0:0|0:0|0:0,0:0:0:0:
464,236,194363,6,0,L|436:232,5,26.9999991760254,0|0|8|0|0|0,0:0|0:0|0:0|0:0|0:0|0:0,0:0:0:0:
356,348,194644,6,0,L|328:344,3,26.9999991760254,0|0|0|0,0:0|0:0|0:0|0:0,0:0:0:0:
472,324,194832,6,0,L|424:320,12,26.9999991760254,0|0|0|0|0|0|0|0|8|0|0|0|0,0:0|0:0|0:0|0:0|0:0|0:0|0:0|0:0|0:0|0:0|0:0|0:0|0:0,0:0:0:0:
420,88,195582,1,0,0:0:0:0:
62,179,195769,1,8,0:0:0:0:
405,315,195957,1,8,0:0:0:0:
207,3,196144,1,0,0:0:0:0:
207,3,196238,1,0,0:0:0:0:
207,3,196332,5,8,0:0:0:0:
207,3,196707,1,0,0:0:0:0:
188,344,196894,2,0,L|220:212,1,107.999996704102,8|0,0:0|0:0,0:0:0:0:
213,239,197269,1,0,0:0:0:0:
384,96,197457,1,8,0:0:0:0:
104,116,197644,1,8,0:0:0:0:
104,116,197832,6,0,L|100:224,1,107.999996704102
213,239,198207,1,0,0:0:0:0:
305,219,198394,2,0,P|389:207|369:87,1,215.999993408203,8|0,0:0|0:0,0:0:0:0:
104,116,198957,1,8,0:0:0:0:
340,154,199144,1,8,0:0:0:0:
104,116,199332,5,8,0:0:0:0:
104,116,199707,1,0,0:0:0:0:
340,154,199894,2,0,L|448:176,1,107.999996704102,8|0,0:0|0:0,0:0:0:0:
445,175,200269,1,0,0:0:0:0:
224,292,200457,1,8,0:0:0:0:
192,56,200644,1,8,0:0:0:0:
192,56,200832,5,0,0:0:0:0:
192,56,201019,2,0,L|304:48,1,107.999996704102
340,154,201394,2,0,P|329:244|220:291,1,215.999993408203,8|0,0:0|0:0,0:0:0:0:
56,108,201957,1,8,0:0:0:0:
239,185,202144,1,8,0:0:0:0:
56,108,202332,5,8,0:0:0:0:
56,108,202707,1,0,0:0:0:0:
278,84,202894,2,0,L|234:200,1,107.999996704102,8|0,0:0|0:0,0:0:0:0:
239,185,203269,1,0,0:0:0:0:
148,340,203457,1,8,0:0:0:0:
416,304,203644,1,8,0:0:0:0:
416,304,203832,5,0,0:0:0:0:
416,304,204019,2,0,L|436:184,1,107.999996704102
448,100,204394,2,0,P|384:76|372:196,1,215.999993408203,8|0,0:0|0:0,0:0:0:0:
228,332,204957,1,8,0:0:0:0:
156,152,205144,1,8,0:0:0:0:
60,280,205332,5,8,0:0:0:0:
108,301,205425,1,0,0:0:0:0:
159,287,205519,1,0,0:0:0:0:
191,245,205613,1,8,0:0:0:0:
190,192,205707,1,0,0:0:0:0:
156,152,205800,1,0,0:0:0:0:
108,124,205894,1,8,0:0:0:0:
98,72,205987,1,0,0:0:0:0:
128,29,206081,1,8,0:0:0:0:
180,19,206175,1,0,0:0:0:0:
222,50,206269,1,0,0:0:0:0:
264,84,206363,1,8,0:0:0:0:
306,116,206456,1,0,0:0:0:0:
358,123,206550,1,0,0:0:0:0:
408,103,206644,1,8,0:0:0:0:
460,96,206738,1,0,0:0:0:0:
492,140,206832,5,8,0:0:0:0:
487,193,206925,1,0,0:0:0:0:
465,242,207019,1,8,0:0:0:0:
429,282,207113,1,0,0:0:0:0:
382,308,207207,1,8,0:0:0:0:
329,317,207300,1,0,0:0:0:0:
276,309,207394,1,8,0:0:0:0:
229,284,207488,1,0,0:0:0:0:
192,245,207582,1,8,0:0:0:0:
172,196,207675,1,0,0:0:0:0:
168,144,207769,1,8,0:0:0:0:
188,92,207863,1,0,0:0:0:0:
224,50,207957,1,8,0:0:0:0:
276,60,208050,1,0,0:0:0:0:
328,80,208144,1,8,0:0:0:0:
360,124,208238,1,0,0:0:0:0:
360,180,208332,5,8,0:0:0:0:
324,220,208425,1,8,0:0:0:0:
284,256,208519,1,8,0:0:0:0:
276,309,208613,1,8,0:0:0:0:
228,336,208707,1,8,0:0:0:0:
176,336,208800,1,8,0:0:0:0:
124,320,208894,1,8,0:0:0:0:
88,280,208988,1,8,0:0:0:0:
64,232,209082,1,8,0:0:0:0:
76,180,209175,1,8,0:0:0:0:
120,144,209269,1,8,0:0:0:0:
168,144,209363,1,8,0:0:0:0:
220,156,209457,1,8,0:0:0:0:
268,180,209550,1,8,0:0:0:0:
316,152,209644,1,8,0:0:0:0:
360,124,209738,1,8,0:0:0:0:
400,88,209832,6,0,B|432:120|432:132|404:160|404:160|432:180|434:191|392:216|392:216|428:252|424:292|424:320|412:332|416:348,1,288,8|0,0:0|0:0,0:0:0:0:
272,328,210957,1,0,0:0:0:0:
92,252,211332,5,0,0:0:0:0:
144,96,211519,1,0,0:0:0:0:
256,204,211707,1,8,0:0:0:0:
368,114,211894,1,0,0:0:0:0:
368,114,211988,1,0,0:0:0:0:
368,114,212082,1,0,0:0:0:0:
472,312,212269,2,0,L|444:168,1,125.999996154785,0|8,0:0|0:0,0:0:0:0:
144,96,212644,1,0,0:0:0:0:
256,204,212832,6,0,P|304:248|384:216,1,125.999996154785
292,32,213113,1,0,0:0:0:0:
316,56,213207,2,0,L|324:187,1,125.999996154785,8|0,0:0|0:0,0:0:0:0:
144,96,213582,2,0,L|108:216,1,125.999996154785
256,204,213957,1,8,0:0:0:0:
468,312,214144,1,8,0:0:0:0:
468,312,214238,1,0,0:0:0:0:
468,312,214332,6,0,P|492:252|358:246,1,251.999992309571,0|8,0:0|0:0,0:0:0:0:
128,276,214894,1,0,0:0:0:0:
256,204,215082,2,0,P|215:105|140:97,1,188.999994232178
143,96,215457,1,8,0:0:0:0:
344,60,215644,1,0,0:0:0:0:
380,280,215832,6,0,L|400:148,1,125.999996154785
398,155,216113,1,0,0:0:0:0:
398,155,216207,1,8,0:0:0:0:
143,96,216394,1,0,0:0:0:0:
252,312,216582,2,0,L|120:280,1,125.999996154785,0|8,0:0|0:0,0:0:0:0:
40,152,216957,2,0,L|172:184,1,125.999996154785,8|0,0:0|0:0,0:0:0:0:
398,155,217332,5,0,0:0:0:0:
252,312,217519,1,0,0:0:0:0:
252,312,217707,1,8,0:0:0:0:
400,156,217894,2,0,P|284:216|284:104,1,251.999992309571
40,152,218457,1,8,0:0:0:0:
168,32,218644,1,0,0:0:0:0:
261,137,218832,6,0,L|381:65,1,125.999996154785
440,276,219207,1,8,0:0:0:0:
400,156,219394,1,0,0:0:0:0:
252,256,219582,2,0,L|124:284,1,125.999996154785,0|8,0:0|0:0,0:0:0:0:
40,152,219957,1,8,0:0:0:0:
40,152,220144,1,8,0:0:0:0:
40,152,220332,6,0,L|52:84,3,62.9999980773926,8|0|0|0,0:0|0:0|0:0|0:0,0:0:0:0:
140,136,220707,2,0,L|152:68,3,62.9999980773926,8|0|0|0,0:0|0:0|0:0|0:0,0:0:0:0:
240,120,221082,2,0,L|252:52,3,62.9999980773926,8|0|0|0,0:0|0:0|0:0|0:0,0:0:0:0:
340,104,221457,2,0,L|352:36,1,62.9999980773926,8|0,0:0|0:0,0:0:0:0:
350,41,221644,2,0,P|400:28|424:196,1,251.999992309571,8|0,0:0|0:0,0:0:0:0:
332,264,222207,5,8,0:0:0:0:
208,272,222394,1,0,0:0:0:0:
88,116,222582,1,8,0:0:0:0:
128,164,222675,1,8,0:0:0:0:
188,180,222769,1,8,0:0:0:0:
252,180,222863,1,8,0:0:0:0:
308,152,222957,1,8,0:0:0:0:
340,104,223050,1,8,0:0:0:0:
396,72,223144,1,8,0:0:0:0:
460,64,223238,1,8,0:0:0:0:
504,112,223332,6,0,L|472:240,1,125.999996154785
208,272,223707,1,8,0:0:0:0:
340,104,223894,1,0,0:0:0:0:
340,104,223988,1,0,0:0:0:0:
340,104,224082,1,0,0:0:0:0:
360,300,224269,1,0,0:0:0:0:
168,88,224457,1,8,0:0:0:0:
52,296,224644,1,0,0:0:0:0:
208,272,224832,6,0,P|268:240|260:180,1,125.999996154785
265,188,225113,1,0,0:0:0:0:
265,188,225207,2,0,L|416:200,1,125.999996154785,8|0,0:0|0:0,0:0:0:0:
412,36,225582,1,0,0:0:0:0:
168,88,225769,1,8,0:0:0:0:
168,88,225957,1,8,0:0:0:0:
208,272,226144,1,0,0:0:0:0:
208,272,226238,1,0,0:0:0:0:
208,272,226332,6,0,P|304:260|380:380,1,251.999992309571,0|8,0:0|0:0,0:0:0:0:
424,208,226894,1,0,0:0:0:0:
412,36,227082,2,0,B|332:72|244:20|244:20,1,188.999994232178,0|0,0:0|0:0,0:0:0:0:
231,12,227457,2,0,L|260:144,1,125.999996154785,8|0,0:0|0:0,0:0:0:0:
208,272,227832,5,0,0:0:0:0:
424,208,228019,1,0,0:0:0:0:
424,208,228113,1,0,0:0:0:0:
424,208,228207,1,8,0:0:0:0:
258,136,228394,1,0,0:0:0:0:
64,148,228582,1,0,0:0:0:0:
208,272,228769,1,8,0:0:0:0:
208,272,228957,1,8,0:0:0:0:
424,208,229144,1,0,0:0:0:0:
424,208,229238,1,0,0:0:0:0:
424,208,229332,6,0,L|460:76,1,125.999996154785
457,86,229707,1,8,0:0:0:0:
258,136,229894,2,0,P|180:184|156:56,1,251.999992309571
336,44,230457,1,8,0:0:0:0:
192,116,230644,1,0,0:0:0:0:
424,208,230832,5,0,0:0:0:0:
248,280,231019,1,0,0:0:0:0:
488,320,231207,1,8,0:0:0:0:
496,136,231394,1,0,0:0:0:0:
496,136,231488,1,0,0:0:0:0:
496,136,231582,1,0,0:0:0:0:
192,116,231769,2,0,L|320:140,2,125.999996154785,8|8|8,0:0|0:0|0:0,0:0:0:0:
100,224,232332,6,0,B|92:308,1,62.9999980773926,8|0,0:0|0:0,0:0:0:0:
186,179,232519,2,0,B|192:117,1,62.9999980773926,0|0,0:0|0:0,0:0:0:0:
248,280,232707,2,0,B|240:364,1,62.9999980773926,8|0,0:0|0:0,0:0:0:0:
352,208,232894,2,0,B|358:146,1,62.9999980773926,0|0,0:0|0:0,0:0:0:0:
412,352,233082,2,0,B|406:289,3,62.9999980773926,8|0|0|0,0:0|0:0|0:0|0:0,0:0:0:0:
296,71,233457,2,0,B|301:8,3,62.9999980773926,8|0|8|0,0:0|0:0|0:0|0:0,0:0:0:0:
215,15,233832,5,8,0:0:0:0:
215,15,233925,1,8,0:0:0:0:
215,15,234019,1,8,0:0:0:0:
215,15,234113,1,8,0:0:0:0:
156,78,234207,1,8,0:0:0:0:
156,78,234300,1,8,0:0:0:0:
156,78,234394,1,8,0:0:0:0:
156,78,234488,1,8,0:0:0:0:
196,155,234582,1,8,0:0:0:0:
196,155,234675,1,8,0:0:0:0:
196,155,234769,1,8,0:0:0:0:
196,155,234863,1,8,0:0:0:0:
151,229,234957,1,8,0:0:0:0:
151,229,235050,1,8,0:0:0:0:
151,229,235144,1,8,0:0:0:0:
151,229,235238,1,8,0:0:0:0:
151,229,235332,6,0,P|212:276|300:212,1,198.000006042481,0|8,0:0|0:0,0:0:0:0:
304,76,235894,1,0,0:0:0:0:
376,200,236082,2,0,L|424:320,1,99.0000030212403,0|0,0:0|0:0,0:0:0:0:
476,168,236457,2,0,L|428:48,1,99.0000030212403,8|0,0:0|0:0,0:0:0:0:
304,76,236832,6,0,P|248:112|180:56,1,148.50000453186
228,180,237207,2,0,P|288:176|348:136,1,99.0000030212403,8|0,0:0|0:0,0:0:0:0:
260,252,237582,1,0,0:0:0:0:
376,200,237769,1,8,0:0:0:0:
476,280,237957,1,8,0:0:0:0:
476,280,238144,1,0,0:0:0:0:
476,280,238238,1,0,0:0:0:0:
476,280,238332,6,0,P|496:224|496:176,1,99.0000030212403
408,88,238707,1,8,0:0:0:0:
376,200,238894,2,0,P|350:146|316:112,1,99.0000030212403
192,112,239269,1,0,0:0:0:0:
176,240,239457,2,0,P|224:232|296:196,1,99.0000030212403,8|0,0:0|0:0,0:0:0:0:
376,200,239832,6,0,L|356:352,1,148.50000453186
448,192,240207,2,0,P|392:129|344:129,1,99.0000030212403,8|0,0:0|0:0,0:0:0:0:
176,240,240582,1,0,0:0:0:0:
176,240,240769,1,8,0:0:0:0:
92,112,240957,1,8,0:0:0:0:
92,112,241144,1,0,0:0:0:0:
92,112,241238,1,0,0:0:0:0:
92,112,241332,6,0,P|160:128|136:40,1,198.000006042481,0|8,0:0|0:0,0:0:0:0:
224,84,241894,2,0,P|288:112|416:104,1,198.000006042481
464,192,242457,2,0,L|440:300,1,99.0000030212403,8|0,0:0|0:0,0:0:0:0:
340,312,242832,5,0,0:0:0:0:
264,216,243019,1,0,0:0:0:0:
144,188,243207,1,8,0:0:0:0:
224,84,243394,1,0,0:0:0:0:
224,84,243488,1,0,0:0:0:0:
224,84,243582,1,0,0:0:0:0:
340,120,243769,1,8,0:0:0:0:
264,216,243957,1,8,0:0:0:0:
340,312,244144,1,8,0:0:0:0:
162,319,244332,6,0,L|212:316,1,49.5000015106202,8|0,0:0|0:0,0:0:0:0:
124,288,244519,1,0,0:0:0:0:
92,256,244613,1,0,0:0:0:0:
59,170,244707,2,0,L|56:220,1,49.5000015106202,8|0,0:0|0:0,0:0:0:0:
88,128,244894,1,0,0:0:0:0:
128,100,244988,1,0,0:0:0:0:
224,83,245082,2,0,L|175:90,1,49.5000015106202,8|0,0:0|0:0,0:0:0:0:
272,64,245269,1,0,0:0:0:0:
320,52,245363,1,0,0:0:0:0:
415,65,245457,2,0,L|368:52,1,49.5000015106202,8|0,0:0|0:0,0:0:0:0:
456,92,245644,6,0,P|464:148|348:188,1,198.000006042481,8|0,0:0|0:0,0:0:0:0:
272,64,246207,1,8,0:0:0:0:
392,128,246394,1,8,0:0:0:0:
436,252,246582,1,8,0:0:0:0:
392,276,246675,1,8,0:0:0:0:
344,280,246769,1,8,0:0:0:0:
296,268,246863,1,8,0:0:0:0:
192,244,246957,1,8,0:0:0:0:
144,236,247050,1,8,0:0:0:0:
96,228,247144,1,8,0:0:0:0:
48,228,247238,1,8,0:0:0:0:
101,91,247332,6,0,P|173:119|277:55,1,198.000006042481,0|8,0:0|0:0,0:0:0:0:
392,128,247894,1,0,0:0:0:0:
296,268,248082,2,0,L|304:160,1,99.0000030212403
212,56,248457,2,0,L|204:164,1,99.0000030212403,8|0,0:0|0:0,0:0:0:0:
80,260,248832,6,0,P|152:272|196:196,1,148.50000453186
104,112,249207,2,0,L|133:230,1,99.0000030212403,8|0,0:0|0:0,0:0:0:0:
408,336,249582,1,0,0:0:0:0:
296,268,249769,1,8,0:0:0:0:
388,204,249957,1,8,0:0:0:0:
320,124,250144,1,0,0:0:0:0:
320,124,250238,1,0,0:0:0:0:
320,124,250332,6,0,P|208:96|208:28,1,198.000006042481,0|8,0:0|0:0,0:0:0:0:
80,120,250894,1,0,0:0:0:0:
88,276,251082,2,0,P|136:244|216:280,1,148.50000453186
136,176,251457,2,0,P|98:186|44:224,1,99.0000030212403,8|0,0:0|0:0,0:0:0:0:
427,147,251832,5,0,0:0:0:0:
344,280,252019,2,0,L|336:352,2,49.5000015106202,0|0|8,0:0|0:0|0:0,0:0:0:0:
320,124,252394,1,0,0:0:0:0:
213,276,252582,2,0,L|313:212,1,99.0000030212403,0|8,0:0|0:0,0:0:0:0:
404,71,252957,2,0,L|304:135,1,99.0000030212403,8|0,0:0|0:0,0:0:0:0:
184,168,253332,6,0,P|128:184|120:76,1,198.000006042481,0|8,0:0|0:0,0:0:0:0:
232,92,253894,2,0,P|288:108|296:0,1,198.000006042481
296,132,254457,1,8,0:0:0:0:
276,260,254644,1,0,0:0:0:0:
472,196,254832,6,0,L|344:204,1,99.0000030212403
276,260,255207,1,8,0:0:0:0:
276,260,255394,1,0,0:0:0:0:
112,272,255582,1,0,0:0:0:0:
84,116,255769,1,8,0:0:0:0:
192,188,255957,1,8,0:0:0:0:
224,40,256144,1,8,0:0:0:0:
258,136,256332,6,0,B|265:163|265:163|260:192,1,49.5000015106202,8|0,0:0|0:0,0:0:0:0:
324,72,256519,2,0,B|317:46|317:46|321:14,1,49.5000015106202
388,216,256707,2,0,B|396:242|396:242|392:276,1,49.5000015106202,8|0,0:0|0:0,0:0:0:0:
276,260,256894,1,0,0:0:0:0:
248,288,256988,1,0,0:0:0:0:
231,218,257082,2,0,P|209:205|185:175,1,49.5000015106202,8|0,0:0|0:0,0:0:0:0:
84,116,257269,2,0,P|105:128|129:156,1,49.5000015106202
186,68,257457,2,0,P|210:58|228:27,1,49.5000015106202,8|0,0:0|0:0,0:0:0:0:
364,100,257644,2,0,P|347:81|324:72,1,49.5000015106202,8|0,0:0|0:0,0:0:0:0:
380,192,257832,5,8,0:0:0:0:
346,225,257925,1,8,0:0:0:0:
295,223,258019,1,8,0:0:0:0:
257,195,258113,1,8,0:0:0:0:
220,164,258207,1,8,0:0:0:0:
172,151,258300,1,8,0:0:0:0:
135,181,258394,1,8,0:0:0:0:
123,228,258488,1,8,0:0:0:0:
149,265,258582,1,8,0:0:0:0:
188,288,258675,1,8,0:0:0:0:
236,284,258769,1,8,0:0:0:0:
251,241,258863,1,8,0:0:0:0:
257,195,258957,1,8,0:0:0:0:
284,152,259050,1,8,0:0:0:0:
316,112,259144,1,8,0:0:0:0:
364,100,259238,1,8,0:0:0:0:
408,112,259332,1,8,0:0:0:0:
