osu file format v14

[General]
AudioFilename: senyaaa.mp3
AudioLeadIn: 0
PreviewTime: 41538
Countdown: 0
SampleSet: Soft
StackLeniency: 0.4
Mode: 0
LetterboxInBreaks: 0
WidescreenStoryboard: 0

[Editor]
DistanceSpacing: 1
BeatDivisor: 4
GridSize: 32
TimelineZoom: 1.6

[Metadata]
Title:Tokuiten no Kaibutsuteki Kanjou
TitleUnicode:特異点の怪物的感情
Artist:senya
ArtistUnicode:senya
Creator:Satellite
Version:Singularity
Source:東方Project
Tags:Delis ShiraKai Kacha jonathanlfj yuuhei 夜空のユーフォーロマンス UFO Romance in the Night Sky 東方星蓮船 Undefined Fantastic Object EX Stage theme 平安のエイリアン Heian Alien 封獣ぬえ Nue Houjuu かませ虎 kamase-tora HiZuMi 幽閉サテライト Autumn Reitaisai2 touhou dagger-gazel
BeatmapID:812028
BeatmapSetID:370545

[Difficulty]
HPDrainRate:7
CircleSize:4
OverallDifficulty:8
ApproachRate:9
SliderMultiplier:1.7
SliderTickRate:1

[Events]
//Background and Video events
0,0,"nuee.jpg",0,0
//Break Periods
2,141834,147188
//Storyboard Layer 0 (Background)
//Storyboard Layer 1 (Fail)
//Storyboard Layer 2 (Pass)
//Storyboard Layer 3 (Foreground)
//Storyboard Sound Samples

[TimingPoints]
96,384.615384615385,4,1,0,100,1,0
3172,-133.333333333333,4,2,1,50,0,0
9326,-100,4,2,1,70,0,0
15480,-100,4,2,1,60,0,0
33942,-100,4,2,1,70,0,0
39999,-133.333333333333,4,2,1,60,0,0
41634,-100,4,2,1,70,0,1
41826,-100,4,2,1,70,0,0
53942,-100,4,2,1,70,0,1
54134,-100,4,2,1,70,0,0
66249,-100,4,2,1,60,0,0
84711,-100,4,2,1,70,0,0
90865,-133.333333333333,4,2,1,70,0,0
92403,-100,4,2,1,70,0,1
92596,-100,4,2,1,70,0,0
104711,-100,4,2,1,70,0,1
104903,-100,4,2,1,70,0,0
135480,-133.333333333333,4,2,1,70,0,0
136634,-100,4,2,1,70,0,0
147788,-133.333333333333,4,2,1,70,0,0
155865,-100,4,2,1,70,0,0
156249,384.615384615385,4,2,1,80,1,1
168364,-100,4,2,1,80,0,0
168556,-100,4,2,1,80,0,1
179902,-100,4,2,1,80,0,0
180095,-100,4,2,1,5,0,0

[Colours]
Combo1 : 128,128,255
Combo2 : 128,0,64
Combo3 : 0,255,255
Combo4 : 255,0,128

[HitObjects]
136,136,3172,6,0,L|264:144,1,127.500004863739,4|2,0:0|0:0,0:0:0:0:
274,138,3942,2,0,L|279:205,1,63.7500024318696,2|0,0:0|0:0,0:0:0:0:
342,263,4326,2,0,L|337:330,1,63.7500024318696,2|0,0:0|0:0,0:0:0:0:
256,288,4711,1,2,0:0:0:0:
358,182,4903,1,0,0:0:0:0:
427,239,5096,2,0,L|432:306,1,63.7500024318696,2|0,0:0|0:0,0:0:0:0:
278,201,5480,2,0,L|282:137,1,63.7500024318696,2|0,0:0|0:0,0:0:0:0:
358,182,5865,1,2,0:0:0:0:
256,288,6057,1,0,0:0:0:0:
192,225,6249,6,0,P|183:191|182:158,1,63.7500024318696,2|0,0:0|0:0,0:0:0:0:
213,65,6634,1,2,0:0:0:0:
236,68,6730,1,2,0:0:0:0:
260,72,6826,1,2,0:0:0:0:
284,76,6922,1,2,0:0:0:0:
308,80,7019,1,2,0:0:0:0:
299,319,7403,1,2,0:0:0:0:
276,316,7499,1,2,0:0:0:0:
252,312,7596,1,2,0:0:0:0:
228,308,7692,1,2,0:0:0:0:
204,304,7788,6,0,L|76:328,2,127.500004863739,2|2|2,0:0|0:0|0:0,0:0:0:0:
346,239,8749,1,2,0:0:0:0:
144,133,8942,2,0,L|139:210,1,63.7500024318696,2|2,0:0|0:0,0:0:0:0:
296,376,9326,5,4,0:0:0:0:
216,8,10865,1,4,0:0:0:0:
72,232,12403,5,4,0:0:0:0:
256,192,13172,1,4,0:0:0:0:
440,151,13942,5,4,0:0:0:0:
128,53,14230,1,4,0:0:0:0:
198,371,14519,1,4,0:0:0:0:
256,192,14711,5,2,0:0:0:0:
232,181,14807,1,2,0:0:0:0:
206,177,14903,1,2,0:0:0:0:
180,178,14999,1,2,0:0:0:0:
155,186,15096,1,2,0:0:0:0:
130,193,15192,1,2,0:0:0:0:
104,195,15288,1,2,0:0:0:0:
78,191,15384,1,2,0:0:0:0:
55,178,15480,6,0,P|29:138|42:60,1,127.5,4|0,0:0|0:0,0:0:0:0:
115,30,15865,1,8,0:0:0:0:
180,178,16057,1,2,0:0:0:0:
180,178,16153,1,2,0:0:0:0:
180,178,16249,2,0,L|176:267,1,85,0|2,0:0|0:0,0:0:0:0:
114,109,16634,2,0,P|152:86|196:84,1,85,8|2,0:0|0:0,0:0:0:0:
335,262,17019,5,4,0:0:0:0:
267,141,17211,1,2,0:0:0:0:
267,141,17307,1,2,0:0:0:0:
267,141,17403,2,0,L|270:56,1,85,8|2,0:0|0:0,0:0:0:0:
351,174,17788,1,4,0:0:0:0:
230,242,17980,1,2,0:0:0:0:
230,242,18076,1,2,0:0:0:0:
230,242,18172,2,0,L|145:238,1,85,8|2,0:0|0:0,0:0:0:0:
104,252,18461,1,2,0:0:0:0:
63,240,18557,6,0,P|51:190|51:157,1,85,4|2,0:0|0:0,0:0:0:0:
195,65,18942,2,0,P|207:115|207:148,1,85,8|2,0:0|0:0,0:0:0:0:
206,148,19230,1,2,0:0:0:0:
206,148,19326,1,4,0:0:0:0:
107,85,19519,1,2,0:0:0:0:
283,45,19711,1,14,0:0:0:0:
260,262,19903,5,2,0:0:0:0:
260,262,19999,1,2,0:0:0:0:
260,262,20096,2,0,L|176:259,1,85,4|0,0:0|0:0,0:0:0:0:
283,121,20480,1,8,0:0:0:0:
386,180,20672,1,2,0:0:0:0:
386,180,20769,1,2,0:0:0:0:
386,180,20865,2,0,L|381:274,1,85,4|10,0:0|0:0,0:0:0:0:
283,121,21249,2,0,P|316:80|390:57,1,127.5,12|0,0:0|0:0,0:0:0:0:
461,96,21634,6,0,L|296:84,1,127.5,4|0,0:0|0:0,0:0:0:0:
266,33,22019,2,0,L|179:45,1,85,8|2,0:0|0:0,0:0:0:0:
134,257,22403,1,4,0:0:0:0:
110,139,22596,1,2,0:0:0:0:
110,139,22692,1,2,0:0:0:0:
110,139,22788,2,0,L|202:151,1,85,8|2,0:0|0:0,0:0:0:0:
236,142,23076,1,2,0:0:0:0:
275,158,23172,6,0,P|284:202|281:246,1,85,4|2,0:0|0:0,0:0:0:0:
140,340,23557,2,0,P|131:296|134:252,1,85,8|2,0:0|0:0,0:0:0:0:
267,361,23942,1,4,0:0:0:0:
378,209,24134,1,2,0:0:0:0:
378,209,24230,1,2,0:0:0:0:
378,209,24326,2,0,P|335:162|266:161,1,127.5,8|0,0:0|0:0,0:0:0:0:
300,239,24711,6,0,L|322:109,2,127.5,4|2|2,0:0|0:0|0:0,0:0:0:0:
135,141,25480,2,0,L|222:127,1,85,4|0,0:0|0:0,0:0:0:0:
383,252,25865,2,0,L|296:238,1,85,8|0,0:0|0:0,0:0:0:0:
440,151,26249,5,4,0:0:0:0:
198,371,26538,1,4,0:0:0:0:
128,53,26826,1,4,0:0:0:0:
256,192,27019,5,2,0:0:0:0:
160,212,27211,1,2,0:0:0:0:
286,99,27403,1,2,0:0:0:0:
321,264,27596,1,2,0:0:0:0:
160,212,27788,6,0,P|200:182|277:194,1,127.5,4|0,0:0|0:0,0:0:0:0:
321,264,28172,2,0,L|313:348,1,85,8|8,0:0|0:0,0:0:0:0:
231,268,28557,1,0,0:0:0:0:
392,198,28749,1,2,0:0:0:0:
392,198,28846,1,2,0:0:0:0:
392,198,28942,2,0,L|400:281,1,85,8|2,0:0|0:0,0:0:0:0:
303,177,29326,6,0,P|324:136|407:108,2,127.5,4|2|2,0:0|0:0|0:0,0:0:0:0:
411,292,30096,1,0,0:0:0:0:
231,268,30288,1,8,0:0:0:0:
392,198,30480,1,10,0:0:0:0:
250,362,30672,1,2,0:0:0:0:
136,260,30865,6,0,P|109:197|148:119,1,127.5,4|0,0:0|0:0,0:0:0:0:
185,83,31249,1,8,0:0:0:0:
284,187,31442,1,2,0:0:0:0:
284,187,31538,1,2,0:0:0:0:
284,187,31634,2,0,L|199:194,1,85,4|0,0:0|0:0,0:0:0:0:
299,68,32019,1,8,0:0:0:0:
389,145,32211,5,2,0:0:0:0:
389,145,32307,1,2,0:0:0:0:
389,145,32403,2,0,L|376:323,1,170,4|0,0:0|0:0,0:0:0:0:
123,239,32980,2,0,L|136:61,1,170,4|2,0:0|0:0,0:0:0:0:
256,196,33557,1,8,0:0:0:0:
180,352,33749,5,2,0:0:0:0:
180,352,33846,1,2,0:0:0:0:
180,352,33942,2,0,L|134:360,3,42.5,4|0|2|0,0:0|0:0|0:0|0:0,0:0:0:0:
261,303,34326,2,0,L|307:311,3,42.5,8|0|2|0,0:0|0:0|0:0|0:0,0:0:0:0:
115,275,34711,5,2,0:0:0:0:
100,245,34807,1,2,0:0:0:0:
97,212,34903,1,2,0:0:0:0:
105,179,34999,1,2,0:0:0:0:
126,152,35096,2,0,L|120:99,3,42.5,14|2|0|0,0:0|0:0|0:0|0:0,0:0:0:0:
212,225,35480,5,2,0:0:0:0:
243,237,35576,1,2,0:0:0:0:
276,237,35672,1,2,0:0:0:0:
308,225,35769,1,2,0:0:0:0:
331,200,35865,2,0,L|329:155,1,42.5,10|2,0:0|0:0,0:0:0:0:
255,117,36057,2,0,L|256:159,1,42.5,2|2,0:0|0:0,0:0:0:0:
271,357,36249,5,2,0:0:0:0:
271,357,36346,1,2,0:0:0:0:
271,357,36442,1,2,0:0:0:0:
271,357,36538,1,2,0:0:0:0:
271,357,36634,2,0,L|318:348,1,42.5,14|2,0:0|0:0,0:0:0:0:
359,278,36826,2,0,L|406:287,1,42.5,2|2,0:0|0:0,0:0:0:0:
486,350,37019,6,0,L|495:225,1,85,4|2,0:0|0:0,0:0:0:0:
476,225,37307,1,0,0:0:0:0:
457,186,37403,2,0,L|462:101,1,85,12|2,0:0|0:0,0:0:0:0:
359,278,37788,1,2,0:0:0:0:
325,281,37884,1,2,0:0:0:0:
292,271,37980,1,2,0:0:0:0:
265,251,38076,1,2,0:0:0:0:
247,223,38172,2,0,L|251:171,1,42.5,12|2,0:0|0:0,0:0:0:0:
331,152,38365,2,0,L|327:194,1,42.5,2|2,0:0|0:0,0:0:0:0:
309,366,38557,5,4,0:0:0:0:
78,150,38846,1,4,0:0:0:0:
380,59,39134,1,4,0:0:0:0:
256,196,39326,6,0,P|236:192|212:184,7,42.5,6|2|2|2|2|2|2|2,0:0|0:0|0:0|0:0|0:0|0:0|0:0|0:0,0:0:0:0:
256,120,40096,6,0,B|268:184|240:184|256:250,1,127.500004863739,4|2,0:0|0:0,0:0:0:0:
312,316,40672,1,2,0:0:0:0:
312,316,40769,1,2,0:0:0:0:
312,316,40865,2,0,P|296:280|160:272,1,191.250007295609,6|0,0:0|0:0,0:0:0:0:
350,115,41634,5,14,0:0:0:0:
226,331,41826,1,2,0:0:0:0:
226,331,41922,1,2,0:0:0:0:
226,331,42019,1,8,0:0:0:0:
200,68,42211,1,2,0:0:0:0:
308,210,42403,2,0,P|345:220|390:213,1,85,6|2,0:0|0:0,0:0:0:0:
427,190,42692,1,2,0:0:0:0:
444,151,42788,2,0,L|448:67,1,85,12|2,0:0|0:0,0:0:0:0:
221,246,43172,6,0,L|225:330,1,85,6|2,0:0|0:0,0:0:0:0:
226,331,43461,1,2,0:0:0:0:
226,331,43557,1,8,0:0:0:0:
350,115,43749,1,2,0:0:0:0:
141,200,43942,1,6,0:0:0:0:
98,205,44038,1,2,0:0:0:0:
58,190,44134,1,2,0:0:0:0:
32,156,44230,1,2,0:0:0:0:
23,114,44326,2,0,L|27:67,1,42.5,12|2,0:0|0:0,0:0:0:0:
115,81,44519,2,0,L|111:123,1,42.5,2|2,0:0|0:0,0:0:0:0:
88,328,44711,5,6,0:0:0:0:
332,283,44903,1,2,0:0:0:0:
332,283,44999,1,2,0:0:0:0:
332,283,45096,1,8,0:0:0:0:
179,262,45288,1,2,0:0:0:0:
397,375,45480,1,6,0:0:0:0:
434,110,45672,1,2,0:0:0:0:
434,110,45769,1,2,0:0:0:0:
434,110,45865,2,0,L|345:115,1,85,12|2,0:0|0:0,0:0:0:0:
78,274,46249,6,0,L|167:269,1,85,6|2,0:0|0:0,0:0:0:0:
162,269,46538,1,0,0:0:0:0:
162,269,46634,1,8,0:0:0:0:
57,136,46826,1,2,0:0:0:0:
258,28,47019,1,6,0:0:0:0:
287,58,47115,1,2,0:0:0:0:
300,98,47211,1,2,0:0:0:0:
297,140,47307,1,2,0:0:0:0:
280,179,47403,2,0,L|234:188,1,42.5,12|2,0:0|0:0,0:0:0:0:
159,117,47596,2,0,L|201:109,1,42.5,2|2,0:0|0:0,0:0:0:0:
399,67,47788,5,4,0:0:0:0:
445,315,47980,1,2,0:0:0:0:
445,315,48076,1,2,0:0:0:0:
445,315,48172,1,8,0:0:0:0:
508,43,48365,1,2,0:0:0:0:
352,240,48557,2,0,P|310:236|267:213,1,85,6|2,0:0|0:0,0:0:0:0:
238,187,48846,1,2,0:0:0:0:
219,148,48942,2,0,L|212:58,1,85,8|2,0:0|0:0,0:0:0:0:
339,131,49326,5,4,0:0:0:0:
140,218,49519,1,2,0:0:0:0:
140,218,49615,1,2,0:0:0:0:
140,218,49711,2,0,L|53:203,1,85,8|2,0:0|0:0,0:0:0:0:
253,355,50096,1,6,0:0:0:0:
287,329,50192,1,2,0:0:0:0:
307,291,50288,1,2,0:0:0:0:
314,249,50384,1,2,0:0:0:0:
306,207,50480,1,12,0:0:0:0:
201,251,50672,1,2,0:0:0:0:
423,331,50865,6,0,P|435:281|435:240,1,85,4|2,0:0|0:0,0:0:0:0:
422,207,51153,1,0,0:0:0:0:
408,166,51249,2,0,P|409:123|420:82,1,85,8|2,0:0|0:0,0:0:0:0:
209,48,51634,5,4,0:0:0:0:
306,207,51826,1,2,0:0:0:0:
306,207,51922,1,0,0:0:0:0:
306,207,52019,1,8,0:0:0:0:
338,8,52211,1,2,0:0:0:0:
53,176,52403,5,4,0:0:0:0:
341,339,52692,1,4,0:0:0:0:
338,8,52980,1,4,0:0:0:0:
256,192,53172,5,2,0:0:0:0:
280,203,53269,1,2,0:0:0:0:
306,207,53365,1,2,0:0:0:0:
332,206,53461,1,2,0:0:0:0:
357,198,53557,1,2,0:0:0:0:
382,191,53653,1,2,0:0:0:0:
408,189,53749,1,2,0:0:0:0:
434,193,53846,1,2,0:0:0:0:
457,206,53942,6,0,P|483:246|470:324,1,127.5,4|2,0:0|0:0,0:0:0:0:
397,354,54326,1,8,0:0:0:0:
332,206,54519,1,2,0:0:0:0:
332,206,54615,1,2,0:0:0:0:
332,206,54711,2,0,L|336:117,1,85,4|2,0:0|0:0,0:0:0:0:
398,275,55096,2,0,P|360:298|316:300,1,85,8|2,0:0|0:0,0:0:0:0:
86,178,55480,5,4,0:0:0:0:
263,54,55672,1,2,0:0:0:0:
263,54,55769,1,2,0:0:0:0:
263,54,55865,1,8,0:0:0:0:
216,223,56057,1,2,0:0:0:0:
126,32,56249,1,2,0:0:0:0:
92,59,56346,1,2,0:0:0:0:
73,97,56442,1,2,0:0:0:0:
71,139,56538,1,2,0:0:0:0:
86,178,56634,2,0,L|130:192,1,42.5,12|2,0:0|0:0,0:0:0:0:
206,131,56826,2,0,L|165:118,1,42.5,2|2,0:0|0:0,0:0:0:0:
6,237,57019,6,0,P|11:284|28:320,1,85,6|2,0:0|0:0,0:0:0:0:
59,344,57307,1,2,0:0:0:0:
99,356,57403,2,0,L|190:349,1,85,8|2,0:0|0:0,0:0:0:0:
385,271,57788,1,6,0:0:0:0:
258,144,57980,1,2,0:0:0:0:
258,144,58076,1,2,0:0:0:0:
258,144,58172,2,0,L|252:228,1,85,8|2,0:0|0:0,0:0:0:0:
431,362,58557,6,0,P|463:337|481:295,1,85,6|2,0:0|0:0,0:0:0:0:
483,254,58846,1,2,0:0:0:0:
471,213,58942,2,0,L|465:129,1,85,8|2,0:0|0:0,0:0:0:0:
177,172,59326,1,2,0:0:0:0:
200,206,59422,1,2,0:0:0:0:
237,226,59519,1,2,0:0:0:0:
279,225,59615,1,2,0:0:0:0:
316,205,59711,1,12,0:0:0:0:
338,169,59807,1,2,0:0:0:0:
341,127,59903,1,2,0:0:0:0:
323,89,59999,1,2,0:0:0:0:
289,64,60096,6,0,L|203:70,1,85,6|0,0:0|0:0,0:0:0:0:
115,31,60384,2,0,L|120:117,1,85,6|0,0:0|0:0,0:0:0:0:
208,202,60672,2,0,L|204:159,1,42.5,2|0,0:0|0:0,0:0:0:0:
44,180,60865,6,0,L|38:266,1,85,6|0,0:0|0:0,0:0:0:0:
0,355,61153,2,0,L|86:360,1,85,6|0,0:0|0:0,0:0:0:0:
182,284,61442,2,0,L|139:280,1,42.5,6|0,0:0|0:0,0:0:0:0:
256,368,61634,5,6,0:0:0:0:
346,240,61826,1,2,0:0:0:0:
346,240,61922,1,2,0:0:0:0:
346,240,62019,2,0,P|350:198|338:150,1,85,8|2,0:0|0:0,0:0:0:0:
123,184,62403,1,2,0:0:0:0:
126,226,62499,1,2,0:0:0:0:
146,263,62596,1,2,0:0:0:0:
182,284,62692,1,2,0:0:0:0:
224,288,62788,2,0,L|266:273,1,42.5,12|2,0:0|0:0,0:0:0:0:
248,187,62980,2,0,L|208:202,1,42.5,2|2,0:0|0:0,0:0:0:0:
48,260,63172,5,6,0:0:0:0:
256,368,63365,1,2,0:0:0:0:
256,368,63461,1,2,0:0:0:0:
256,368,63557,1,8,0:0:0:0:
123,184,63749,1,2,0:0:0:0:
264,256,63942,1,6,0:0:0:0:
278,216,64038,1,2,0:0:0:0:
281,173,64134,1,2,0:0:0:0:
272,131,64230,1,2,0:0:0:0:
253,92,64326,1,14,0:0:0:0:
154,297,64519,1,2,0:0:0:0:
107,26,64711,5,4,0:0:0:0:
444,137,64999,1,4,0:0:0:0:
209,382,65288,1,4,0:0:0:0:
236,188,65480,6,0,P|255:189|279:195,7,42.5,2|2|2|2|2|2|2|2,0:0|0:0|0:0|0:0|0:0|0:0|0:0|0:0,0:0:0:0:
345,245,66249,6,0,P|309:271|228:264,1,127.5,4|0,0:0|0:0,0:0:0:0:
164,208,66634,1,8,0:0:0:0:
283,109,66826,1,2,0:0:0:0:
283,109,66922,1,2,0:0:0:0:
283,109,67019,2,0,L|277:194,1,85,4|2,0:0|0:0,0:0:0:0:
184,341,67403,1,8,0:0:0:0:
90,155,67596,5,2,0:0:0:0:
90,155,67692,1,2,0:0:0:0:
90,155,67788,2,0,P|125:125|215:135,1,127.5,4|0,0:0|0:0,0:0:0:0:
283,109,68172,2,0,P|290:63|282:22,1,85,8|2,0:0|0:0,0:0:0:0:
164,208,68557,1,4,0:0:0:0:
338,164,68749,1,2,0:0:0:0:
338,164,68846,1,2,0:0:0:0:
338,164,68942,2,0,P|385:158|426:166,1,85,8|2,0:0|0:0,0:0:0:0:
266,261,69326,5,4,0:0:0:0:
183,127,69519,1,2,0:0:0:0:
183,127,69615,1,2,0:0:0:0:
183,127,69711,2,0,L|189:37,1,85,8|2,0:0|0:0,0:0:0:0:
266,261,70096,2,0,P|225:284|185:289,1,85,4|2,0:0|0:0,0:0:0:0:
187,289,70384,1,2,0:0:0:0:
187,289,70480,1,8,0:0:0:0:
283,109,70672,1,2,0:0:0:0:
367,201,70865,5,6,0:0:0:0:
256,192,71249,1,2,0:0:0:0:
145,183,71634,1,2,0:0:0:0:
136,188,72403,6,0,L|253:177,1,85,4|2,0:0|0:0,0:0:0:0:
220,180,72692,1,2,0:0:0:0:
220,180,72788,1,8,0:0:0:0:
78,87,72980,1,2,0:0:0:0:
34,272,73172,2,0,P|68:304|114:316,1,85,4|2,0:0|0:0,0:0:0:0:
145,306,73461,1,2,0:0:0:0:
182,285,73557,2,0,L|269:289,1,85,8|2,0:0|0:0,0:0:0:0:
452,347,73942,6,0,L|368:351,1,85,4|2,0:0|0:0,0:0:0:0:
368,351,74230,1,2,0:0:0:0:
368,351,74326,1,8,0:0:0:0:
485,187,74519,1,2,0:0:0:0:
485,187,74615,1,2,0:0:0:0:
485,187,74711,2,0,P|498:227|498:269,1,85,4|2,0:0|0:0,0:0:0:0:
395,138,75096,2,0,P|423:106|460:86,1,85,12|2,0:0|0:0,0:0:0:0:
399,243,75480,6,0,P|345:229|296:178,2,127.5,4|2|2,0:0|0:0|0:0,0:0:0:0:
302,93,76249,2,0,L|296:178,1,85,4|2,0:0|0:0,0:0:0:0:
404,327,76634,2,0,L|398:241,1,85,12|2,0:0|0:0,0:0:0:0:
380,36,77019,5,4,0:0:0:0:
58,162,77307,1,4,0:0:0:0:
329,377,77596,1,4,0:0:0:0:
256,192,77788,5,2,0:0:0:0:
195,269,77980,1,2,0:0:0:0:
352,205,78172,1,2,0:0:0:0:
219,101,78365,1,2,0:0:0:0:
195,269,78557,6,0,P|236:296|312:278,1,127.5,4|0,0:0|0:0,0:0:0:0:
352,205,78942,2,0,L|338:121,1,85,8|2,0:0|0:0,0:0:0:0:
256,192,79326,1,0,0:0:0:0:
432,256,79519,1,2,0:0:0:0:
432,256,79615,1,2,0:0:0:0:
432,256,79711,2,0,L|440:172,1,85,8|2,0:0|0:0,0:0:0:0:
349,295,80096,6,0,P|380:335|457:347,2,127.5,4|2|2,0:0|0:0|0:0,0:0:0:0:
440,172,80865,1,0,0:0:0:0:
262,263,81057,1,2,0:0:0:0:
432,256,81249,1,8,0:0:0:0:
237,183,81442,1,2,0:0:0:0:
446,89,81634,6,0,P|451:131|440:171,1,85,6|2,0:0|0:0,0:0:0:0:
412,203,81922,1,2,0:0:0:0:
371,217,82019,2,0,L|278:210,1,85,8|2,0:0|0:0,0:0:0:0:
123,239,82403,1,4,0:0:0:0:
254,115,82596,1,2,0:0:0:0:
254,115,82692,1,0,0:0:0:0:
254,115,82788,1,8,0:0:0:0:
300,319,82980,1,2,0:0:0:0:
123,239,83172,6,0,L|136:61,1,170,4|0,0:0|0:0,0:0:0:0:
389,145,83749,2,0,L|376:323,1,170,4|2,0:0|0:0,0:0:0:0:
256,188,84326,1,8,0:0:0:0:
332,32,84519,5,2,0:0:0:0:
332,32,84615,1,2,0:0:0:0:
332,32,84711,2,0,L|378:24,3,42.5,4|0|2|0,0:0|0:0|0:0|0:0,0:0:0:0:
251,81,85096,2,0,L|205:73,3,42.5,8|0|2|0,0:0|0:0|0:0|0:0,0:0:0:0:
397,109,85480,5,2,0:0:0:0:
412,139,85576,1,2,0:0:0:0:
415,172,85672,1,2,0:0:0:0:
407,205,85769,1,2,0:0:0:0:
386,232,85865,2,0,L|339:244,1,42.5,14|2,0:0|0:0,0:0:0:0:
280,175,86057,2,0,L|321:164,1,42.5,2|2,0:0|0:0,0:0:0:0:
388,319,86249,5,2,0:0:0:0:
355,329,86346,1,2,0:0:0:0:
321,325,86442,1,2,0:0:0:0:
290,310,86538,1,2,0:0:0:0:
267,284,86634,1,10,0:0:0:0:
236,269,86730,1,2,0:0:0:0:
202,265,86826,1,2,0:0:0:0:
169,275,86922,1,2,0:0:0:0:
144,299,87019,5,2,0:0:0:0:
117,278,87115,1,2,0:0:0:0:
97,250,87211,1,2,0:0:0:0:
87,218,87307,1,2,0:0:0:0:
87,184,87403,1,10,0:0:0:0:
98,152,87499,1,2,0:0:0:0:
118,125,87596,1,2,0:0:0:0:
145,105,87692,1,2,0:0:0:0:
177,94,87788,5,6,0:0:0:0:
333,158,87980,1,2,0:0:0:0:
333,158,88076,1,2,0:0:0:0:
333,158,88172,1,10,0:0:0:0:
202,265,88365,1,2,0:0:0:0:
177,94,88557,5,2,0:0:0:0:
211,91,88653,1,2,0:0:0:0:
244,101,88749,1,2,0:0:0:0:
271,121,88846,1,2,0:0:0:0:
289,149,88942,2,0,L|292:202,1,42.5,12|2,0:0|0:0,0:0:0:0:
207,219,89134,2,0,L|205:177,1,42.5,2|2,0:0|0:0,0:0:0:0:
203,18,89326,5,4,0:0:0:0:
434,234,89615,1,4,0:0:0:0:
132,325,89903,1,4,0:0:0:0:
256,188,90096,6,0,P|276:192|300:200,7,42.5,6|2|2|2|2|2|2|2,0:0|0:0|0:0|0:0|0:0|0:0|0:0|0:0,0:0:0:0:
256,264,90865,6,0,B|244:200|272:200|256:134,1,127.500004863739,4|2,0:0|0:0,0:0:0:0:
200,68,91442,1,2,0:0:0:0:
200,68,91538,1,2,0:0:0:0:
200,68,91634,2,0,P|216:104|352:112,1,191.250007295609,6|0,0:0|0:0,0:0:0:0:
162,269,92403,5,14,0:0:0:0:
286,53,92596,1,2,0:0:0:0:
286,53,92692,1,2,0:0:0:0:
286,53,92788,1,8,0:0:0:0:
312,316,92980,1,2,0:0:0:0:
204,174,93172,2,0,P|167:164|122:171,1,85,6|2,0:0|0:0,0:0:0:0:
121,171,93461,1,2,0:0:0:0:
121,171,93557,1,8,0:0:0:0:
260,244,93749,1,2,0:0:0:0:
286,53,93942,5,4,0:0:0:0:
162,269,94134,1,2,0:0:0:0:
162,269,94230,1,2,0:0:0:0:
162,269,94326,1,8,0:0:0:0:
200,68,94519,1,2,0:0:0:0:
308,210,94711,1,2,0:0:0:0:
346,228,94807,1,2,0:0:0:0:
388,226,94903,1,2,0:0:0:0:
424,204,94999,1,2,0:0:0:0:
444,166,95096,2,0,L|448:121,1,42.5,8|2,0:0|0:0,0:0:0:0:
365,98,95288,2,0,L|362:141,1,42.5,2|2,0:0|0:0,0:0:0:0:
342,318,95480,5,6,0:0:0:0:
223,201,95672,1,2,0:0:0:0:
223,201,95769,1,2,0:0:0:0:
223,201,95865,2,0,L|308:210,1,85,8|2,0:0|0:0,0:0:0:0:
202,366,96249,1,6,0:0:0:0:
72,263,96442,1,2,0:0:0:0:
72,263,96538,1,2,0:0:0:0:
72,263,96634,1,8,0:0:0:0:
169,280,96826,1,2,0:0:0:0:
8,338,97019,6,0,B|-6:295|-6:295|-1:213,1,127.5,6|0,0:0|0:0,0:0:0:0:
6,171,97403,1,8,0:0:0:0:
105,354,97596,1,2,0:0:0:0:
266,299,97788,1,2,0:0:0:0:
291,264,97884,1,2,0:0:0:0:
301,222,97980,1,2,0:0:0:0:
300,179,98076,1,2,0:0:0:0:
286,138,98172,1,8,0:0:0:0:
189,207,98365,1,2,0:0:0:0:
407,354,98557,5,6,0:0:0:0:
455,51,98749,1,2,0:0:0:0:
455,51,98846,1,2,0:0:0:0:
455,51,98942,2,0,L|362:40,1,85,8|2,0:0|0:0,0:0:0:0:
189,207,99326,1,6,0:0:0:0:
427,245,99519,1,2,0:0:0:0:
427,245,99615,1,2,0:0:0:0:
427,245,99711,2,0,L|438:159,1,85,8|2,0:0|0:0,0:0:0:0:
189,207,100096,6,0,L|199:291,1,85,6|2,0:0|0:0,0:0:0:0:
199,291,100384,1,2,0:0:0:0:
199,291,100480,1,8,0:0:0:0:
254,120,100672,1,2,0:0:0:0:
77,159,100865,1,2,0:0:0:0:
56,196,100961,1,2,0:0:0:0:
49,237,101057,1,2,0:0:0:0:
55,278,101153,1,2,0:0:0:0:
73,316,101249,1,8,0:0:0:0:
274,239,101442,1,2,0:0:0:0:
151,183,101634,6,0,L|163:325,1,127.5,6|2,0:0|0:0,0:0:0:0:
167,352,102019,1,8,0:0:0:0:
274,239,102211,1,2,0:0:0:0:
274,239,102307,1,2,0:0:0:0:
274,239,102403,2,0,L|369:244,1,85,6|2,0:0|0:0,0:0:0:0:
204,76,102788,1,12,0:0:0:0:
167,352,102980,1,2,0:0:0:0:
435,159,103172,5,4,0:0:0:0:
134,23,103461,1,4,0:0:0:0:
166,352,103749,1,4,0:0:0:0:
256,192,103942,5,2,0:0:0:0:
232,181,104038,1,2,0:0:0:0:
206,177,104134,1,2,0:0:0:0:
180,178,104230,1,2,0:0:0:0:
155,186,104326,1,2,0:0:0:0:
130,193,104422,1,2,0:0:0:0:
104,195,104519,1,2,0:0:0:0:
78,191,104615,1,2,0:0:0:0:
55,178,104711,6,0,P|29:138|42:60,1,127.5,4|2,0:0|0:0,0:0:0:0:
115,30,105096,1,8,0:0:0:0:
180,178,105288,1,2,0:0:0:0:
180,178,105384,1,2,0:0:0:0:
180,178,105480,2,0,L|176:267,1,85,4|2,0:0|0:0,0:0:0:0:
114,109,105865,2,0,P|152:86|196:84,1,85,8|2,0:0|0:0,0:0:0:0:
405,181,106249,6,0,P|343:188|286:162,1,127.5,6|2,0:0|0:0,0:0:0:0:
250,136,106634,1,8,0:0:0:0:
370,16,106826,1,2,0:0:0:0:
489,194,107019,1,2,0:0:0:0:
472,233,107115,1,2,0:0:0:0:
439,260,107211,1,2,0:0:0:0:
397,266,107307,1,2,0:0:0:0:
357,251,107403,1,10,0:0:0:0:
317,236,107499,1,2,0:0:0:0:
275,242,107596,1,2,0:0:0:0:
242,269,107692,1,2,0:0:0:0:
225,308,107788,5,6,0:0:0:0:
405,181,107980,1,2,0:0:0:0:
405,181,108076,1,2,0:0:0:0:
405,181,108172,1,8,0:0:0:0:
310,321,108365,1,2,0:0:0:0:
168,148,108557,1,6,0:0:0:0:
322,62,108749,1,2,0:0:0:0:
322,62,108846,1,2,0:0:0:0:
322,62,108942,2,0,P|332:105|326:150,1,85,8|2,0:0|0:0,0:0:0:0:
143,279,109326,6,0,P|186:269|231:275,1,85,6|2,0:0|0:0,0:0:0:0:
226,273,109615,1,2,0:0:0:0:
226,273,109711,1,8,0:0:0:0:
94,380,109903,1,2,0:0:0:0:
33,258,110096,1,2,0:0:0:0:
24,217,110192,1,2,0:0:0:0:
27,174,110288,1,2,0:0:0:0:
41,134,110384,1,2,0:0:0:0:
66,100,110480,1,10,0:0:0:0:
99,74,110576,1,2,0:0:0:0:
139,59,110672,1,2,0:0:0:0:
181,55,110769,1,2,0:0:0:0:
223,64,110865,6,0,L|309:70,1,85,6|0,0:0|0:0,0:0:0:0:
397,31,111153,2,0,L|392:117,1,85,6|0,0:0|0:0,0:0:0:0:
304,202,111442,2,0,L|308:159,1,42.5,2|0,0:0|0:0,0:0:0:0:
468,180,111634,6,0,L|474:266,1,85,6|0,0:0|0:0,0:0:0:0:
512,355,111922,2,0,L|426:360,1,85,6|0,0:0|0:0,0:0:0:0:
330,284,112211,2,0,L|373:280,1,42.5,6|0,0:0|0:0,0:0:0:0:
256,368,112403,5,6,0:0:0:0:
166,240,112596,1,2,0:0:0:0:
166,240,112692,1,2,0:0:0:0:
166,240,112788,2,0,P|162:198|174:150,1,85,8|2,0:0|0:0,0:0:0:0:
389,184,113172,1,2,0:0:0:0:
386,226,113269,1,2,0:0:0:0:
366,263,113365,1,2,0:0:0:0:
330,284,113461,1,2,0:0:0:0:
288,288,113557,2,0,L|246:273,1,42.5,12|2,0:0|0:0,0:0:0:0:
264,187,113749,2,0,L|304:202,1,42.5,2|2,0:0|0:0,0:0:0:0:
464,260,113942,5,6,0:0:0:0:
256,368,114134,1,2,0:0:0:0:
256,368,114230,1,2,0:0:0:0:
256,368,114326,1,8,0:0:0:0:
389,184,114519,1,2,0:0:0:0:
248,256,114711,1,6,0:0:0:0:
234,216,114807,1,2,0:0:0:0:
231,173,114903,1,2,0:0:0:0:
240,131,114999,1,2,0:0:0:0:
259,92,115096,1,14,0:0:0:0:
358,297,115288,1,2,0:0:0:0:
405,26,115480,5,4,0:0:0:0:
68,137,115769,1,4,0:0:0:0:
333,373,116057,1,4,0:0:0:0:
276,188,116249,6,0,P|257:189|233:195,7,42.5,2|2|2|2|2|2|2|2,0:0|0:0|0:0|0:0|0:0|0:0|0:0|0:0,0:0:0:0:
265,285,117019,5,6,0:0:0:0:
277,254,117115,1,2,0:0:0:0:
280,221,117211,1,2,0:0:0:0:
276,187,117307,1,2,0:0:0:0:
264,156,117403,1,10,0:0:0:0:
252,124,117499,1,2,0:0:0:0:
248,91,117596,1,2,0:0:0:0:
251,58,117692,1,2,0:0:0:0:
263,27,117788,5,2,0:0:0:0:
282,54,117884,1,2,0:0:0:0:
311,71,117980,1,2,0:0:0:0:
344,78,118076,1,2,0:0:0:0:
377,70,118172,1,10,0:0:0:0:
382,103,118269,1,2,0:0:0:0:
399,131,118365,1,2,0:0:0:0:
425,153,118461,1,2,0:0:0:0:
458,161,118557,5,6,0:0:0:0:
430,141,118653,1,2,0:0:0:0:
397,133,118749,1,2,0:0:0:0:
364,139,118846,1,2,0:0:0:0:
336,160,118942,1,6,0:0:0:0:
307,180,119038,1,2,0:0:0:0:
274,186,119134,1,2,0:0:0:0:
241,178,119230,1,2,0:0:0:0:
214,159,119326,6,0,L|204:116,2,42.5,6|2|2,0:0|0:0|0:0,0:0:0:0:
191,241,119615,2,0,L|233:253,2,42.5,2|2|2,0:0|0:0|0:0,0:0:0:0:
131,180,119903,2,0,L|98:210,1,42.5,2|2,0:0|0:0,0:0:0:0:
32,278,120096,5,6,0:0:0:0:
53,314,120192,1,2,0:0:0:0:
86,340,120288,1,2,0:0:0:0:
127,349,120384,1,2,0:0:0:0:
168,341,120480,1,2,0:0:0:0:
204,318,120576,1,2,0:0:0:0:
227,282,120672,1,2,0:0:0:0:
230,239,120769,1,2,0:0:0:0:
220,197,120865,1,6,0:0:0:0:
210,155,120961,1,2,0:0:0:0:
213,112,121057,1,2,0:0:0:0:
236,76,121153,1,2,0:0:0:0:
272,53,121249,1,2,0:0:0:0:
313,45,121346,1,2,0:0:0:0:
354,54,121442,1,2,0:0:0:0:
387,80,121538,1,2,0:0:0:0:
408,115,121634,6,0,P|370:163|312:149,1,127.5,6|6,0:0|0:0,0:0:0:0:
104,269,122403,2,0,P|142:221|200:235,2,127.5,6|6|2,0:0|0:0|0:0,0:0:0:0:
164,366,123172,6,0,L|210:358,1,42.5,6|2,0:0|0:0,0:0:0:0:
281,311,123365,2,0,L|327:319,1,42.5,2|2,0:0|0:0,0:0:0:0:
414,334,123557,1,2,0:0:0:0:
435,297,123653,1,2,0:0:0:0:
433,254,123749,1,2,0:0:0:0:
412,216,123846,2,0,P|376:195|328:193,2,85,2|2|2,0:0|0:0|0:0,0:0:0:0:
391,178,124326,1,2,0:0:0:0:
389,135,124422,1,2,0:0:0:0:
410,98,124519,2,0,P|426:82|450:74,1,42.5,2|2,0:0|0:0,0:0:0:0:
474,158,124711,5,6,0:0:0:0:
438,180,124807,1,2,0:0:0:0:
396,184,124903,1,2,0:0:0:0:
357,167,124999,1,2,0:0:0:0:
331,134,125096,1,2,0:0:0:0:
304,101,125192,1,2,0:0:0:0:
265,84,125288,1,2,0:0:0:0:
223,88,125384,1,2,0:0:0:0:
188,110,125480,6,0,L|180:163,1,42.5,2|2,0:0|0:0,0:0:0:0:
251,204,125672,2,0,L|257:161,1,42.5,2|2,0:0|0:0,0:0:0:0:
103,182,125865,2,0,L|95:235,1,42.5,2|2,0:0|0:0,0:0:0:0:
166,276,126057,2,0,L|172:233,1,42.5,2|2,0:0|0:0,0:0:0:0:
18,254,126249,5,6,0:0:0:0:
44,292,126346,1,2,0:0:0:0:
85,310,126442,1,2,0:0:0:0:
130,304,126538,1,2,0:0:0:0:
166,276,126634,1,2,0:0:0:0:
202,248,126730,1,2,0:0:0:0:
247,242,126826,2,0,P|270:247|289:258,1,42.5,2|0,0:0|0:0,0:0:0:0:
235,329,127019,5,6,0:0:0:0:
196,312,127115,1,2,0:0:0:0:
169,280,127211,1,2,0:0:0:0:
160,239,127307,1,2,0:0:0:0:
172,198,127403,1,6,0:0:0:0:
201,168,127499,1,2,0:0:0:0:
241,155,127596,1,2,0:0:0:0:
283,162,127692,1,2,0:0:0:0:
316,188,127788,6,0,L|312:278,1,85,6|0,0:0|0:0,0:0:0:0:
338,354,128076,2,0,L|248:349,1,85,6|0,0:0|0:0,0:0:0:0:
176,257,128365,2,0,L|223:264,1,42.5,6|2,0:0|0:0,0:0:0:0:
428,293,128557,5,2,0:0:0:0:
453,259,128653,1,2,0:0:0:0:
468,219,128749,1,2,0:0:0:0:
473,177,128846,1,2,0:0:0:0:
467,135,128942,1,2,0:0:0:0:
451,96,129038,1,2,0:0:0:0:
424,63,129134,1,2,0:0:0:0:
390,38,129230,1,2,0:0:0:0:
351,22,129326,6,0,L|346:66,1,42.5,2|2,0:0|0:0,0:0:0:0:
311,146,129519,2,0,L|316:189,1,42.5,2|2,0:0|0:0,0:0:0:0:
256,75,129711,1,2,0:0:0:0:
248,84,129807,2,0,L|161:79,1,85,2|2,0:0|0:0,0:0:0:0:
41,113,130096,6,0,L|46:156,1,42.5,2|2,0:0|0:0,0:0:0:0:
81,236,130288,2,0,L|75:279,1,42.5,2|2,0:0|0:0,0:0:0:0:
136,165,130480,1,6,0:0:0:0:
169,163,130576,1,2,0:0:0:0:
202,161,130672,1,2,0:0:0:0:
236,159,130769,1,2,0:0:0:0:
269,157,130865,5,6,0:0:0:0:
249,359,131057,1,0,0:0:0:0:
174,251,131249,2,0,L|259:258,1,85,14|2,0:0|0:0,0:0:0:0:
301,260,131538,1,2,0:0:0:0:
337,239,131634,1,6,0:0:0:0:
364,206,131730,1,2,0:0:0:0:
376,166,131826,1,2,0:0:0:0:
372,124,131922,1,2,0:0:0:0:
352,86,132019,1,2,0:0:0:0:
320,59,132115,1,2,0:0:0:0:
280,47,132211,1,2,0:0:0:0:
238,50,132307,1,2,0:0:0:0:
200,70,132403,5,6,0:0:0:0:
194,85,132499,1,2,0:0:0:0:
189,101,132596,2,0,L|198:146,1,42.5,2|2,0:0|0:0,0:0:0:0:
314,241,132788,1,6,0:0:0:0:
320,256,132884,1,2,0:0:0:0:
325,272,132980,2,0,L|316:317,1,42.5,2|2,0:0|0:0,0:0:0:0:
118,344,133172,5,6,0:0:0:0:
79,327,133269,1,2,0:0:0:0:
53,294,133365,1,2,0:0:0:0:
48,252,133461,1,2,0:0:0:0:
64,213,133557,1,6,0:0:0:0:
97,188,133653,1,2,0:0:0:0:
139,182,133749,1,2,0:0:0:0:
178,198,133846,1,2,0:0:0:0:
204,231,133942,6,0,B|211:258|210:278|210:278|174:260|132:264,1,127.5,6|6,0:0|0:0,0:0:0:0:
307,152,134711,2,0,B|301:126|302:106|302:106|338:124|380:120,2,127.5,6|6|2,0:0|0:0|0:0,0:0:0:0:
352,223,135480,5,2,0:0:0:0:
432,196,135672,1,2,0:0:0:0:
436,227,135769,1,2,0:0:0:0:
429,258,135865,1,2,0:0:0:0:
411,284,135961,1,0,0:0:0:0:
385,302,136057,1,2,0:0:0:0:
354,309,136153,2,0,P|323:305|281:267,2,63.7500024318696,2|2|2,0:0|0:0|0:0,0:0:0:0:
352,223,136634,5,2,0:0:0:0:
326,207,136730,1,2,0:0:0:0:
292,202,136826,1,2,0:0:0:0:
255,212,136922,1,2,0:0:0:0:
225,243,137019,6,0,L|212:289,1,42.5,6|2,0:0|0:0,0:0:0:0:
227,139,137211,2,0,L|193:105,1,42.5,2|2,0:0|0:0,0:0:0:0:
315,193,137403,2,0,L|362:181,3,42.5,10|2|2|0,0:0|0:0|0:0|0:0,0:0:0:0:
172,190,137788,6,0,L|107:206,1,42.5,2|2,0:0|0:0,0:0:0:0:
299,119,137980,2,0,L|317:54,1,42.5,2|2,0:0|0:0,0:0:0:0:
296,264,138172,2,0,L|343:312,3,42.5,10|2|2|2,0:0|0:0|0:0|0:0,0:0:0:0:
386,356,138557,5,6,0:0:0:0:
408,320,138653,1,2,0:0:0:0:
408,277,138749,1,2,0:0:0:0:
391,237,138846,1,2,0:0:0:0:
355,213,138942,1,6,0:0:0:0:
312,209,139038,1,2,0:0:0:0:
272,225,139134,1,2,0:0:0:0:
248,260,139230,1,2,0:0:0:0:
224,295,139326,1,6,0:0:0:0:
184,311,139422,1,2,0:0:0:0:
141,307,139519,1,2,0:0:0:0:
105,283,139615,1,2,0:0:0:0:
88,243,139711,1,6,0:0:0:0:
88,200,139807,1,2,0:0:0:0:
110,164,139903,1,2,0:0:0:0:
147,143,139999,1,2,0:0:0:0:
189,142,140096,6,0,L|201:232,1,85,6|2,0:0|0:0,0:0:0:0:
311,226,140384,2,0,L|323:142,1,85,6|2,0:0|0:0,0:0:0:0:
256,80,140672,1,6,0:0:0:0:
115,255,140865,1,2,0:0:0:0:
138,291,140961,1,2,0:0:0:0:
175,312,141057,1,2,0:0:0:0:
218,314,141153,1,2,0:0:0:0:
256,296,141249,1,2,0:0:0:0:
294,314,141346,1,2,0:0:0:0:
337,312,141442,1,2,0:0:0:0:
374,291,141538,1,2,0:0:0:0:
397,255,141634,1,4,0:0:0:0:
125,331,147788,6,0,L|88:335,2,31.8750012159348,2|0|0,0:0|0:0|0:0,0:0:0:0:
165,300,148076,2,0,P|197:304|249:307,1,63.7500024318696,2|0,0:0|0:0,0:0:0:0:
278,294,148365,1,2,0:0:0:0:
395,323,148557,6,0,L|399:360,2,31.8750012159348,2|0|0,0:0|0:0|0:0,0:0:0:0:
364,283,148846,2,0,P|368:251|371:199,1,63.7500024318696,2|0,0:0|0:0,0:0:0:0:
358,170,149134,1,2,0:0:0:0:
269,220,149326,6,0,P|226:228|177:205,2,95.6250036478044,2|2|2,0:0|0:0|0:0,0:0:0:0:
269,117,150096,2,0,P|236:109|205:109,1,63.7500024318696,2|0,0:0|0:0,0:0:0:0:
358,170,150480,1,2,0:0:0:0:
359,68,150672,1,0,0:0:0:0:
269,220,150865,6,0,L|274:254,2,31.8750012159348,2|0|0,0:0|0:0|0:0,0:0:0:0:
229,187,151153,2,0,P|194:178|166:168,1,63.7500024318696,2|0,0:0|0:0,0:0:0:0:
133,130,151442,1,2,0:0:0:0:
56,224,151634,5,2,0:0:0:0:
456,160,152019,1,2,0:0:0:0:
295,357,152403,6,0,P|259:324|261:246,1,127.500004863739,2|0,0:0|0:0,0:0:0:0:
342,152,152980,1,2,0:0:0:0:
329,287,153172,5,2,0:0:0:0:
308,311,153269,1,0,0:0:0:0:
280,325,153365,1,2,0:0:0:0:
249,328,153461,1,0,0:0:0:0:
218,318,153557,1,2,0:0:0:0:
195,298,153653,1,0,0:0:0:0:
180,269,153749,1,2,0:0:0:0:
178,238,153846,1,0,0:0:0:0:
189,208,153942,6,0,P|224:174|302:181,1,127.500004863739,6|0,0:0|0:0,0:0:0:0:
383,275,154519,1,6,0:0:0:0:
258,249,154711,5,2,0:0:0:0:
235,228,154807,1,0,0:0:0:0:
221,199,154903,1,2,0:0:0:0:
219,168,154999,1,0,0:0:0:0:
230,138,155096,1,2,0:0:0:0:
251,115,155192,1,0,0:0:0:0:
280,102,155288,1,2,0:0:0:0:
312,101,155384,1,0,0:0:0:0:
341,112,155480,6,0,P|343:158|305:182,1,95.6250036478044,0|0,0:3|0:3,0:0:0:0:
304,182,155865,6,0,B|236:162|244:198|176:182,1,127.5,0|0,0:3|0:3,0:0:0:0:
121,131,156249,5,6,0:0:0:0:
258,341,156441,1,2,0:0:0:0:
258,341,156537,1,2,0:0:0:0:
258,341,156633,2,0,P|268:300|271:258,1,85,8|2,0:0|0:0,0:0:0:0:
201,53,157018,1,6,0:0:0:0:
88,272,157210,1,2,0:0:0:0:
88,272,157306,1,2,0:0:0:0:
88,272,157402,2,0,L|177:281,1,85,8|2,0:0|0:0,0:0:0:0:
388,173,157787,6,0,L|299:182,1,85,6|2,0:0|0:0,0:0:0:0:
303,181,158075,1,2,0:0:0:0:
303,181,158172,1,8,0:0:0:0:
407,320,158364,1,2,0:0:0:0:
413,90,158556,1,6,0:0:0:0:
371,87,158652,1,2,0:0:0:0:
333,106,158749,1,2,0:0:0:0:
306,139,158845,1,2,0:0:0:0:
303,181,158941,2,0,L|316:224,1,42.5,10|2,0:0|0:0,0:0:0:0:
400,213,159133,2,0,L|387:172,1,42.5,2|2,0:0|0:0,0:0:0:0:
337,9,159325,5,6,0:0:0:0:
143,109,159518,1,2,0:0:0:0:
143,109,159614,1,2,0:0:0:0:
143,109,159710,2,0,L|228:102,1,85,8|2,0:0|0:0,0:0:0:0:
406,296,160095,2,0,P|362:287|330:259,1,85,6|0,0:0|0:0,0:0:0:0:
310,224,160383,1,0,0:0:0:0:
303,181,160479,2,0,L|311:97,1,85,6|2,0:0|0:0,0:0:0:0:
400,213,160864,5,6,0:0:0:0:
228,323,161056,1,2,0:0:0:0:
228,323,161152,1,2,0:0:0:0:
228,323,161249,1,8,0:0:0:0:
256,48,161441,1,2,0:0:0:0:
310,224,161633,1,6,0:0:0:0:
269,235,161729,1,2,0:0:0:0:
227,226,161825,1,2,0:0:0:0:
192,201,161922,1,2,0:0:0:0:
174,162,162018,1,10,0:0:0:0:
156,123,162114,1,2,0:0:0:0:
121,98,162210,1,2,0:0:0:0:
79,89,162306,1,2,0:0:0:0:
38,100,162402,6,0,P|28:143|31:186,1,85,6|2,0:0|0:0,0:0:0:0:
42,224,162691,1,2,0:0:0:0:
72,253,162787,2,0,L|156:258,1,85,8|2,0:0|0:0,0:0:0:0:
365,195,163172,1,6,0:0:0:0:
256,48,163364,1,0,0:0:0:0:
256,48,163460,1,0,0:0:0:0:
256,48,163556,2,0,L|249:140,1,85,8|2,0:0|0:0,0:0:0:0:
229,363,163941,5,6,0:0:0:0:
365,195,164133,1,2,0:0:0:0:
365,195,164229,1,2,0:0:0:0:
365,195,164325,2,0,L|449:200,1,85,8|2,0:0|0:0,0:0:0:0:
301,259,164710,1,6,0:0:0:0:
278,222,164806,1,2,0:0:0:0:
276,179,164902,1,2,0:0:0:0:
290,139,164999,1,2,0:0:0:0:
323,112,165095,2,0,L|367:103,1,42.5,8|2,0:0|0:0,0:0:0:0:
406,186,165287,2,0,L|364:194,1,42.5,2|2,0:0|0:0,0:0:0:0:
187,249,165479,5,6,0:0:0:0:
256,48,165672,1,2,0:0:0:0:
256,48,165768,1,2,0:0:0:0:
256,48,165864,1,8,0:0:0:0:
313,335,166056,1,2,0:0:0:0:
31,246,166249,5,6,0:0:0:0:
200,208,166441,1,2,0:0:0:0:
200,208,166537,1,2,0:0:0:0:
200,208,166633,2,0,L|196:298,1,85,8|2,0:0|0:0,0:0:0:0:
89,119,167018,5,4,0:0:0:0:
412,54,167306,1,4,0:0:0:0:
307,368,167595,1,4,0:0:0:0:
256,192,167787,5,2,0:0:0:0:
279,181,167883,1,2,0:0:0:0:
305,179,167979,1,2,0:0:0:0:
331,181,168075,1,2,0:0:0:0:
356,192,168172,1,2,0:0:0:0:
380,200,168268,1,2,0:0:0:0:
406,204,168364,1,2,0:0:0:0:
432,202,168460,1,2,0:0:0:0:
457,191,168556,6,0,P|485:152|478:74,1,127.5,4|2,0:0|0:0,0:0:0:0:
407,39,168941,1,8,0:0:0:0:
331,181,169133,1,2,0:0:0:0:
331,181,169229,1,2,0:0:0:0:
331,181,169325,2,0,L|328:270,1,85,4|2,0:0|0:0,0:0:0:0:
402,118,169710,2,0,P|365:92|321:87,1,85,8|2,0:0|0:0,0:0:0:0:
110,266,170095,5,6,0:0:0:0:
251,139,170287,1,2,0:0:0:0:
251,139,170383,1,2,0:0:0:0:
251,139,170479,1,8,0:0:0:0:
169,52,170672,1,0,0:0:0:0:
214,236,170864,1,2,0:0:0:0:
255,244,170960,1,2,0:0:0:0:
296,234,171056,1,2,0:0:0:0:
330,208,171152,1,2,0:0:0:0:
351,171,171249,2,0,L|346:124,1,42.5,8|2,0:0|0:0,0:0:0:0:
246,96,171441,2,0,L|250:138,1,42.5,2|2,0:0|0:0,0:0:0:0:
270,350,171633,5,6,0:0:0:0:
414,211,171825,1,2,0:0:0:0:
414,211,171922,1,2,0:0:0:0:
414,211,172018,1,8,0:0:0:0:
296,234,172210,1,2,0:0:0:0:
474,314,172402,1,6,0:0:0:0:
457,113,172595,1,2,0:0:0:0:
457,113,172691,1,0,0:0:0:0:
457,113,172787,2,0,P|403:103|373:111,1,85,8|2,0:0|0:0,0:0:0:0:
188,268,173172,5,6,0:0:0:0:
285,76,173364,1,2,0:0:0:0:
285,76,173460,1,0,0:0:0:0:
285,76,173556,1,8,0:0:0:0:
338,324,173749,1,2,0:0:0:0:
179,168,173941,1,2,0:0:0:0:
138,180,174037,1,0,0:0:0:0:
107,208,174133,1,2,0:0:0:0:
89,246,174229,1,0,0:0:0:0:
90,289,174325,1,10,0:0:0:0:
107,327,174422,1,0,0:0:0:0:
139,354,174518,1,2,0:0:0:0:
180,366,174614,1,2,0:0:0:0:
222,361,174710,6,0,L|229:272,1,85,6|2,0:0|0:0,0:0:0:0:
206,188,174999,2,0,P|161:156|121:159,1,85,6|0,0:0|0:0,0:0:0:0:
94,262,175287,2,0,L|140:255,1,42.5,6|0,0:0|0:0,0:0:0:0:
296,215,175479,6,0,L|289:126,1,85,6|2,0:0|0:0,0:0:0:0:
312,42,175768,2,0,P|357:10|397:13,1,85,6|0,0:0|0:0,0:0:0:0:
424,116,176056,2,0,L|378:109,1,42.5,6|0,0:0|0:0,0:0:0:0:
220,64,176249,5,4,0:0:0:0:
361,275,176441,1,2,0:0:0:0:
361,275,176537,1,0,0:0:0:0:
361,275,176633,2,0,P|382:233|380:185,1,85,12|2,0:0|0:0,0:0:0:0:
111,141,177018,1,2,0:0:0:0:
114,183,177114,1,2,0:0:0:0:
134,220,177210,1,2,0:0:0:0:
170,241,177306,1,2,0:0:0:0:
212,245,177402,2,0,L|254:230,1,42.5,12|2,0:0|0:0,0:0:0:0:
236,144,177595,2,0,L|196:159,1,42.5,2|2,0:0|0:0,0:0:0:0:
36,217,177787,5,6,0:0:0:0:
244,325,177979,1,2,0:0:0:0:
244,325,178075,1,2,0:0:0:0:
244,325,178172,1,8,0:0:0:0:
111,141,178364,1,2,0:0:0:0:
252,213,178556,1,6,0:0:0:0:
266,173,178652,1,2,0:0:0:0:
269,130,178749,1,2,0:0:0:0:
260,88,178845,1,2,0:0:0:0:
241,49,178941,1,14,0:0:0:0:
142,254,179133,1,2,0:0:0:0:
105,24,179325,5,4,0:0:0:0:
445,136,179614,1,4,0:0:0:0:
208,383,179902,1,4,0:0:0:0:
256,192,180095,12,0,183075,0:0:0:0:
