osu file format v12

[General]
AudioFilename: [Touhou] Though the Scent Lingers, the Flower Scattered [TV-Size].mp3
AudioLeadIn: 2500
PreviewTime: 45652
Countdown: 0
SampleSet: Soft
StackLeniency: 0.7
Mode: 0
LetterboxInBreaks: 0

[Editor]
DistanceSpacing: 0.5
BeatDivisor: 2
GridSize: 8

[Metadata]
Title:Through The Scent Lingers, The Flower Scattered
TitleUnicode:Through The Scent Lingers, The Flower Scattered
Artist:senya
ArtistUnicode:senya
Creator:Vee-tyan
Version:Normal
Source:Touhou
Tags:Kawashiro Nitori The Memories of Phantasm
BeatmapID:242183
BeatmapSetID:88963

[Difficulty]
HPDrainRate:3
CircleSize:3
OverallDifficulty:3
ApproachRate:4
SliderMultiplier:1.4
SliderTickRate:2

[Events]
//Background and Video events
0,0,"bg4.jpg",1,1
//Break Periods
//Storyboard Layer 0 (Background)
//Storyboard Layer 1 (Fail)
//Storyboard Layer 2 (Pass)
//Storyboard Layer 3 (Foreground)
//Storyboard Sound Samples
//Background Colour Transformations
3,100,163,162,255

[TimingPoints]
0,434.782608695652,4,2,1,20,1,0
17826,434.782608695652,4,2,1,100,1,0
59565,-200,4,2,1,10,0,0
60869,-100,4,2,1,100,0,0
61304,-100,4,2,1,100,0,1
87391,-100,4,2,1,100,0,0

[Colours]
Combo1 : 100,224,255
Combo2 : 153,208,191
Combo3 : 67,67,126

[HitObjects]
160,280,1304,1,0,0:0:0:0:
160,280,1521,1,0,0:0:0:0:
160,280,1739,2,0,B|168:208|168:208|208:200|240:152,1,140,8|0,0:0|0:0,0:0:0:0:
232,80,2608,2,0,P|295:112|308:212,1,140
320,208,3260,1,0,0:0:0:0:
320,240,3478,1,8,0:0:0:0:
128,272,4782,2,0,P|129:200|144:175,1,70
136,192,5217,6,0,P|72:184|16:280,2,140,8|0|0,0:0|0:0|0:0,0:0:0:0:
176,200,6304,1,0,0:0:0:0:
216,184,6521,1,0,0:0:0:0:
256,104,6956,2,0,P|272:48|272:-16,2,70,8|0|0,0:0|0:0|0:0,0:0:0:0:
432,136,8043,2,0,P|416:184|384:224,2,70
416,120,8695,6,0,P|360:128|312:200,1,140,8|0,0:0|0:0,0:0:0:0:
256,208,9347,1,0,0:0:0:0:
199,192,9565,2,0,P|152:128|96:120,1,140
104,216,10434,6,2,B|128:264|104:328|104:328|192:288|288:336,1,280,8|0,0:0|0:0,0:0:0:0:
384,256,11739,1,0,0:0:0:0:
408,232,11956,1,0,0:0:0:0:
424,200,12173,2,0,B|440:112|440:112|416:64|344:64,1,140,4|0,0:0|0:0,0:0:0:0:
320,64,13043,2,0,B|320:128|320:128|288:160|280:208,1,140,4|0,0:0|0:0,0:0:0:0:
256,192,13913,12,0,17391,0:0:0:0:
176,72,17826,6,0,P|104:128|96:208,1,140,4|0,0:0|0:0,0:0:0:0:
112,264,18695,2,0,B|168:240|176:192|176:192|240:168,1,140,8|0,0:0|0:0,0:0:0:0:
256,176,19347,1,0,0:0:0:0:
299,178,19565,2,0,B|336:192|336:192|344:240|400:264,1,140,4|0,0:0|0:0,0:0:0:0:
419,171,20434,2,0,P|408:128|336:72,1,140,8|0,0:0|0:0,0:0:0:0:
264,16,21304,6,0,B|184:16|184:16|136:40|120:80,1,140,4|0,0:0|0:0,0:0:0:0:
120,80,21956,1,0,0:0:0:0:
112,112,22173,2,0,P|144:176|128:256,1,140
136,328,23043,2,0,L|336:328,2,140,0|0|8,0:0|0:0|0:0,0:0:0:0:
136,328,24347,1,0,0:0:0:0:
136,328,24782,6,0,P|96:248|128:168,1,140,4|0,0:0|0:0,0:0:0:0:
192,176,25652,2,0,B|232:168|256:150|256:150|280:168|320:176,1,140
407,201,26521,2,0,P|416:248|376:328,2,140,4|0|8,0:0|0:0|0:0,0:0:0:0:
392,168,27608,1,0,0:0:0:0:
368,144,27825,1,0,0:0:0:0:
384,48,28260,6,2,P|312:64|272:144,1,140
240,200,29130,2,2,L|240:280,2,70
152,200,29999,2,2,L|152:288,2,70
64,200,30869,2,2,L|64:288,2,70
64,104,31739,6,0,P|120:48|208:192,1,280,4|0,0:0|0:0,0:0:0:0:
256,248,33043,1,0,0:0:0:0:
328,312,33478,2,0,P|264:344|224:336,2,70,4|0|0,0:0|0:0|0:0,0:0:0:0:
384,232,34347,2,0,P|432:224|488:136,1,140
400,144,35217,6,2,P|256:17|112:144,1,420,4|0,0:0|0:0,0:0:0:0:
128,240,36956,2,0,P|192:200|200:128,1,140,8|0,0:0|0:0,0:0:0:0:
308,140,37825,2,0,P|320:200|384:240,1,140
408,144,38695,6,0,B|424:96|472:72|472:72|544:104|560:64,2,140,4|0|0,0:0|0:0|0:0,0:0:0:0:
480,208,39999,1,0,0:0:0:0:
480,208,40217,1,0,0:0:0:0:
480,208,40434,1,4,0:0:0:0:
408,272,40869,1,0,0:0:0:0:
328,328,41304,2,0,B|264:304|264:304|216:320|160:304,1,140
120,248,42173,6,0,B|168:208|168:208|232:232|272:184,2,140,4|0|0,0:0|0:0|0:0,0:0:0:0:
24,224,43478,1,0,0:0:0:0:
80,144,43912,2,0,P|144:112|216:136,1,140,4|0,0:0|0:0,0:0:0:0:
304,129,44782,2,0,P|368:112|432:144,1,140,4|0,0:0|0:0,0:0:0:0:
440,248,45652,6,0,B|400:304|400:304|320:336,1,140,4|0,0:0|0:0,0:0:0:0:
304,344,46304,1,0,0:0:0:0:
272,360,46521,1,0,0:0:0:0:
176,344,46956,1,0,0:0:0:0:
88,288,47391,2,0,P|64:192|96:152,1,140,4|0,0:0|0:0,0:0:0:0:
152,224,48260,2,0,B|184:184|176:136|176:136|248:64,1,140
303,103,49130,6,0,B|336:136|336:136|328:184|360:224,1,140,4|0,0:0|0:0,0:0:0:0:
429,163,49999,2,0,P|448:192|424:288,1,140
400,312,50652,1,0,0:0:0:0:
368,328,50869,2,0,P|304:320|224:328,1,140
144,288,51739,2,0,P|192:232|200:160,1,140
256,88,52608,6,0,L|256:16,2,70,4|0|0,0:0|0:0|0:0,0:0:0:0:
336,144,53478,2,0,B|392:88|392:88|432:96|472:136,1,140
464,144,54130,1,0,0:0:0:0:
480,176,54347,2,0,L|480:320,1,140,4|0,0:0|0:0,0:0:0:0:
392,344,55217,2,0,P|336:272|264:240,1,140,4|0,0:0|0:0,0:0:0:0:
256,168,56086,6,0,L|256:24,2,140,4|0|0,0:0|0:0|0:0,0:0:0:0:
217,248,57391,1,4,0:0:0:0:
200,344,57825,2,0,P|264:336|304:248,2,140
88,234,59565,6,8,L|88:304,2,70
104,136,60869,2,0,P|144:80|184:64,1,70
176,64,61304,6,0,P|240:56|336:104,2,140,4|0|0,0:0|0:0|0:0,0:0:0:0:
184,160,62608,2,0,L|184:256,1,70
184,264,63043,2,0,P|224:320|336:320,1,140,4|0,0:0|0:0,0:0:0:0:
376,304,63912,2,0,B|352:256|304:248|304:248|272:176,1,140,8|0,0:0|0:0,0:0:0:0:
280,176,64565,1,0,0:0:0:0:
280,144,64782,6,0,P|320:88|392:80,2,140,4|0|0,0:0|0:0|0:0,0:0:0:0:
192,192,66086,2,0,L|192:288,2,70,0|0|4,0:0|0:0|0:0,0:0:0:0:
96,192,66956,2,0,P|120:128|184:96,2,140
96,224,68043,1,0,0:0:0:0:
96,256,68260,6,0,B|96:312|96:312|136:352|208:328,2,140,4|0|0,0:0|0:0|0:0,0:0:0:0:
184,232,69565,1,0,0:0:0:0:
272,200,69999,2,0,B|272:144|272:144|232:104|160:128,2,140,4|0|0,0:0|0:0|0:0,0:0:0:0:
352,264,71304,1,0,0:0:0:0:
424,328,71739,6,0,P|448:272|424:200,1,140,4|0,0:0|0:0,0:0:0:0:
336,168,72608,2,0,B|336:96|336:96|304:64|264:64,1,140
184,64,73478,2,0,P|125:118|125:174,1,140,2|2,0:0|0:0,0:0:0:0:
336,320,75217,6,0,P|272:328|176:280,2,140,4|0|0,0:0|0:0|0:0,0:0:0:0:
328,224,76521,2,0,L|328:128,1,70
328,120,76956,2,0,P|288:64|176:64,1,140,4|0,0:0|0:0,0:0:0:0:
136,80,77825,2,0,B|160:128|208:136|208:136|240:208,1,140,8|0,0:0|0:0,0:0:0:0:
232,208,78478,1,0,0:0:0:0:
232,240,78695,6,0,P|192:296|120:304,2,140,4|0|0,0:0|0:0|0:0,0:0:0:0:
320,192,79999,2,0,L|320:96,2,70,0|0|4,0:0|0:0|0:0,0:0:0:0:
416,192,80869,2,0,P|392:256|328:288,2,140
416,160,81956,1,0,0:0:0:0:
416,128,82173,6,0,B|416:72|416:72|376:32|304:56,2,140,4|0|0,0:0|0:0|0:0,0:0:0:0:
328,152,83478,1,0,0:0:0:0:
240,184,83912,2,0,B|240:240|240:240|280:280|352:256,2,140,4|0|0,0:0|0:0|0:0,0:0:0:0:
160,120,85217,1,0,0:0:0:0:
88,56,85652,6,2,P|64:112|88:184,1,140
176,216,86521,2,2,L|352:216,1,140
256,192,87391,12,8,93260,0:0:0:0:
