osu file format v12

[General]
AudioFilename: [Touhou] Though the Scent Lingers, the Flower Scattered [TV-Size].mp3
AudioLeadIn: 500
PreviewTime: 45652
Countdown: 0
SampleSet: Soft
StackLeniency: 0.7
Mode: 0
LetterboxInBreaks: 0

[Editor]
DistanceSpacing: 0.5
BeatDivisor: 2
GridSize: 8

[Metadata]
Title:Through The Scent Lingers, The Flower Scattered
TitleUnicode:Through The Scent Lingers, The Flower Scattered
Artist:senya
ArtistUnicode:senya
Creator:Vee-tyan
Version:Hard
Source:Touhou
Tags:Kawashiro Nitori The Memories of Phantasm
BeatmapID:242182
BeatmapSetID:88963

[Difficulty]
HPDrainRate:4
CircleSize:4
OverallDifficulty:7
ApproachRate:8
SliderMultiplier:1.7
SliderTickRate:2

[Events]
//Background and Video events
0,0,"bg4.jpg",1,1
//Break Periods
//Storyboard Layer 0 (Background)
//Storyboard Layer 1 (Fail)
//Storyboard Layer 2 (Pass)
//Storyboard Layer 3 (Foreground)
//Storyboard Sound Samples
//Background Colour Transformations
3,100,163,162,255

[TimingPoints]
0,434.782608695652,4,2,1,20,1,0
17826,434.782608695652,4,2,1,100,1,0
59565,-200,4,2,1,10,0,0
60869,-100,4,2,1,100,0,0
61304,-100,4,2,1,100,0,1
87391,-100,4,2,1,100,0,0

[Colours]
Combo1 : 100,224,255
Combo2 : 153,208,191
Combo3 : 67,67,126

[HitObjects]
56,144,1304,1,0,0:0:0:0:
56,144,1521,1,0,0:0:0:0:
56,144,1739,2,0,B|104:120|104:120|152:176|224:152,1,170,8|0,0:0|0:0,0:0:0:0:
256,176,2391,1,0,0:0:0:0:
304,156,2608,2,0,B|360:176|408:120|408:120|456:144,1,170
464,184,3260,1,0,0:0:0:0:
472,224,3478,6,0,B|472:296|472:296|440:344|368:320,1,170,8|0,0:0|0:0,0:0:0:0:
352,296,4130,2,0,L|352:240,2,42.5
312,320,4565,1,0,0:0:0:0:
272,328,4782,1,0,0:0:0:0:
232,320,4999,1,0,0:0:0:0:
200,296,5217,6,0,B|160:224|224:192|176:128,2,170,8|0|0,0:0|0:0|0:0,0:0:0:0:
104,328,6304,1,0,0:0:0:0:
200,344,6521,1,0,0:0:0:0:
104,280,6739,1,0,0:0:0:0:
208,288,6956,6,0,L|248:240,2,42.5,8|0|0,0:0|0:0|0:0,0:0:0:0:
296,176,7391,1,0,0:0:0:0:
152,168,7608,1,0,0:0:0:0:
208,288,7826,1,0,0:0:0:0:
296,176,8043,1,0,0:0:0:0:
384,288,8260,1,0,0:0:0:0:
440,168,8478,1,0,0:0:0:0:
296,176,8695,6,0,P|328:88|424:64,1,170,8|0,0:0|0:0,0:0:0:0:
432,72,9347,2,0,L|264:24,1,170
224,32,9999,1,0,0:0:0:0:
184,56,10217,1,0,0:0:0:0:
168,96,10434,6,0,P|128:184|160:264,1,170,8|0,0:0|0:0,0:0:0:0:
363,250,11086,2,0,P|383:183|343:95,1,170
256,176,11739,2,0,L|256:264,1,85,0|0,0:0|0:0,0:0:0:0:
176,328,12173,6,0,P|256:352|336:328,1,170,4|0,0:0|0:0,0:0:0:0:
376,304,12826,1,0,0:0:0:0:
392,272,13043,2,0,P|416:192|392:112,1,170,4|0,0:0|0:0,0:0:0:0:
368,80,13695,1,0,0:0:0:0:
256,192,13913,12,0,17391,0:0:0:0:
56,112,17826,6,0,P|104:80|160:80,1,85,4|0,0:0|0:0,0:0:0:0:
200,128,18260,1,0,0:0:0:0:
152,208,18478,1,0,0:0:0:0:
152,232,18586,1,0,0:0:0:0:
168,248,18695,1,8,0:0:0:0:
256,304,18913,1,0,0:0:0:0:
256,304,19130,1,0,0:0:0:0:
256,304,19347,1,0,0:0:0:0:
336,248,19565,6,0,P|368:200|328:80,1,170
256,80,20217,1,0,0:0:0:0:
166,95,20434,2,0,P|144:200|176:248,1,170,8|0,0:0|0:0,0:0:0:0:
256,280,21086,1,0,0:0:0:0:
328,336,21304,6,0,B|360:280|328:224|328:224|400:176,1,170,8|0,0:0|0:0,0:0:0:0:
392,184,21847,1,0,0:0:0:0:
408,176,21956,2,0,P|448:112|368:48,1,170
376,48,22499,1,0,0:0:0:0:
352,48,22608,2,0,L|232:48,1,85
184,104,23043,6,0,L|280:56,1,85
240,184,23478,2,0,P|168:200|128:184,1,85
80,112,23912,2,0,P|104:42|139:17,2,85,8|0|0,0:0|0:0|0:0,0:0:0:0:
80,152,24565,1,0,0:0:0:0:
80,192,24782,6,0,P|128:272|200:288,1,170,8|0,0:0|0:0,0:0:0:0:
432,192,25652,2,0,P|384:272|312:288,1,170
200,112,26521,2,0,L|200:232,1,85
312,112,26956,2,0,L|312:216,1,85
256,336,27391,2,0,L|256:232,2,85,8|0|0,0:0|0:0|0:0,0:0:0:0:
256,336,28043,1,0,0:0:0:0:
168,320,28260,6,0,B|144:248|144:248|88:256|56:208,1,170,8|0,0:0|0:0,0:0:0:0:
128,160,28912,1,0,0:0:0:0:
56,112,29130,2,0,P|120:72|208:128,1,170
256,176,29782,1,0,0:0:0:0:
320,112,29999,6,2,L|368:96,3,42.5
384,96,30434,2,2,L|456:112,3,42.5
440,120,30869,2,2,L|480:168,3,42.5
480,168,31304,2,2,L|488:224,3,42.5
480,232,31739,6,0,B|464:280|432:304|432:304|392:256|328:272,1,170,4|0,0:0|0:0,0:0:0:0:
360,352,32391,1,0,0:0:0:0:
361,268,32608,2,0,P|376:200|336:136,2,127.5
288,216,33478,2,0,B|232:256|160:184|104:232,1,170,4|0,0:0|0:0,0:0:0:0:
39,223,34130,1,0,0:0:0:0:
84,150,34347,2,0,P|124:222|84:294,1,170
39,223,34999,1,0,0:0:0:0:
125,78,35217,6,2,P|205:222|125:366,2,340
304,32,37173,1,0,0:0:0:0:
208,32,37391,1,0,0:0:0:0:
387,78,37608,1,0,0:0:0:0:
344,168,37825,6,0,L|440:168,1,85
320,176,38260,2,0,L|256:248,1,85
336,296,38695,2,0,P|256:328|176:256,1,170,4|0,0:0|0:0,0:0:0:0:
144,216,39347,1,0,0:0:0:0:
104,144,39565,2,0,P|64:88|-8:72,2,127.5
192,144,40434,6,0,B|184:104|168:72|168:72|216:32|288:40,1,170,4|0,0:0|0:0,0:0:0:0:
344,88,41086,1,0,0:0:0:0:
440,64,41304,2,0,P|440:136|360:192,1,170
352,280,41956,1,0,0:0:0:0:
256,248,42173,6,0,L|256:152,1,85,4|0,0:0|0:0,0:0:0:0:
208,248,42608,2,0,L|208:344,1,85
160,248,43043,2,0,L|160:136,1,85
112,248,43478,2,0,L|112:336,1,85
64,248,43912,6,0,B|8:192|8:192|40:144|40:88,1,170,8|0,0:0|0:0,0:0:0:0:
128,72,44565,1,0,0:0:0:0:
217,107,44782,2,0,B|216:144|248:192|248:192|192:248,1,170,8|0,0:0|0:0,0:0:0:0:
128,312,45434,1,0,0:0:0:0:
192,248,45652,6,0,P|216:320|192:376,2,127.5,4|0|0,0:0|0:0|0:0,0:0:0:0:
280,216,46521,2,0,L|384:256,1,85
352,152,46956,2,0,L|456:160,1,85
440,72,47391,6,2,B|360:64|360:64|312:48|304:0,1,170
256,96,48043,1,0,0:0:0:0:
208,0,48260,2,2,B|200:48|152:64|152:64|72:72,1,170
104,160,48912,1,0,0:0:0:0:
96,248,49130,6,0,P|72:304|32:344,1,85
192,224,49565,2,0,P|184:288|152:336,1,85
272,168,49999,2,0,P|288:224|288:272,2,85
360,144,50652,1,0,0:0:0:0:
408,224,50869,6,0,P|448:168|400:64,1,170,4|0,0:0|0:0,0:0:0:0:
360,144,51521,1,0,0:0:0:0:
300,77,51739,2,0,P|272:168|312:224,1,170,4|0,0:0|0:0,0:0:0:0:
256,296,52391,1,0,0:0:0:0:
168,264,52608,6,0,L|64:264,1,85,4|0,0:0|0:0,0:0:0:0:
48,184,53043,2,0,L|160:184,1,85
168,104,53478,2,0,B|104:104|104:104|64:72|64:32,2,127.5
240,48,54347,6,0,B|272:96|248:152|248:152|312:200,1,170
384,216,54999,1,0,0:0:0:0:
368,312,55217,2,0,B|328:328|328:328|288:304|240:304,2,127.5,4|0|0,0:0|0:0|0:0,0:0:0:0:
472,272,56086,6,0,P|488:208|456:144,2,127.5,4|0|0,0:0|0:0|0:0,0:0:0:0:
384,216,56956,2,0,L|320:96,2,127.5,4|0|0,0:0|0:0|0:0,0:0:0:0:
256,312,57825,5,0,0:0:0:0:
136,192,58260,1,0,0:0:0:0:
256,72,58695,1,0,0:0:0:0:
128,224,59565,5,8,0:0:0:0:
88,200,59999,1,8,0:0:0:0:
40,192,60434,1,8,0:0:0:0:
176,144,60869,2,0,P|232:128|272:96,1,85
208,40,61304,6,0,P|280:32|336:120,1,170,4|0,0:0|0:0,0:0:0:0:
368,192,61956,1,0,0:0:0:0:
440,256,62173,2,0,L|416:344,1,85
320,352,62608,2,0,L|352:240,1,85
264,216,63043,6,0,B|240:296|240:296|200:336|144:312,1,170,4|0,0:0|0:0,0:0:0:0:
72,344,63695,2,0,P|80:272|184:232,1,170
216,88,64347,1,0,0:0:0:0:
192,224,64565,1,0,0:0:0:0:
304,128,64782,5,4,0:0:0:0:
224,240,64999,1,0,0:0:0:0:
368,208,65217,1,0,0:0:0:0:
248,272,65434,1,0,0:0:0:0:
376,320,65652,2,0,P|440:312|472:272,1,85
488,208,66086,2,0,L|488:112,1,85
432,48,66521,6,8,P|360:112|272:120,1,170
296,32,67173,2,0,P|240:48|200:160,1,170
208,160,67717,1,0,0:0:0:0:
216,176,67825,1,0,0:0:0:0:
160,264,68043,1,0,0:0:0:0:
72,224,68260,6,4,P|64:304|152:368,2,170,4|4|0,0:0|0:0|0:0,0:0:0:0:
136,112,69347,1,0,0:0:0:0:
256,88,69565,1,0,0:0:0:0:
376,112,69782,5,0,0:0:0:0:
440,224,70000,2,0,P|448:304|388:363,2,170,4|0|0,0:0|0:0|0:0,0:0:0:0:
256,312,71304,2,0,L|256:200,1,85
256,136,71739,6,0,P|192:160|176:264,2,170
344,176,72825,1,0,0:0:0:0:
352,80,73043,2,0,P|400:56|448:56,1,85
448,152,73478,6,0,P|448:216|232:200,1,340
168,152,74565,1,0,0:0:0:0:
136,248,74782,1,0,0:0:0:0:
238,223,74999,1,0,0:0:0:0:
224,328,75217,6,0,P|296:336|352:248,1,170,4|0,0:0|0:0,0:0:0:0:
384,176,75869,1,0,0:0:0:0:
456,112,76086,2,0,L|432:24,1,85
336,16,76521,2,0,L|368:128,1,85
280,152,76956,6,0,B|256:72|256:72|216:32|160:56,1,170,4|0,0:0|0:0,0:0:0:0:
88,24,77608,2,0,P|96:96|200:136,1,170
334,192,78260,1,0,0:0:0:0:
216,260,78477,1,0,0:0:0:0:
216,124,78695,5,0,0:0:0:0:
357,172,78912,1,0,0:0:0:0:
239,240,79129,1,0,0:0:0:0:
240,104,79347,1,0,0:0:0:0:
368,40,79565,2,0,P|424:56|464:88,1,85
496,152,79999,2,0,L|496:248,1,85
448,320,80434,6,8,P|376:256|288:248,1,170
312,336,81086,2,0,P|256:320|216:208,1,170
224,208,81630,1,0,0:0:0:0:
232,192,81738,1,0,0:0:0:0:
176,104,81956,1,0,0:0:0:0:
88,144,82173,6,0,P|80:64|168:0,2,170,4|0|0,0:0|0:0|0:0,0:0:0:0:
152,256,83260,1,0,0:0:0:0:
272,280,83478,1,0,0:0:0:0:
392,256,83695,5,0,0:0:0:0:
424,144,83912,6,0,P|432:64|344:0,2,170,4|0|0,0:0|0:0|0:0,0:0:0:0:
272,56,85217,2,0,L|272:168,1,85
272,232,85652,6,0,P|208:208|192:104,2,170,0|0|0,0:0|0:0|0:0,0:0:0:0:
360,192,86738,1,0,0:0:0:0:
368,288,86956,2,0,P|416:312|464:312,1,85
256,192,87391,12,8,93260,0:0:0:0:
