osu file format v12

[General]
AudioFilename: [Touhou] Though the Scent Lingers, the Flower Scattered [TV-Size].mp3
AudioLeadIn: 500
PreviewTime: 45652
Countdown: 0
SampleSet: Soft
StackLeniency: 0.7
Mode: 0
LetterboxInBreaks: 0

[Editor]
DistanceSpacing: 0.5
BeatDivisor: 1
GridSize: 16

[Metadata]
Title:Through The Scent Lingers, The Flower Scattered
TitleUnicode:Through The Scent Lingers, The Flower Scattered
Artist:senya
ArtistUnicode:senya
Creator:Vee-tyan
Version:Easy
Source:Touhou
Tags:Kawashiro Nitori The Memories of Phantasm
BeatmapID:242181
BeatmapSetID:88963

[Difficulty]
HPDrainRate:1
CircleSize:2
OverallDifficulty:1
ApproachRate:2
SliderMultiplier:1
SliderTickRate:2

[Events]
//Background and Video events
0,0,"bg4.jpg",1,1
//Break Periods
2,14113,16266
2,27590,30179
//Storyboard Layer 0 (Background)
//Storyboard Layer 1 (Fail)
//Storyboard Layer 2 (Pass)
//Storyboard Layer 3 (Foreground)
//Storyboard Sound Samples
//Background Colour Transformations
3,100,163,162,255

[TimingPoints]
0,434.782608695652,4,2,1,20,1,0
17826,434.782608695652,4,2,1,100,1,0
59565,-200,4,2,1,10,0,0
61304,-100,4,2,1,100,0,1
87391,-100,4,2,1,100,0,0

[Colours]
Combo1 : 100,224,255
Combo2 : 153,208,191
Combo3 : 67,67,126

[HitObjects]
80,176,1739,2,0,P|104:96|224:72,1,200
304,65,3478,2,0,P|408:96|432:176,1,200
384,264,5217,5,0,0:0:0:0:
288,288,6086,2,0,L|160:288,2,100
104,208,8695,6,0,P|96:104|192:40,1,200
208,152,10434,2,0,L|424:152,1,200
408,256,12173,1,4,0:0:0:0:
320,304,13043,1,4,0:0:0:0:
224,328,13913,1,4,0:0:0:0:
80,160,17826,6,0,P|136:136|184:96,2,100,4|0|0,0:0|0:0|0:0,0:0:0:0:
56,208,19130,1,0,0:0:0:0:
48,256,19565,2,0,P|96:328|216:288,1,200,4|8,0:0|0:0,0:0:0:0:
256,232,21304,2,0,L|256:24,2,200,4|0|0,0:0|0:0|0:0,0:0:0:0:
256,280,23478,1,0,0:0:0:0:
256,328,23912,1,8,0:0:0:0:
360,328,24782,6,0,P|424:288|440:136,1,200,4|0,0:0|0:0,0:0:0:0:
408,80,26521,2,0,P|344:120|328:272,1,200,4|8,0:0|0:0,0:0:0:0:
160,128,31739,6,0,L|80:40,2,100,4|0|0,0:0|0:0|0:0,0:0:0:0:
80,192,33478,2,0,L|0:104,2,100,4|0|0,0:0|0:0|0:0,0:0:0:0:
112,288,35217,2,2,B|160:288|192:240|192:240|224:240|256:320|256:320|288:240|320:240|320:240|352:288|400:288,1,400
448,208,37825,1,0,0:0:0:0:
448,112,38695,6,0,P|416:48|304:128,1,200,4|0,0:0|0:0,0:0:0:0:
202,76,40434,2,0,P|96:48|64:112,2,200,4|0|0,0:0|0:0|0:0,0:0:0:0:
208,128,42608,2,0,L|208:256,2,100
224,80,43912,2,0,P|288:48|448:96,1,200,4|0,0:0|0:0,0:0:0:0:
448,160,45652,6,0,L|448:288,2,100,4|0|0,0:0|0:0|0:0,0:0:0:0:
352,192,47391,2,0,P|304:272|160:240,1,200
160,256,48695,1,0,0:0:0:0:
128,208,49130,2,0,L|128:64,2,100,4|0|0,0:0|0:0|0:0,0:0:0:0:
224,176,50869,2,0,P|256:96|400:96,1,200
448,128,52608,6,0,L|448:240,1,100,4|0,0:0|0:0,0:0:0:0:
448,272,53478,1,0,0:0:0:0:
368,336,54347,2,0,P|304:272|160:320,1,200
160,288,55652,1,0,0:0:0:0:
112,320,56086,2,0,P|64:272|48:144,1,200,4|0,0:0|0:0,0:0:0:0:
128,80,57825,5,0,0:0:0:0:
176,80,58260,1,0,0:0:0:0:
224,80,58695,1,0,0:0:0:0:
224,176,59565,1,8,0:0:0:0:
176,176,59999,1,8,0:0:0:0:
128,176,60434,1,8,0:0:0:0:
160,272,61304,6,0,B|208:272|256:295|256:295|304:272|352:272,1,200,4|0,0:0|0:0,0:0:0:0:
368,176,63043,2,0,P|352:112|432:16,1,200,4|8,0:0|0:0,0:0:0:0:
464,128,64782,6,0,P|512:192|496:320,1,200,4|0,0:0|0:0,0:0:0:0:
464,336,66086,1,0,0:0:0:0:
416,336,66521,1,4,0:0:0:0:
240,272,68260,6,0,P|192:224|176:96,1,200,4|0,0:0|0:0,0:0:0:0:
240,32,69999,2,0,P|288:80|304:206,1,200,4|0,0:0|0:0,0:0:0:0:
320,304,71739,6,2,B|256:336|256:336|208:288|128:320,2,200
352,112,75217,6,0,B|304:112|256:89|256:89|208:112|160:112,1,200,4|0,0:0|0:0,0:0:0:0:
144,208,76956,2,0,P|160:272|80:368,1,200,4|0,0:0|0:0,0:0:0:0:
48,256,78695,6,0,P|0:192|16:64,1,200
48,48,79999,1,0,0:0:0:0:
96,48,80434,1,4,0:0:0:0:
192,64,81304,1,0,0:0:0:0:
272,112,82173,6,0,P|320:160|336:288,1,200,4|0,0:0|0:0,0:0:0:0:
272,352,83912,2,0,P|224:304|207:177,1,200,4|0,0:0|0:0,0:0:0:0:
208,80,85652,5,4,0:0:0:0:
304,48,86521,1,4,0:0:0:0:
400,80,87391,1,8,0:0:0:0:
