osu file format v14

[General]
AudioFilename: The Memories of Phantasm.mp3
AudioLeadIn: 0
PreviewTime: 61008
Countdown: 0
SampleSet: Soft
StackLeniency: 0.7
Mode: 2
LetterboxInBreaks: 0
WidescreenStoryboard: 0

[Editor]
DistanceSpacing: 1.8
BeatDivisor: 4
GridSize: 8
TimelineZoom: 1

[Metadata]
Title:Though the Scent Lingers, the Flower Scattered
TitleUnicode:Though the Scent Lingers, the Flower Scattered
Artist:senya
ArtistUnicode:senya
Creator:hawkowl124
Version:Salad
Source:東方Project
Tags:touhou manpuku jinja reitaisai zun yuuhei satellite kamasetora iceon fantasy kaleidoscope memories of phantasm mountain faith iro wa nioedo chirinuru gensokyo gods loved nitori kawashiro 色は匂へど 散りぬるを
BeatmapID:481215
BeatmapSetID:203663

[Difficulty]
HPDrainRate:5
CircleSize:3.5
OverallDifficulty:7
ApproachRate:7
SliderMultiplier:1.5
SliderTickRate:1

[Events]
//Background and Video events
0,0,"BG.jpg",0,0
//Break Periods
//Storyboard Layer 0 (Background)
//Storyboard Layer 1 (Fail)
//Storyboard Layer 2 (Pass)
//Storyboard Layer 3 (Foreground)
//Storyboard Sound Samples

[TimingPoints]
1878,434.782608695652,4,2,1,60,1,0
17965,-100,4,2,2,60,0,0
31987,-100,4,2,1,60,0,0
45791,-100,4,2,2,60,0,0
59704,-100,4,2,1,60,0,0
61443,-100,4,2,2,60,0,1
75356,-100,4,2,3,60,0,1
87747,-100,4,2,3,60,0,0
93617,-100,4,2,2,5,0,0

[Colours]
Combo1 : 242,24,57
Combo2 : 255,128,192
Combo3 : 216,109,231

[HitObjects]
192,192,1878,6,0,L|280:192,1,75,2|0,0:0|0:0,0:0:0:0:
376,192,2313,2,0,L|464:192,1,75,0|0,0:0|0:0,0:0:0:0:
376,192,2747,2,0,L|296:192,1,75,2|0,0:0|0:0,0:0:0:0:
192,192,3182,2,0,L|96:192,1,75
232,192,3617,5,2,0:0:0:0:
376,192,3834,1,0,0:0:0:0:
280,192,4052,1,0,0:0:0:0:
496,192,4269,2,0,L|344:192,2,150,0|0|0,0:0|0:0|0:0,0:0:0:0:
384,192,5356,2,0,L|304:192,1,75,2|0,0:0|0:0,0:0:0:0:
424,192,5791,1,0,0:0:0:0:
112,192,6226,6,0,L|216:192,1,75,2|0,0:0|0:0,0:0:0:0:
296,192,6660,2,0,L|208:192,1,75
112,192,7095,2,0,L|48:152,2,75,2|0|0,0:0|0:0|0:0,0:0:0:0:
224,192,7747,1,2,0:0:0:0:
512,192,8182,1,2,0:0:0:0:
120,192,8834,5,2,0:0:0:0:
224,192,9052,1,0,0:0:0:0:
336,192,9269,1,0,0:0:0:0:
224,192,9487,1,0,0:0:0:0:
336,192,9704,2,0,L|152:192,1,150
72,192,10356,1,0,0:0:0:0:
184,192,10573,5,2,0:0:0:0:
296,192,10791,1,0,0:0:0:0:
184,192,11008,2,0,L|80:192,2,75,0|0|0,0:0|0:0|0:0,0:0:0:0:
320,192,11660,1,0,0:0:0:0:
56,192,12313,6,0,L|280:192,1,225,2|0,0:0|0:0,0:0:0:0:
392,192,13182,2,0,L|168:192,1,225
352,192,14052,1,0,0:0:0:0:
256,192,14487,12,0,17530,0:0:0:0:
56,192,17965,6,0,L|144:192,1,75,2|0,0:0|0:0,0:0:0:0:
240,192,18400,2,0,L|144:192,1,75,4|0,0:0|0:0,0:0:0:0:
280,192,18834,2,0,L|360:192,1,75,2|0,0:0|0:0,0:0:0:0:
240,192,19269,2,0,L|136:192,1,75,4|0,0:0|0:0,0:0:0:0:
184,144,19595,5,2,0:0:0:0:
216,96,19704,1,0,0:0:0:0:
80,96,19921,1,0,0:0:0:0:
128,192,20139,2,0,L|208:192,1,75,4|0,0:0|0:0,0:0:0:0:
128,192,20573,1,0,0:0:0:0:
376,200,20791,1,0,0:0:0:0:
432,192,21008,2,0,L|512:192,1,75,4|0,0:0|0:0,0:0:0:0:
432,176,21334,5,2,0:0:0:0:
352,192,21443,2,0,L|272:192,1,75,2|0,0:0|0:0,0:0:0:0:
416,192,21878,2,0,L|496:192,1,75,4|0,0:0|0:0,0:0:0:0:
328,192,22313,2,0,L|248:192,1,75,2|0,0:0|0:0,0:0:0:0:
144,192,22747,2,0,L|232:192,1,75,4|0,0:0|0:0,0:0:0:0:
256,160,23073,5,2,0:0:0:0:
219,192,23182,2,0,L|144:192,1,75,2|0,0:0|0:0,0:0:0:0:
32,192,23617,2,0,L|128:192,1,75,4|0,0:0|0:0,0:0:0:0:
320,192,24051,1,0,0:0:0:0:
184,192,24269,1,0,0:0:0:0:
280,192,24486,1,0,0:0:0:0:
144,192,24704,1,0,0:0:0:0:
248,192,24921,1,0,0:0:0:0:
56,192,25138,1,0,0:0:0:0:
136,128,25356,6,0,L|216:128,1,75,4|0,0:0|0:0,0:0:0:0:
158,192,25791,2,0,L|70:192,1,75,2|0,0:0|0:0,0:0:0:0:
240,184,26226,2,0,L|328:184,1,75,4|0,0:0|0:0,0:0:0:0:
216,152,26551,5,2,0:0:0:0:
251,192,26660,2,0,L|336:192,1,75,2|0,0:0|0:0,0:0:0:0:
440,192,27095,2,0,L|352:192,1,75,4|0,0:0|0:0,0:0:0:0:
328,144,27421,1,2,0:0:0:0:
288,192,27530,1,0,0:0:0:0:
160,192,27747,1,0,0:0:0:0:
288,192,27964,1,0,0:0:0:0:
408,192,28182,1,0,0:0:0:0:
368,192,28400,6,0,L|288:192,1,75,2|0,0:0|0:0,0:0:0:0:
176,192,28834,2,0,L|256:192,1,75,4|0,0:0|0:0,0:0:0:0:
128,192,29269,2,0,L|40:192,1,75,2|0,0:0|0:0,0:0:0:0:
176,192,29704,2,0,L|256:192,1,75,4|0,0:0|0:0,0:0:0:0:
184,192,30139,5,0,0:0:0:0:
224,144,30247,1,0,0:0:0:0:
256,192,30356,1,0,0:0:0:0:
288,144,30465,1,0,0:0:0:0:
320,192,30573,1,0,0:0:0:0:
352,144,30682,1,0,0:0:0:0:
384,192,30791,1,0,0:0:0:0:
416,144,30900,1,0,0:0:0:0:
456,200,31008,5,0,0:0:0:0:
488,144,31117,1,0,0:0:0:0:
456,200,31226,1,0,0:0:0:0:
416,144,31334,1,0,0:0:0:0:
384,192,31443,1,0,0:0:0:0:
352,144,31552,1,0,0:0:0:0:
320,192,31660,1,0,0:0:0:0:
288,144,31769,1,0,0:0:0:0:
144,152,31878,6,0,L|56:184,2,75,2|0|0,0:0|0:0|0:0,0:0:0:0:
224,240,32530,1,2,0:0:0:0:
328,224,32747,2,0,L|440:224,2,112.5
208,160,33617,6,0,L|136:232,2,75,2|0|0,0:0|0:0|0:0,0:0:0:0:
312,72,34269,2,0,L|400:72,1,75,2|0,0:0|0:0,0:0:0:0:
456,184,34705,2,0,L|493:184,2,37.5,2|0|0,0:0|0:0|0:0,0:0:0:0:
320,192,35139,1,0,0:0:0:0:
184,192,35356,6,0,L|109:192,2,75,2|0|0,0:0|0:0|0:0,0:0:0:0:
320,192,36008,1,0,0:0:0:0:
512,192,36443,1,0,0:0:0:0:
104,192,37095,6,0,L|16:192,1,75,2|0,0:0|0:0,0:0:0:0:
248,144,37530,1,0,0:0:0:0:
128,192,37747,2,0,L|40:192,2,75,2|0|2,0:0|0:0|0:0,0:0:0:0:
280,192,38834,5,0,0:0:0:0:
416,192,39052,1,0,0:0:0:0:
304,192,39269,1,0,0:0:0:0:
440,192,39487,1,0,0:0:0:0:
368,192,39704,6,0,L|272:192,1,75
312,192,40139,2,0,L|232:192,1,75
120,192,40573,1,0,0:0:0:0:
256,192,40791,1,0,0:0:0:0:
168,192,41008,1,0,0:0:0:0:
288,192,41226,1,0,0:0:0:0:
40,192,41660,1,0,0:0:0:0:
416,192,42313,6,0,L|328:192,1,75
208,192,42747,2,0,L|288:192,1,75
392,192,43182,2,0,L|288:192,1,75
184,192,43617,2,0,L|280:192,1,75
64,192,44052,2,0,B|152:192|208:144|216:32,1,225,0|0,0:0|0:0,0:0:0:0:
104,56,44921,2,0,B|192:56|248:104|280:272,1,300,0|12,0:0|0:0,0:0:0:0:
432,264,46008,6,0,L|352:264,1,75,2|4,0:0|0:0,0:0:0:0:
472,264,46443,1,2,0:0:0:0:
80,264,46878,6,0,L|160:264,1,75,2|4,0:0|0:0,0:0:0:0:
40,264,47313,1,4,0:0:0:0:
72,216,47421,1,2,0:0:0:0:
96,160,47530,1,2,0:0:0:0:
208,160,47747,1,2,0:0:0:0:
56,136,47965,2,0,L|144:136,1,75,4|0,0:0|0:0,0:0:0:0:
240,136,48400,6,0,L|312:136,2,37.5,0|0|0,0:0|0:0|0:0,0:0:0:0:
93,136,48834,2,0,L|56:136,2,37.5
304,136,49269,5,2,0:0:0:0:
256,120,49487,1,2,0:0:0:0:
192,136,49704,2,0,L|112:136,1,75,4|2,0:0|0:0,0:0:0:0:
341,136,50356,2,0,L|416:136,2,75,2|4|2,0:0|0:0|0:0,0:0:0:0:
256,136,51008,5,2,0:0:0:0:
208,264,51226,1,2,0:0:0:0:
144,136,51443,2,0,L|224:136,1,75,4|2,0:0|0:0,0:0:0:0:
328,136,51877,2,0,B|304:232|288:320|112:312,1,300
376,256,52965,5,0,0:0:0:0:
264,256,53182,2,0,L|176:256,1,75,2|0,0:0|0:0,0:0:0:0:
80,256,53617,2,0,L|176:256,1,75,2|0,0:0|0:0,0:0:0:0:
320,256,54052,2,0,L|232:256,1,75,2|0,0:0|0:0,0:0:0:0:
376,256,54487,6,0,L|272:256,1,75,2|0,0:0|0:0,0:0:0:0:
144,256,54921,2,0,L|240:256,1,75,2|0,0:0|0:0,0:0:0:0:
336,256,55356,2,0,L|256:256,1,75,2|0,0:0|0:0,0:0:0:0:
384,256,55791,2,0,L|464:256,1,75,2|0,0:0|0:0,0:0:0:0:
256,256,56226,5,10,0:0:0:0:
48,256,56552,1,2,0:0:0:0:
224,256,56877,1,2,0:0:0:0:
336,256,57095,5,10,0:0:0:0:
128,256,57421,1,2,0:0:0:0:
296,256,57747,1,2,0:0:0:0:
184,256,57965,5,2,0:0:0:0:
392,256,58291,1,12,0:0:0:0:
392,256,58400,1,2,0:0:0:0:
280,256,58617,1,2,0:0:0:0:
464,256,58834,1,10,0:0:0:0:
16,192,59704,5,2,0:0:0:0:
360,192,60139,1,2,0:0:0:0:
136,192,60573,1,2,0:0:0:0:
208,192,61443,5,2,0:0:0:0:
320,192,61660,1,0,0:0:0:0:
352,144,61769,1,0,0:0:0:0:
320,192,61878,2,0,L|240:192,1,75,4|0,0:0|0:0,0:0:0:0:
136,192,62313,1,2,0:0:0:0:
248,192,62530,2,0,L|168:192,1,75,0|4,0:0|0:0,0:0:0:0:
320,192,62965,1,0,0:0:0:0:
208,192,63182,5,2,0:0:0:0:
360,192,63400,2,0,L|416:192,2,37.5,0|0|4,0:0|0:0|0:0,0:0:0:0:
248,192,63834,1,0,0:0:0:0:
480,192,64052,2,10,L|400:192,1,75,10|0,0:0|0:0,0:0:0:0:
296,192,64487,1,4,0:0:0:0:
408,192,64704,1,0,0:0:0:0:
296,192,64921,5,2,0:0:0:0:
184,192,65139,1,0,0:0:0:0:
224,152,65247,1,0,0:0:0:0:
248,192,65356,1,0,0:0:0:0:
136,192,65573,1,0,0:0:0:0:
352,192,65791,5,0,0:0:0:0:
240,192,66008,1,0,0:0:0:0:
128,192,66226,1,0,0:0:0:0:
16,192,66443,1,0,0:0:0:0:
128,192,66660,5,0,0:0:0:0:
240,192,66878,2,0,L|288:192,2,37.5,0|0|4,0:0|0:0|0:0,0:0:0:0:
128,192,67313,1,0,0:0:0:0:
384,192,67530,2,0,L|304:192,1,75,8|0,0:0|0:0,0:0:0:0:
168,192,67965,2,0,L|248:192,1,75,8|0,0:0|0:0,0:0:0:0:
128,192,68400,6,0,L|216:192,1,75,2|0,0:0|0:0,0:0:0:0:
352,192,68834,2,0,L|272:192,1,75,10|0,0:0|0:0,0:0:0:0:
456,192,69269,1,0,0:0:0:0:
352,192,69487,1,0,0:0:0:0:
216,192,69704,1,0,0:0:0:0:
328,192,69921,1,0,0:0:0:0:
192,192,70139,6,0,L|272:192,1,75
88,192,70573,2,0,L|168:192,1,75
280,192,71008,2,0,L|184:192,1,75
320,192,71443,1,4,0:0:0:0:
208,192,71660,1,0,0:0:0:0:
168,152,71769,1,0,0:0:0:0:
240,192,71878,6,0,L|320:192,1,75,2|0,0:0|0:0,0:0:0:0:
440,192,72313,2,0,L|360:192,1,75,4|0,0:0|0:0,0:0:0:0:
232,192,72747,2,0,L|312:192,1,75
192,192,73182,2,0,L|88:192,1,75
8,192,73617,6,0,L|104:192,1,75
192,192,74052,1,0,0:0:0:0:
304,192,74269,1,2,0:0:0:0:
344,152,74378,1,2,0:0:0:0:
384,192,74487,1,2,0:0:0:0:
216,192,74704,5,4,0:0:0:0:
216,192,74921,1,4,0:0:0:0:
384,192,75139,1,2,0:0:0:0:
424,152,75247,1,2,0:0:0:0:
464,192,75356,5,2,0:0:0:0:
352,192,75573,1,0,0:0:0:0:
104,192,75791,2,0,L|184:192,1,75,4|0,0:0|0:0,0:0:0:0:
288,192,76226,2,0,L|208:192,1,75,2|0,0:0|0:0,0:0:0:0:
16,192,76660,2,0,L|96:192,1,75,4|0,0:0|0:0,0:0:0:0:
64,144,76987,1,0,0:0:0:0:
91,192,77095,6,0,L|176:192,1,75,2|0,0:0|0:0,0:0:0:0:
344,192,77530,2,0,L|240:192,1,75,4|0,0:0|0:0,0:0:0:0:
112,192,77965,2,0,L|192:192,1,75,10|0,0:0|0:0,0:0:0:0:
72,192,78400,2,0,L|168:192,1,75,4|0,0:0|0:0,0:0:0:0:
48,144,78726,1,0,0:0:0:0:
72,192,78834,6,0,L|149:192,1,75
272,192,79269,2,0,L|376:192,1,75
312,152,79595,1,0,0:0:0:0:
272,192,79704,5,0,0:0:0:0:
160,192,79921,1,0,0:0:0:0:
272,192,80139,1,0,0:0:0:0:
160,192,80356,1,0,0:0:0:0:
272,192,80573,6,0,L|368:192,1,75,2|0,0:0|0:0,0:0:0:0:
232,192,81008,2,0,L|128:192,1,75,4|0,0:0|0:0,0:0:0:0:
16,192,81443,2,0,L|96:192,1,75,10|0,0:0|0:0,0:0:0:0:
232,192,81878,2,0,L|152:192,1,75,4|0,0:0|0:0,0:0:0:0:
120,152,82204,1,0,0:0:0:0:
176,128,82312,5,0,0:0:0:0:
80,96,82530,1,0,0:0:0:0:
232,88,82747,1,0,0:0:0:0:
432,96,82964,2,0,L|344:96,1,75
200,200,83399,1,0,0:0:0:0:
96,192,83617,6,0,L|21:192,1,75,4|0,0:0|0:0,0:0:0:0:
136,192,84052,2,0,L|224:192,1,75,2|0,0:0|0:0,0:0:0:0:
309,192,84486,1,0,0:0:0:0:
112,192,84704,2,0,L|200:192,1,75,10|0,0:0|0:0,0:0:0:0:
432,192,85138,1,0,0:0:0:0:
384,192,85356,6,0,L|280:192,1,75,4|0,0:0|0:0,0:0:0:0:
200,192,85791,1,2,0:0:0:0:
88,192,86008,1,2,0:0:0:0:
200,192,86226,1,2,0:0:0:0:
304,192,86443,1,2,0:0:0:0:
248,152,86552,1,2,0:0:0:0:
200,192,86660,5,2,0:0:0:0:
304,192,86878,1,2,0:0:0:0:
200,192,87095,1,2,0:0:0:0:
88,192,87313,1,2,0:0:0:0:
88,192,87421,1,2,0:0:0:0:
208,192,87530,1,2,0:0:0:0:
256,192,87747,12,0,93617,0:0:0:0:
