osu file format v14

[General]
AudioFilename: The Memories of Phantasm.mp3
AudioLeadIn: 0
PreviewTime: 61008
Countdown: 0
SampleSet: Soft
StackLeniency: 0.7
Mode: 2
LetterboxInBreaks: 0
WidescreenStoryboard: 0

[Editor]
DistanceSpacing: 1.7
BeatDivisor: 4
GridSize: 8
TimelineZoom: 1

[Metadata]
Title:Though the Scent Lingers, the Flower Scattered
TitleUnicode:Though the Scent Lingers, the Flower Scattered
Artist:senya
ArtistUnicode:senya
Creator:hawkowl124
Version:Platter
Source:東方Project
Tags:touhou manpuku jinja reitaisai zun yuuhei satellite kamasetora iceon fantasy kaleidoscope memories of phantasm mountain faith iro wa nioedo chirinuru gensokyo gods loved nitori kawashiro 色は匂へど 散りぬるを
BeatmapID:481214
BeatmapSetID:203663

[Difficulty]
HPDrainRate:6
CircleSize:4
OverallDifficulty:8
ApproachRate:8
SliderMultiplier:2
SliderTickRate:1

[Events]
//Background and Video events
0,0,"BG.jpg",0,0
//Break Periods
//Storyboard Layer 0 (Background)
//Storyboard Layer 1 (Fail)
//Storyboard Layer 2 (Pass)
//Storyboard Layer 3 (Foreground)
//Storyboard Sound Samples

[TimingPoints]
1878,434.782608695652,4,2,1,60,1,0
17965,-100,4,2,2,60,0,0
31987,-100,4,2,1,60,0,0
45791,-100,4,2,2,60,0,0
59704,-100,4,2,1,60,0,0
61443,-100,4,2,2,60,0,1
75356,-100,4,2,3,60,0,1
87747,-100,4,2,3,60,0,0
93617,-100,4,2,2,5,0,0

[Colours]
Combo1 : 242,24,57
Combo2 : 255,128,192
Combo3 : 216,109,231

[HitObjects]
192,224,1878,5,2,0:0:0:0:
96,112,2095,1,0,0:0:0:0:
40,256,2313,1,0,0:0:0:0:
160,160,2530,1,0,0:0:0:0:
320,224,2747,1,2,0:0:0:0:
416,112,2965,1,0,0:0:0:0:
472,256,3182,1,0,0:0:0:0:
352,160,3399,1,0,0:0:0:0:
200,184,3617,5,2,0:0:0:0:
296,64,3834,1,0,0:0:0:0:
160,136,4052,1,0,0:0:0:0:
440,192,4269,2,0,B|480:192|480:192|352:192|352:192|400:192,2,200
352,72,5356,2,0,L|352:176,1,100,2|0,0:0|0:0,0:0:0:0:
480,72,5791,1,0,0:0:0:0:
192,64,6226,5,2,0:0:0:0:
336,112,6443,1,0,0:0:0:0:
248,232,6660,1,0,0:0:0:0:
392,272,6878,1,0,0:0:0:0:
152,176,7095,5,2,0:0:0:0:
288,176,7313,1,0,0:0:0:0:
424,176,7530,1,0,0:0:0:0:
320,288,7747,1,2,0:0:0:0:
186,136,8182,2,0,L|80:80,2,100,2|0|0,0:0|0:0|0:0,0:0:0:0:
280,136,8834,5,2,0:0:0:0:
408,56,9052,1,0,0:0:0:0:
344,192,9269,1,0,0:0:0:0:
280,56,9487,1,0,0:0:0:0:
200,184,9704,1,0,0:0:0:0:
360,280,9921,6,0,L|448:208,2,100
264,112,10573,1,2,0:0:0:0:
416,112,10791,1,0,0:0:0:0:
336,240,11008,1,0,0:0:0:0:
264,112,11226,1,0,0:0:0:0:
336,240,11443,1,0,0:0:0:0:
488,240,11660,1,0,0:0:0:0:
32,192,12313,6,0,B|232:136|232:136|144:80,1,300,2|0,0:0|0:0,0:0:0:0:
312,64,13182,2,0,B|200:136|200:136|368:200,1,300,0|0,0:0|0:0,0:0:0:0:
80,200,14052,1,0,0:0:0:0:
256,192,14487,12,0,17530,0:0:0:0:
184,192,17965,6,0,L|120:112,1,100,2|0,0:0|0:0,0:0:0:0:
272,104,18400,2,0,L|344:192,1,100,4|0,0:0|0:0,0:0:0:0:
488,192,18834,2,0,L|409:99,1,100,2|0,0:0|0:0,0:0:0:0:
272,104,19269,2,0,L|344:192,1,100,4|0,0:0|0:0,0:0:0:0:
400,184,19595,5,2,0:0:0:0:
336,184,19704,2,0,L|264:96,1,100,2|0,0:0|0:0,0:0:0:0:
120,104,20139,2,0,L|191:189,1,100,4|0,0:0|0:0,0:0:0:0:
104,56,20573,1,0,0:0:0:0:
368,56,20791,1,0,0:0:0:0:
288,104,21008,2,0,L|224:192,1,100,4|0,0:0|0:0,0:0:0:0:
168,184,21334,5,2,0:0:0:0:
232,184,21443,2,0,L|296:96,1,100,2|0,0:0|0:0,0:0:0:0:
440,104,21878,2,0,L|384:192,1,100,4|0,0:0|0:0,0:0:0:0:
232,184,22313,2,0,L|160:88,1,100,2|0,0:0|0:0,0:0:0:0:
24,104,22747,2,0,L|104:192,1,100,4|0,0:0|0:0,0:0:0:0:
24,192,23073,5,2,0:0:0:0:
88,184,23182,2,0,L|16:96,1,100,2|0,0:0|0:0,0:0:0:0:
176,112,23617,2,0,L|104:184,1,100,4|0,0:0|0:0,0:0:0:0:
64,336,24052,1,8,0:0:0:0:
328,192,24268,2,0,L|381:107,1,100,10|8,0:0|0:0,0:0:0:0:
136,192,24704,2,0,L|82:107,1,100,4|8,0:0|0:0,0:0:0:0:
506,105,25139,1,0,0:0:0:0:
360,112,25356,6,0,L|296:192,1,100,4|0,0:0|0:0,0:0:0:0:
144,192,25791,2,0,L|216:104,1,100,2|0,0:0|0:0,0:0:0:0:
360,112,26226,2,0,L|424:192,1,100,4|0,0:0|0:0,0:0:0:0:
352,192,26552,5,2,0:0:0:0:
422,190,26660,2,0,L|352:104,1,100,2|0,0:0|0:0,0:0:0:0:
208,112,27095,2,0,L|144:192,1,100,4|0,0:0|0:0,0:0:0:0:
80,200,27421,1,2,0:0:0:0:
160,184,27530,1,0,0:0:0:0:
352,192,27746,1,0,0:0:0:0:
128,208,27964,2,0,L|28:208,1,100
344,112,28401,6,0,L|392:128|344:112,1,100,2|0,0:0|0:0,0:0:0:0:
128,168,28835,2,0,L|72:176|128:168,1,100,4|0,0:0|0:0,0:0:0:0:
344,112,29270,2,0,L|392:128|344:112,1,100,2|0,0:0|0:0,0:0:0:0:
128,168,29704,2,0,L|72:176|128:168,1,100,4|0,0:0|0:0,0:0:0:0:
304,192,30139,5,0,0:0:0:0:
352,136,30247,1,0,0:0:0:0:
400,192,30356,1,0,0:0:0:0:
448,136,30465,1,0,0:0:0:0:
496,192,30573,1,0,0:0:0:0:
448,136,30682,1,0,0:0:0:0:
400,192,30791,1,0,0:0:0:0:
448,136,30900,1,0,0:0:0:0:
496,192,31008,5,0,0:0:0:0:
448,136,31117,1,0,0:0:0:0:
400,192,31226,1,0,0:0:0:0:
352,136,31334,1,0,0:0:0:0:
304,192,31443,1,0,0:0:0:0:
352,136,31552,1,0,0:0:0:0:
304,192,31660,1,0,0:0:0:0:
248,136,31769,1,0,0:0:0:0:
15,93,31878,6,0,L|120:96,2,100,2|0|0,0:0|0:0|0:0,0:0:0:0:
120,192,32530,1,2,0:0:0:0:
216,320,32747,2,0,L|66:320,2,150
344,304,33617,5,2,0:0:0:0:
168,192,33834,1,0,0:0:0:0:
320,192,34052,1,0,0:0:0:0:
216,304,34269,1,2,0:0:0:0:
368,304,34487,1,0,0:0:0:0:
456,192,34704,2,0,L|506:192,2,50,2|0|0,0:0|0:0|0:0,0:0:0:0:
320,192,35139,1,0,0:0:0:0:
112,184,35356,5,2,0:0:0:0:
264,184,35573,1,0,0:0:0:0:
160,80,35791,1,0,0:0:0:0:
408,88,36008,2,0,L|336:160,2,100,2|0|2,0:0|0:0|0:0,0:0:0:0:
16,80,37095,5,2,0:0:0:0:
232,80,37313,1,0,0:0:0:0:
120,184,37530,1,0,0:0:0:0:
256,184,37747,2,0,L|356:184,2,100,2|0|2,0:0|0:0|0:0,0:0:0:0:
72,192,38834,5,0,0:0:0:0:
272,192,39052,1,0,0:0:0:0:
160,96,39269,1,0,0:0:0:0:
360,88,39487,1,0,0:0:0:0:
264,224,39704,6,0,L|160:224,1,100
72,104,40139,2,0,L|176:104,1,100
432,144,40573,5,0,0:0:0:0:
352,272,40791,1,0,0:0:0:0:
280,144,41008,1,0,0:0:0:0:
496,144,41226,2,0,L|392:320,1,200
224,192,42313,6,0,L|144:104,1,100
288,192,42747,2,0,L|368:104,1,100
184,192,43182,2,0,L|104:104,1,100
328,192,43617,2,0,L|408:104,1,100
8,192,44052,2,0,L|248:8,1,300
464,312,44921,2,0,L|128:96,1,400,0|12,0:0|0:0,0:0:0:0:
352,304,46008,5,2,0:0:0:0:
152,304,46226,2,0,L|256:304,1,100,4|0,0:0|0:0,0:0:0:0:
456,88,46878,6,0,L|352:88,1,100,2|4,0:0|0:0,0:0:0:0:
184,80,47313,2,0,L|134:80,2,50,4|2|2,0:0|0:0|0:0,0:0:0:0:
304,80,47747,1,2,0:0:0:0:
88,80,47965,2,0,L|200:80,1,100,4|0,0:0|0:0,0:0:0:0:
336,80,48400,2,0,L|392:80,3,50,0|0|0|0,0:0|0:0|0:0|0:0,0:0:0:0:
440,80,48834,2,0,L|384:80,3,50,0|0|0|0,0:0|0:0|0:0|0:0,0:0:0:0:
464,80,49269,5,2,0:0:0:0:
336,160,49487,1,2,0:0:0:0:
488,160,49704,2,0,L|384:160,1,100,4|2,0:0|0:0,0:0:0:0:
88,160,50356,6,0,L|200:160,1,100,2|4,0:0|0:0,0:0:0:0:
40,160,50791,1,0,0:0:0:0:
264,160,51008,1,2,0:0:0:0:
168,48,51226,1,2,0:0:0:0:
376,48,51443,2,0,L|272:48,1,100
128,40,51878,2,0,B|184:120|320:184|416:112|464:32,1,400,0|12,0:0|0:0,0:0:0:0:
344,128,52965,5,0,0:0:0:0:
184,248,53182,2,0,L|72:248,1,100,2|0,0:0|0:0,0:0:0:0:
184,248,53617,2,0,L|288:248,1,100,2|0,0:0|0:0,0:0:0:0:
376,128,54052,2,0,L|256:128,1,100,2|0,0:0|0:0,0:0:0:0:
128,128,54487,6,0,L|16:128,1,100,2|0,0:0|0:0,0:0:0:0:
176,128,54921,2,0,L|280:128,1,100,2|0,0:0|0:0,0:0:0:0:
424,128,55356,2,0,L|320:128,1,100,2|0,0:0|0:0,0:0:0:0:
192,192,55791,2,0,L|304:192,1,100,2|0,0:0|0:0,0:0:0:0:
72,128,56226,5,10,0:0:0:0:
216,128,56443,1,0,0:0:0:0:
280,128,56552,1,0,0:0:0:0:
344,128,56660,1,0,0:0:0:0:
208,128,56878,1,2,0:0:0:0:
440,128,57095,5,10,0:0:0:0:
272,128,57313,1,0,0:0:0:0:
208,128,57421,1,0,0:0:0:0:
144,128,57530,1,0,0:0:0:0:
280,128,57747,1,2,0:0:0:0:
432,128,57965,5,2,0:0:0:0:
168,128,58182,1,0,0:0:0:0:
232,128,58291,1,2,0:0:0:0:
296,128,58400,1,2,0:0:0:0:
72,128,58617,1,2,0:0:0:0:
224,128,58834,1,2,0:0:0:0:
72,208,59704,5,2,0:0:0:0:
472,216,60139,1,2,0:0:0:0:
264,216,60573,1,2,0:0:0:0:
48,192,61443,6,0,L|152:192,1,100,2|0,0:0|0:0,0:0:0:0:
104,128,61769,1,0,0:0:0:0:
144,192,61878,2,0,L|248:192,1,100,4|0,0:0|0:0,0:0:0:0:
96,192,62313,1,2,0:0:0:0:
248,192,62530,2,0,L|306:192,1,50
224,192,62747,2,0,L|168:192,2,50,4|0|0,0:0|0:0|0:0,0:0:0:0:
400,192,63182,5,2,0:0:0:0:
224,192,63400,1,0,0:0:0:0:
160,152,63508,1,0,0:0:0:0:
208,104,63617,1,4,0:0:0:0:
40,136,63834,1,0,0:0:0:0:
88,80,63943,1,0,0:0:0:0:
136,24,64052,1,10,0:0:0:0:
400,104,64268,5,0,0:0:0:0:
352,48,64377,1,0,0:0:0:0:
248,48,64486,1,4,0:0:0:0:
288,112,64595,1,0,0:0:0:0:
328,176,64703,1,0,0:0:0:0:
376,240,64812,1,0,0:0:0:0:
272,240,64921,1,2,0:0:0:0:
128,248,65139,6,0,L|56:248,2,50,0|0|4,0:0|0:0|0:0,0:0:0:0:
232,144,65573,1,0,0:0:0:0:
328,104,65791,1,0,0:0:0:0:
136,96,66008,1,0,0:0:0:0:
328,104,66226,1,0,0:0:0:0:
136,96,66443,1,0,0:0:0:0:
328,104,66660,1,2,0:0:0:0:
240,224,66878,5,0,0:0:0:0:
280,160,66987,1,0,0:0:0:0:
320,224,67095,1,4,0:0:0:0:
168,224,67313,1,0,0:0:0:0:
128,160,67422,1,0,0:0:0:0:
168,96,67530,1,10,0:0:0:0:
480,192,67747,5,0,0:0:0:0:
312,128,67965,1,0,0:0:0:0:
456,272,68182,1,0,0:0:0:0:
272,184,68400,1,0,0:0:0:0:
120,184,68617,2,0,L|64:96,1,100,10|8,0:0|0:0,0:0:0:0:
328,184,69052,2,0,L|400:112,1,100,0|8,0:0|0:0,0:0:0:0:
128,191,69487,6,0,L|70:272,1,100,0|0,0:0|0:0,0:0:0:0:
256,192,69921,1,0,0:0:0:0:
296,128,70030,1,0,0:0:0:0:
256,192,70139,1,2,0:0:0:0:
136,192,70357,2,0,L|72:96,1,100,0|8,0:0|0:0,0:0:0:0:
344,192,70792,6,0,L|408:96,1,100,0|8,0:0|0:0,0:0:0:0:
136,192,71226,1,0,0:0:0:0:
200,104,71443,1,4,0:0:0:0:
352,104,71660,1,0,0:0:0:0:
416,40,71769,1,0,0:0:0:0:
352,104,71878,1,10,0:0:0:0:
88,104,72095,5,0,0:0:0:0:
40,48,72204,1,0,0:0:0:0:
88,104,72313,1,4,0:0:0:0:
200,224,72530,1,0,0:0:0:0:
296,104,72747,5,2,0:0:0:0:
144,104,72965,1,0,0:0:0:0:
296,104,73182,1,2,0:0:0:0:
448,104,73400,2,0,L|344:104,1,100,0|6,0:0|0:0,0:0:0:0:
200,104,73834,2,0,L|304:104,1,100,0|2,0:0|0:0,0:0:0:0:
152,104,74269,5,0,0:0:0:0:
192,168,74378,1,2,0:0:0:0:
232,104,74487,1,2,0:0:0:0:
0,104,74704,1,4,0:0:0:0:
0,104,74921,1,4,0:0:0:0:
152,104,75139,1,0,0:0:0:0:
192,168,75248,1,2,0:0:0:0:
232,104,75357,1,2,0:0:0:0:
512,120,75573,5,0,0:0:0:0:
336,168,75791,2,0,L|256:96,1,100,4|0,0:0|0:0,0:0:0:0:
416,104,76226,2,0,L|496:176,1,100,2|0,0:0|0:0,0:0:0:0:
288,168,76660,2,0,L|208:96,1,100,4|0,0:0|0:0,0:0:0:0:
176,40,76987,5,0,0:0:0:0:
136,104,77095,2,0,L|216:176,1,100,2|0,0:0|0:0,0:0:0:0:
360,168,77530,1,0,0:0:0:0:
144,168,77747,2,0,L|72:88,1,100,2|8,0:0|0:0,0:0:0:0:
312,104,78182,1,0,0:0:0:0:
216,104,78400,6,0,L|296:176,1,100,4|0,0:0|0:0,0:0:0:0:
440,160,78834,2,0,L|352:88,1,100,2|0,0:0|0:0,0:0:0:0:
216,104,79269,2,0,L|296:176,1,100,4|0,0:0|0:0,0:0:0:0:
248,232,79595,1,0,0:0:0:0:
208,168,79704,5,0,0:0:0:0:
400,176,79921,1,0,0:0:0:0:
208,168,80139,1,0,0:0:0:0:
400,176,80356,1,0,0:0:0:0:
208,168,80573,5,2,0:0:0:0:
352,136,80791,1,0,0:0:0:0:
200,136,81009,2,0,L|304:192,1,100,10|0,0:0|0:0,0:0:0:0:
440,176,81442,2,0,L|352:128,1,100,4|0,0:0|0:0,0:0:0:0:
200,136,81878,2,0,L|112:184,1,100,4|0,0:0|0:0,0:0:0:0:
184,184,82204,1,0,0:0:0:0:
128,200,82313,6,0,L|232:144,1,100,2|0,0:0|0:0,0:0:0:0:
96,256,82747,1,12,0:0:0:0:
344,200,82964,2,0,L|416:120,1,100,0|10,0:0|0:0,0:0:0:0:
136,192,83400,1,0,0:0:0:0:
264,192,83617,1,4,0:0:0:0:
392,112,83834,5,0,0:0:0:0:
344,56,83943,1,0,0:0:0:0:
280,104,84052,2,0,L|344:208,1,100,2|0,0:0|0:0,0:0:0:0:
432,104,84487,1,10,0:0:0:0:
168,104,84703,2,0,L|112:192,1,100,0|12,0:0|0:0,0:0:0:0:
384,104,85139,1,0,0:0:0:0:
264,192,85356,2,0,L|352:144,1,100,4|0,0:0|0:0,0:0:0:0:
32,176,85791,5,10,0:0:0:0:
136,176,86008,1,2,0:0:0:0:
32,176,86226,1,2,0:0:0:0:
192,176,86443,1,2,0:0:0:0:
256,176,86552,1,2,0:0:0:0:
320,176,86660,5,2,0:0:0:0:
472,176,86878,1,2,0:0:0:0:
336,176,87095,1,2,0:0:0:0:
208,80,87313,1,2,0:0:0:0:
144,80,87421,1,2,0:0:0:0:
208,80,87530,1,2,0:0:0:0:
256,192,87747,12,0,93617,0:0:0:0:
