osu file format v14

[General]
AudioFilename: The Memories of Phantasm.mp3
AudioLeadIn: 0
PreviewTime: 61008
Countdown: 0
SampleSet: Soft
StackLeniency: 0.7
Mode: 2
LetterboxInBreaks: 0
WidescreenStoryboard: 0

[Editor]
DistanceSpacing: 1.2
BeatDivisor: 4
GridSize: 8
TimelineZoom: 1

[Metadata]
Title:Though the Scent Lingers, the Flower Scattered
TitleUnicode:Though the Scent Lingers, the Flower Scattered
Artist:senya
ArtistUnicode:senya
Creator:hawkowl124
Version:Cup
Source:東方Project
Tags:touhou manpuku jinja reitaisai zun yuuhei satellite kamasetora iceon fantasy kaleidoscope memories of phantasm mountain faith iro wa nioedo chirinuru gensokyo gods loved nitori kawashiro 色は匂へど 散りぬるを
BeatmapID:481213
BeatmapSetID:203663

[Difficulty]
HPDrainRate:4
CircleSize:3
OverallDifficulty:6
ApproachRate:6
SliderMultiplier:1.2
SliderTickRate:1

[Events]
//Background and Video events
0,0,"BG.jpg",0,0
//Break Periods
//Storyboard Layer 0 (Background)
//Storyboard Layer 1 (Fail)
//Storyboard Layer 2 (Pass)
//Storyboard Layer 3 (Foreground)
//Storyboard Sound Samples

[TimingPoints]
1878,434.782608695652,4,2,1,60,1,0
17964,-100,4,2,2,60,0,0
59704,-100,4,2,1,60,0,0
61443,-100,4,2,2,60,0,1
75356,-100,4,2,3,60,0,1
87747,-100,4,2,3,60,0,0
93617,-100,4,2,2,5,0,0

[Colours]
Combo1 : 242,24,57
Combo2 : 255,128,192
Combo3 : 216,109,231

[HitObjects]
176,120,1878,6,0,L|272:224,1,120,2|0,0:0|0:0,0:0:0:0:
376,192,2747,2,0,L|272:88,1,120,2|0,0:0|0:0,0:0:0:0:
184,168,3617,2,0,P|288:104|392:48,1,240,2|0,0:0|0:0,0:0:0:0:
272,40,4921,1,0,0:0:0:0:
392,120,5356,6,0,L|296:200,1,120,2|0,0:0|0:0,0:0:0:0:
136,184,6226,2,0,L|240:96,1,120,2|0,0:0|0:0,0:0:0:0:
415,88,7095,2,0,B|416:104|416:192|296:192,2,180,2|0|0,0:0|0:0|0:0,0:0:0:0:
296,88,8834,5,0,0:0:0:0:
200,88,9051,1,0,0:0:0:0:
104,88,9269,2,0,B|103:104|128:160|208:168,1,120,2|0,0:0|0:0,0:0:0:0:
320,160,10139,1,0,0:0:0:0:
416,88,10573,5,0,0:0:0:0:
472,120,10791,1,0,0:0:0:0:
392,152,11008,2,0,P|344:216|280:224,1,120
200,176,11878,1,0,0:0:0:0:
32,112,12313,6,0,L|232:243,2,240
256,192,14487,12,0,17095,0:0:0:0:
160,312,17965,6,0,L|40:312,1,120,10|0,0:0|0:0,0:0:0:0:
192,208,18834,2,0,L|96:112,1,120,2|4,0:0|0:0,0:0:0:0:
264,152,19704,2,0,L|352:56,1,120,2|4,0:0|0:0,0:0:0:0:
488,200,20573,2,0,L|368:200,1,120,10|4,0:0|0:0,0:0:0:0:
182,111,21443,6,0,L|264:200,1,120,2|4,0:0|0:0,0:0:0:0:
96,208,22313,2,0,L|-8:112,1,120,2|4,0:0|0:0,0:0:0:0:
112,208,23182,2,0,L|224:112,1,120,2|4,0:0|0:0,0:0:0:0:
360,208,24052,2,0,L|448:112,2,120,10|2|10,0:0|0:0|0:0,0:0:0:0:
256,144,25356,5,4,0:0:0:0:
128,216,25791,2,0,L|48:112,1,120,2|4,0:0|0:0,0:0:0:0:
152,216,26660,2,0,L|224:104,1,120,2|4,0:0|0:0,0:0:0:0:
296,216,27530,2,0,L|224:112,2,120,10|2|2,0:0|0:0|0:0,0:0:0:0:
424,104,28834,5,4,0:0:0:0:
264,216,29269,2,0,L|192:104,1,120
392,208,30138,2,0,L|456:96,1,120
376,328,31008,1,0,0:0:0:0:
320,328,31225,1,0,0:0:0:0:
272,328,31443,1,0,0:0:0:0:
168,144,31878,6,0,P|248:80|312:24,2,180,0|0|0,0:0|0:0|0:0,0:0:0:0:
394,355,33617,2,0,L|256:240,2,180
233,55,35356,6,0,L|368:176,2,180
328,232,37095,1,0,0:0:0:0:
128,40,37747,5,0,0:0:0:0:
40,160,38182,1,0,0:0:0:0:
264,40,38834,6,0,L|384:184,2,180,0|0|0,0:0|0:0|0:0,0:0:0:0:
73,341,40573,2,0,L|184:128,1,240
334,242,42313,6,0,L|240:168,1,120
368,264,43181,1,0,0:0:0:0:
176,168,43617,1,0,0:0:0:0:
232,176,44052,6,0,L|72:56,1,180
8,128,44921,2,0,L|200:272,1,240,0|12,0:0|0:0,0:0:0:0:
248,208,46008,5,2,0:0:0:0:
288,144,46226,2,0,L|384:56,1,120,4|4,0:0|0:0,0:0:0:0:
456,120,46878,1,2,0:0:0:0:
376,176,47095,2,0,L|488:248,1,120,0|4,0:0|0:0,0:0:0:0:
400,184,47747,5,0,0:0:0:0:
480,120,47965,2,0,L|376:48,1,120,0|0,0:0|0:0,0:0:0:0:
312,112,48617,1,2,0:0:0:0:
224,168,48834,2,4,L|320:264,1,120
160,248,49703,6,0,L|64:152,2,120,0|0|0,0:0|0:0|0:0,0:0:0:0:
248,176,51008,2,0,L|440:24,2,240,0|0|8,0:0|0:0|0:0,0:0:0:0:
104,192,53182,5,2,0:0:0:0:
200,96,53617,1,2,0:0:0:0:
304,200,54052,1,2,0:0:0:0:
408,96,54487,1,2,0:0:0:0:
288,200,54921,1,2,0:0:0:0:
176,288,55356,1,2,0:0:0:0:
80,192,55791,1,2,0:0:0:0:
208,192,56225,6,0,L|112:192,2,90
248,24,57095,2,0,L|344:24,2,90
136,104,57964,2,0,L|40:104,2,90
96,192,58834,1,2,0:0:0:0:
160,256,59704,5,2,0:0:0:0:
256,168,60139,1,2,0:0:0:0:
352,264,60573,1,2,0:0:0:0:
120,104,61443,6,0,L|240:72,1,120,10|4,0:0|0:0,0:0:0:0:
368,128,62313,2,0,L|296:232,1,120,2|4,0:0|0:0,0:0:0:0:
168,288,63182,2,0,L|280:216,1,120,2|4,0:0|0:0,0:0:0:0:
136,176,64052,2,0,L|16:176,1,120,10|4,0:0|0:0,0:0:0:0:
176,128,64922,6,0,L|280:208,1,120,2|4,0:0|0:0,0:0:0:0:
72,184,65791,2,0,L|-8:208,3,60
129,154,66660,2,0,L|232:216,1,120
56,96,67530,1,8,0:0:0:0:
200,40,67965,1,8,0:0:0:0:
336,104,68400,6,0,L|464:104,2,120,2|8|8,0:0|0:0|0:0,0:0:0:0:
240,192,69704,1,2,0:0:0:0:
144,104,70139,2,0,L|24:104,2,120,0|8|8,0:0|0:0|0:0,0:0:0:0:
240,192,71443,1,2,0:0:0:0:
376,104,71878,6,0,L|464:16|464:16,1,120,10|2,0:0|0:0,0:0:0:0:
312,104,72747,2,0,L|224:192,1,120,2|2,0:0|0:0,0:0:0:0:
80,192,73617,1,2,0:0:0:0:
216,248,74052,1,2,0:0:0:0:
352,192,74487,2,0,L|224:192,1,120,2|2,0:0|0:0,0:0:0:0:
368,280,75356,6,0,L|480:216,1,120,2|4,0:0|0:0,0:0:0:0:
312,112,76226,2,0,L|248:216,1,120,2|4,0:0|0:0,0:0:0:0:
72,96,77095,2,0,L|152:192,1,120,2|4,0:0|0:0,0:0:0:0:
320,96,77965,2,0,L|440:96,1,120,10|4,0:0|0:0,0:0:0:0:
296,96,78834,6,0,L|200:192,1,120,2|4,0:0|0:0,0:0:0:0:
88,96,79704,2,0,L|32:120,3,60
168,96,80573,2,0,L|248:192,2,120,2|0|2,0:0|0:0|0:0,0:0:0:0:
320,192,81878,5,4,0:0:0:0:
416,88,82313,2,0,L|560:88,2,120,2|8|8,0:0|0:0|0:0,0:0:0:0:
320,192,83617,1,0,0:0:0:0:
192,88,84052,2,0,L|72:88,2,120,2|8|8,0:0|0:0|0:0,0:0:0:0:
312,192,85356,1,4,0:0:0:0:
240,72,85791,5,0,0:0:0:0:
192,128,86008,1,0,0:0:0:0:
160,192,86226,1,0,0:0:0:0:
128,256,86443,1,0,0:0:0:0:
128,256,86660,5,0,0:0:0:0:
160,192,86878,1,0,0:0:0:0:
192,128,87095,1,0,0:0:0:0:
240,72,87313,1,0,0:0:0:0:
352,72,87530,1,0,0:0:0:0:
256,192,87747,12,0,93617,0:0:0:0:
