osu file format v13

[General]
AudioFilename: senya shiita de Tsukisashite.mp3
AudioLeadIn: 0
PreviewTime: 74784
Countdown: 0
SampleSet: Soft
StackLeniency: 0.7
Mode: 0
LetterboxInBreaks: 0
SkinPreference:Default
WidescreenStoryboard: 1

[Editor]
Bookmarks: 26784
DistanceSpacing: 0.5
BeatDivisor: 4
GridSize: 4
TimelineZoom: 1

[Metadata]
Title:Shiita de Tsukisashite
TitleUnicode:θで突き刺して
Artist:senya
ArtistUnicode:senya
Creator:Scorpiour
Version:Lunatic
Source:Touhou
Tags:Zun Yuuhei Satellite the Grimoire of Alice Margatroid Dagger Gazel
BeatmapID:332410
BeatmapSetID:132110

[Difficulty]
HPDrainRate:7
CircleSize:4
OverallDifficulty:8
ApproachRate:9
SliderMultiplier:1.6
SliderTickRate:1

[Events]
//Background and Video events
0,0,"bg1.jpg",0,0
//Break Periods
//Storyboard Layer 0 (Background)
//Storyboard Layer 1 (Fail)
//Storyboard Layer 2 (Pass)
//Storyboard Layer 3 (Foreground)
//Storyboard Sound Samples
//Background Colour Transformations
3,100,0,0,0

[TimingPoints]
-216,375,4,2,1,50,1,0
1284,-166.666666666667,4,2,1,50,0,0
13284,-125,4,2,1,50,0,0
26784,-100,4,2,1,50,0,0
74784,-100,4,2,1,50,0,1
98784,-100,4,2,1,50,0,0

[Colours]
Combo1 : 233,233,233
Combo2 : 244,244,138
Combo3 : 138,244,244
Combo4 : 244,138,138

[HitObjects]
482,223,1284,6,0,P|434:231|387:223,1,95.9999970703126
192,188,1846,2,0,P|239:180|286:188,1,95.9999970703126
153,334,2409,1,0,0:0:0:0:
22,247,2596,1,0,0:0:0:0:
89,100,2784,6,0,P|135:109|182:100,1,95.9999970703126
326,41,3346,2,0,P|279:31|232:40,1,95.9999970703126
201,177,3909,1,0,0:0:0:0:
326,41,4096,1,0,0:0:0:0:
406,193,4284,6,0,P|452:201|499:193,1,95.9999970703126
446,295,4846,2,0,P|399:287|352:295,1,95.9999970703126
247,320,5409,1,0,0:0:0:0:
275,132,5596,1,0,0:0:0:0:
187,211,5784,6,0,P|141:223|95:212,1,95.9999970703126
64,93,6346,2,0,P|110:81|156:92,1,95.9999970703126
95,212,6909,1,0,0:0:0:0:
223,135,7096,1,0,0:0:0:0:
213,288,7284,6,0,P|259:298|306:289,1,95.9999970703126
418,347,7846,2,0,P|456:319|474:276,1,95.9999970703126
341,218,8409,1,0,0:0:0:0:
493,201,8596,1,0,0:0:0:0:
409,71,8784,6,0,P|363:62|316:71,1,95.9999970703126
250,180,9346,2,0,P|203:188|156:179,1,95.9999970703126
23,100,9909,1,0,0:0:0:0:
155,22,10096,1,0,0:0:0:0:
60,188,10284,6,0,P|54:235|61:282,1,95.9999970703126
221,324,10846,2,0,P|227:276|220:229,1,95.9999970703126
134,341,11409,1,0,0:0:0:0:
172,163,11596,1,0,0:0:0:0:
301,220,11784,6,0,P|348:228|396:219,1,95.9999970703126
478,102,12346,1,0,0:0:0:0:
478,102,12440,1,0,0:0:0:0:
478,102,12534,1,0,0:0:0:0:
344,47,12815,1,0,0:0:0:0:
252,158,13096,1,0,0:0:0:0:
105,93,13284,6,0,L|27:102,1,64
189,165,13659,2,0,L|267:156,1,64
88,253,14034,1,0,0:0:0:0:
182,347,14221,1,0,0:0:0:0:
193,341,14315,1,0,0:0:0:0:
203,334,14409,2,0,L|194:256,1,64
245,94,14784,6,0,L|254:172,1,64
368,87,15159,2,0,L|371:8,1,64,0|0,0:0|0:0,0:0:0:0:
353,205,15534,1,0,0:0:0:0:
474,150,15721,1,0,0:0:0:0:
485,145,15815,1,0,0:0:0:0:
497,139,15909,2,0,L|493:60,1,64
445,257,16284,6,0,L|439:334,1,64,0|0,0:0|0:0,0:0:0:0:
353,205,16659,2,0,L|349:124,1,64,0|0,0:0|0:0,0:0:0:0:
275,290,17034,1,0,0:0:0:0:
179,223,17221,1,0,0:0:0:0:
167,217,17315,1,0,0:0:0:0:
155,211,17409,2,0,L|64:217,1,64
31,353,17784,6,0,L|122:347,1,64
275,290,18159,2,0,L|184:296,1,64,0|0,0:0|0:0,0:0:0:0:
380,323,18534,1,0,0:0:0:0:
455,227,18721,1,0,0:0:0:0:
459,214,18815,1,0,0:0:0:0:
464,202,18909,2,0,L|458:111,1,64,0|0,0:0|0:0,0:0:0:0:
327,28,19284,5,0,0:0:0:0:
277,170,19471,1,0,0:0:0:0:
264,174,19565,1,0,0:0:0:0:
251,178,19659,2,0,L|176:171,1,64
378,157,20034,1,0,0:0:0:0:
212,86,20221,1,0,0:0:0:0:
294,280,20409,1,0,0:0:0:0:
294,118,20596,1,0,0:0:0:0:
139,253,20784,6,0,P|132:214|148:175,1,64
132,174,21065,1,0,0:0:0:0:
125,157,21159,2,0,L|57:194,1,64
48,325,21534,1,0,0:0:0:0:
148,342,21721,1,0,0:0:0:0:
248,323,21909,1,0,0:0:0:0:
309,241,22096,1,0,0:0:0:0:
279,62,22284,6,0,L|361:49,1,64
357,63,22565,1,0,0:0:0:0:
372,74,22659,2,0,L|437:93,1,64
471,266,23034,1,0,0:0:0:0:
381,315,23221,1,0,0:0:0:0:
309,241,23409,1,0,0:0:0:0:
217,286,23596,1,0,0:0:0:0:
56,253,23784,6,0,P|29:197|33:133,1,128
196,41,24346,1,0,0:0:0:0:
196,41,24440,1,0,0:0:0:0:
196,41,24534,1,0,0:0:0:0:
294,309,24815,1,0,0:0:0:0:
481,90,25096,1,0,0:0:0:0:
256,192,25190,12,0,26409,0:0:0:0:
176,214,26784,6,0,L|202:320,1,80
363,205,27159,2,0,L|337:99,1,80
296,283,27534,2,0,L|402:309,1,80
237,127,27909,2,0,L|131:101,1,80
58,279,28284,5,0,0:0:0:0:
271,204,28471,1,0,0:0:0:0:
190,316,28659,1,0,0:0:0:0:
138,161,28846,1,0,0:0:0:0:
142,154,28940,1,0,0:0:0:0:
146,147,29034,2,0,L|244:124,1,80,0|0,0:0|0:0,0:0:0:0:
387,164,29409,2,0,L|289:187,1,80,0|0,0:0|0:0,0:0:0:0:
492,88,29784,5,0,0:0:0:0:
462,210,29971,1,0,0:0:0:0:
453,218,30065,1,0,0:0:0:0:
446,228,30159,2,0,L|426:327,1,80
286,261,30534,2,0,L|306:161,1,80
138,214,30909,2,0,L|158:114,1,80
185,308,31284,5,0,0:0:0:0:
375,218,31471,1,0,0:0:0:0:
385,212,31565,1,0,0:0:0:0:
395,206,31659,2,0,L|316:192,1,80
138,214,32034,2,0,L|216:227,1,80
161,129,32409,1,0,0:0:0:0:
149,127,32502,1,0,0:0:0:0:
137,125,32596,1,0,0:0:0:0:
125,123,32690,1,0,0:0:0:0:
112,121,32784,6,0,P|82:146|70:183,1,80
266,120,33159,2,0,P|265:81|250:44,1,80
199,247,33534,2,0,P|234:264|274:261,1,80
473,164,33909,2,0,P|434:158|395:166,1,80
227,339,34284,5,0,0:0:0:0:
266,119,34471,1,0,0:0:0:0:
144,211,34659,1,0,0:0:0:0:
349,247,34846,1,0,0:0:0:0:
359,241,34940,1,0,0:0:0:0:
369,235,35034,2,0,L|448:244,1,80
278,273,35409,2,0,L|199:264,1,80
70,93,35784,5,0,0:0:0:0:
26,252,35971,1,0,0:0:0:0:
35,259,36065,1,0,0:0:0:0:
44,266,36159,2,0,L|93:184,1,80
228,67,36534,2,0,L|179:149,1,80
184,300,36909,2,0,L|233:218,1,80
365,105,37284,5,0,0:0:0:0:
376,104,37377,1,0,0:0:0:0:
387,99,37471,1,0,0:0:0:0:
398,100,37565,1,0,0:0:0:0:
409,102,37659,1,0,0:0:0:0:
420,106,37752,1,0,0:0:0:0:
430,111,37846,1,0,0:0:0:0:
439,117,37940,1,0,0:0:0:0:
447,125,38034,1,0,0:0:0:0:
453,134,38127,1,0,0:0:0:0:
458,144,38221,1,0,0:0:0:0:
461,155,38315,1,0,0:0:0:0:
463,166,38409,1,0,0:0:0:0:
463,177,38502,1,0,0:0:0:0:
462,189,38596,1,0,0:0:0:0:
460,200,38690,1,0,0:0:0:0:
457,211,38784,5,0,0:0:0:0:
