osu file format v13

[General]
AudioFilename: san sen sekai1.mp3
AudioLeadIn: 0
PreviewTime: 54960
Countdown: 1
SampleSet: Normal
StackLeniency: 0.7
Mode: 0
LetterboxInBreaks: 1
WidescreenStoryboard: 1

[Editor]
Bookmarks: 99760,112560,120560,146860
DistanceSpacing: 1
BeatDivisor: 4
GridSize: 16
TimelineZoom: 1

[Metadata]
Title:Sanzen sekai
TitleUnicode:三千世界
Artist:senya
ArtistUnicode:senya
Creator:Kochiya Sanya
Version:Normal
Source:Touhou
Tags:少女が见た日本の原风景,幽闭サテライト,C84,kochiya sanae
BeatmapID:459150
BeatmapSetID:193185

[Difficulty]
HPDrainRate:3
CircleSize:3.5
OverallDifficulty:4
ApproachRate:5
SliderMultiplier:1
SliderTickRate:1

[Events]
//Background and Video events
0,0,"12.jpg",0,0
//Break Periods
//Storyboard Layer 0 (Background)
//Storyboard Layer 1 (Fail)
//Storyboard Layer 2 (Pass)
//Storyboard Layer 3 (Foreground)
//Storyboard Sound Samples
//Background Colour Transformations
3,100,163,162,255

[TimingPoints]
2160,400,4,2,0,40,1,0
2160,-100,4,2,0,40,0,0
8560,-100,4,1,0,80,0,1
14960,-100,4,2,2,40,0,0
27760,-100,4,2,0,60,0,0
40460,-100,4,1,0,60,0,0
54960,-100,4,2,0,80,0,1
59760,-100,4,1,0,80,0,1
61360,-100,4,2,0,80,0,1
66160,-100,4,1,0,80,0,1
67760,-100,4,2,0,80,0,1
72560,-100,4,1,0,80,0,1
80560,-100,4,2,0,60,0,0
106160,-100,4,1,0,60,0,0
120560,-100,4,2,0,80,0,1
125360,-100,4,1,0,80,0,1
126960,-100,4,2,0,80,0,1
131760,-100,4,1,0,80,0,1
133360,-100,4,2,0,80,0,1
138160,-100,4,1,0,80,0,1
146160,-100,4,1,0,80,0,0

[HitObjects]
140,74,2160,6,0,P|122:123|134:168,1,100,0|8,0:0|0:0,0:0:0:0:
204,239,2960,1,0,0:0:0:0:
302,255,3360,1,8,0:0:0:0:
268,161,3760,6,0,P|330:146|373:164,1,100,0|8,0:0|0:0,0:0:0:0:
444,98,4560,2,0,P|465:153|452:192,1,100,0|8,0:0|0:0,0:0:0:0:
391,268,5360,5,0,0:0:0:0:
322,342,5760,1,8,0:0:0:0:
266,259,6160,2,0,P|255:204|226:166,1,100,0|8,0:0|0:0,0:0:0:0:
150,108,6960,1,2,0:0:0:0:
73,172,7360,1,10,0:0:0:0:
167,205,7760,2,0,L|259:261,1,100,2|10,0:0|0:0,0:0:0:0:
285,162,8560,6,0,P|330:190|382:183,1,100,0|8,0:0|0:0,0:0:0:0:
420,164,9160,1,0,0:0:0:0:
469,166,9360,2,0,P|486:223|457:258,1,100,0|8,0:0|0:0,0:0:0:0:
390,320,10160,2,0,L|321:234,1,100,0|8,0:0|0:0,0:0:0:0:
289,205,10760,1,0,0:0:0:0:
246,231,10960,2,0,L|201:330,1,100,0|8,0:0|0:0,0:0:0:0:
147,240,11760,6,0,P|92:185|92:110,1,150
46,92,12560,2,0,P|89:117|187:91,1,150
256,192,13360,12,0,14560,0:0:0:0:
146,91,14960,6,0,P|114:178|143:224,1,150
216,156,15960,2,0,L|280:155,1,50,0|8,0:0|0:0,0:0:0:0:
322,72,16560,2,0,P|362:159|343:211,1,150
274,276,17560,1,0,0:0:0:0:
274,276,17760,1,8,0:0:0:0:
261,176,18160,6,0,P|176:220|163:275,1,150
358,310,19560,5,0,0:0:0:0:
358,310,19760,2,0,L|455:284,2,100,0|8|0,0:0|0:0|0:0,0:0:0:0:
324,272,20760,2,0,L|303:224,1,50,0|8,0:0|0:0,0:0:0:0:
288,127,21360,6,0,L|159:208,1,150
101,126,22360,2,0,L|159:89,1,50,0|8,0:0|0:0,0:0:0:0:
237,64,22960,2,0,P|322:54|365:115,1,150
275,147,23960,2,0,L|248:195,1,50,0|8,0:0|0:0,0:0:0:0:
150,177,24560,6,0,P|134:265|175:304,1,150
275,193,25760,2,0,L|329:186,1,50,10|2,0:0|0:0,0:0:0:0:
356,147,26160,1,2,0:0:0:0:
297,66,26560,1,10,0:0:0:0:
206,109,26960,1,2,0:0:0:0:
206,109,27160,2,0,P|158:95|112:120,1,100,2|0,0:0|0:0,0:0:0:0:
94,162,27760,6,0,L|81:268,2,100,0|8|0,0:0|0:0|0:0,0:0:0:0:
173,223,28960,1,8,0:0:0:0:
247,173,29360,2,0,L|316:253,1,100,0|8,0:0|0:0,0:0:0:0:
351,281,29960,1,0,0:0:0:0:
400,275,30160,2,0,L|436:176,1,100,0|8,0:0|0:0,0:0:0:0:
495,101,30960,6,0,P|455:86|379:98,1,100,0|8,0:0|0:0,0:0:0:0:
350,104,31560,1,0,0:0:0:0:
307,129,31760,2,0,L|218:179,1,100,0|8,0:0|0:0,0:0:0:0:
87,247,32760,5,2,0:0:0:0:
87,247,32960,2,0,P|110:289|158:314,1,100,10|0,0:0|0:0,0:0:0:0:
251,338,33760,1,8,0:0:0:0:
202,250,34160,6,0,L|290:194,1,100,0|8,0:0|0:0,0:0:0:0:
273,147,34760,2,0,P|252:104|208:73,1,100
160,72,35360,1,8,0:0:0:0:
67,109,35760,2,0,P|46:156|62:200,1,100,0|8,0:0|0:0,0:0:0:0:
158,223,36560,2,0,L|209:248,2,50,0|0|8,0:0|0:0|0:0,0:0:0:0:
153,165,37160,1,0,0:0:0:0:
153,165,37360,5,0,0:0:0:0:
232,104,37760,2,0,L|337:103,1,100,8|0,0:0|0:0,0:0:0:0:
316,201,38560,1,8,0:0:0:0:
256,192,38960,12,0,40160,0:0:0:0:
426,238,40560,6,0,L|427:126,1,100,0|8,0:0|0:0,0:0:0:0:
350,73,41360,2,0,P|306:48|247:56,1,100,0|8,0:0|0:0,0:0:0:0:
211,68,41960,1,0,0:0:0:0:
164,87,42160,2,0,P|190:128|190:184,1,100,0|8,0:0|0:0,0:0:0:0:
97,212,42960,6,0,L|148:275,2,75,0|0|0,0:0|0:0|0:0,0:0:0:0:
124,169,43760,1,0,0:0:0:0:
217,132,44160,1,8,0:0:0:0:
304,181,44560,1,0,0:0:0:0:
392,135,44960,1,8,0:0:0:0:
409,36,45360,2,0,L|492:101,1,100,0|8,0:0|0:0,0:0:0:0:
503,145,45960,1,0,0:0:0:0:
503,195,46160,2,0,L|455:289,1,100,0|8,0:0|0:0,0:0:0:0:
371,232,46960,6,0,P|281:278|180:257,1,200
105,203,48160,1,8,0:0:0:0:
37,129,48560,2,0,P|97:98|139:105,1,100,0|8,0:0|0:0,0:0:0:0:
221,134,49360,1,0,0:0:0:0:
213,134,49760,2,0,L|276:133,1,50
341,156,50160,5,0,0:0:0:0:
338,256,50560,2,0,L|238:256,1,100,8|0,0:0|0:0,0:0:0:0:
139,267,51360,5,8,0:0:0:0:
204,343,51760,2,0,L|308:343,1,100
371,270,52560,5,0,0:0:0:0:
371,270,52960,1,8,0:0:0:0:
256,192,53360,12,0,54560,0:0:0:0:
108,132,54960,6,0,L|205:107,1,100,0|8,0:0|0:0,0:0:0:0:
254,98,55560,1,0,0:0:0:0:
303,106,55760,2,0,P|337:142|328:193,1,100,0|8,0:0|0:0,0:0:0:0:
248,245,56560,5,0,0:0:0:0:
248,245,56960,2,0,P|294:292|330:285,1,100,8|0,0:0|0:0,0:0:0:0:
392,216,57760,1,8,0:0:0:0:
308,160,58160,6,0,P|259:142|211:153,1,100,0|8,0:0|0:0,0:0:0:0:
167,167,58760,1,0,0:0:0:0:
120,185,58960,2,0,L|119:286,1,100,0|8,0:0|0:0,0:0:0:0:
214,316,59760,5,0,0:0:0:0:
286,247,60160,1,8,0:0:0:0:
317,285,60360,1,0,0:0:0:0:
361,320,60560,2,0,L|428:237,1,100,0|8,0:0|0:0,0:0:0:0:
404,144,61360,5,0,0:0:0:0:
340,66,61760,1,8,0:0:0:0:
340,66,61960,1,0,0:0:0:0:
340,66,62160,1,0,0:0:0:0:
224,107,62560,1,8,0:0:0:0:
224,107,62960,6,0,L|134:159,1,100,0|8,0:0|0:0,0:0:0:0:
125,205,63560,1,0,0:0:0:0:
149,248,63760,2,0,L|238:303,1,100,0|8,0:0|0:0,0:0:0:0:
323,255,64560,6,0,L|392:224,2,75,0|0|0,0:0|0:0|0:0,0:0:0:0:
290,216,65360,1,0,0:0:0:0:
204,163,65760,1,8,0:0:0:0:
128,97,66160,6,0,P|97:147|101:189,1,100,0|8,0:0|0:0,0:0:0:0:
106,235,66760,1,0,0:0:0:0:
149,271,66960,2,0,L|199:183,1,100,0|8,0:0|0:0,0:0:0:0:
267,111,67760,6,0,L|368:111,1,100,0|8,0:0|0:0,0:0:0:0:
417,111,68360,1,0,0:0:0:0:
417,111,68560,2,0,P|394:155|426:200,1,100,0|8,0:0|0:0,0:0:0:0:
368,282,69360,6,0,L|294:309,2,75,0|0|0,0:0|0:0|0:0,0:0:0:0:
349,235,70160,1,0,0:0:0:0:
258,192,70560,1,8,0:0:0:0:
173,245,70960,6,0,L|105:164,1,100,0|8,0:0|0:0,0:0:0:0:
105,118,71560,1,0,0:0:0:0:
150,96,71760,2,0,L|222:180,1,100,0|8,0:0|0:0,0:0:0:0:
313,193,72560,5,0,0:0:0:0:
405,232,72960,1,8,0:0:0:0:
454,235,73160,1,0,0:0:0:0:
504,236,73360,1,0,0:0:0:0:
463,327,73760,1,8,0:0:0:0:
371,288,74160,6,0,L|266:289,1,100,0|8,0:0|0:0,0:0:0:0:
221,290,74760,1,0,0:0:0:0:
171,292,74960,2,0,L|70:293,1,100,0|8,0:0|0:0,0:0:0:0:
51,194,75760,6,0,P|108:211|156:209,1,100,0|8,0:0|0:0,0:0:0:0:
181,117,76560,2,0,P|225:146|269:130,1,100,0|8,0:0|0:0,0:0:0:0:
363,103,77360,2,0,L|415:166,2,75,0|0|0,0:0|0:0|0:0,0:0:0:0:
315,85,78160,1,0,0:0:0:0:
219,113,78560,1,8,0:0:0:0:
256,192,78960,12,0,80160,0:0:0:0:
90,84,80560,6,0,B|167:124|96:160|181:198,1,150
226,190,81360,2,0,L|293:109,1,100,0|8,0:0|0:0,0:0:0:0:
390,113,82160,2,0,B|358:161|413:189|364:257,1,150
333,293,82960,1,0,0:0:0:0:
245,342,83360,1,8,0:0:0:0:
163,283,83760,6,0,B|136:224|196:192|170:133,1,150
219,122,84560,2,0,P|251:157|308:168,1,100,0|8,0:0|0:0,0:0:0:0:
387,119,85360,2,0,L|453:199,2,100,0|8|0,0:0|0:0|0:0,0:0:0:0:
346,210,86560,1,8,0:0:0:0:
399,294,86960,6,0,P|326:317|263:264,1,150
254,230,87760,1,0,0:0:0:0:
242,130,88160,1,8,0:0:0:0:
174,47,88560,2,0,P|126:106|133:180,1,150
152,222,89360,2,0,L|246:261,1,100,0|8,0:0|0:0,0:0:0:0:
339,229,90160,5,0,0:0:0:0:
271,95,90760,2,0,P|192:138|127:138,1,150,0|10,0:0|0:0,0:0:0:0:
61,208,91760,2,0,L|135:282,1,100,2|10,0:0|0:0,0:0:0:0:
199,205,92560,2,0,L|273:273,1,100,2|10,0:0|0:0,0:0:0:0:
363,231,93360,6,0,L|376:125,2,100,0|8|0,0:0|0:0|0:0,0:0:0:0:
377,132,94560,1,8,0:0:0:0:
284,167,94960,2,0,L|215:87,1,100,0|8,0:0|0:0,0:0:0:0:
169,97,95560,1,0,0:0:0:0:
121,114,95760,2,0,L|92:219,1,100,0|8,0:0|0:0,0:0:0:0:
27,288,96560,6,0,P|67:303|143:291,1,100,0|8,0:0|0:0,0:0:0:0:
166,273,97160,1,0,0:0:0:0:
207,244,97360,2,0,L|296:194,1,100,0|8,0:0|0:0,0:0:0:0:
416,109,98360,5,2,0:0:0:0:
416,109,98560,2,0,P|393:67|345:42,1,100,10|2,0:0|0:0,0:0:0:0:
251,63,99360,1,10,0:0:0:0:
313,142,99760,2,0,L|225:198,1,100,0|8,0:0|0:0,0:0:0:0:
232,246,100360,2,0,P|253:289|297:320,1,100
344,313,100960,1,8,0:0:0:0:
437,276,101360,6,0,P|458:229|442:185,1,100,0|8,0:0|0:0,0:0:0:0:
346,162,102160,2,0,L|295:137,2,50,0|0|8,0:0|0:0|0:0,0:0:0:0:
351,220,102760,1,0,0:0:0:0:
351,220,102960,1,0,0:0:0:0:
272,281,103360,2,0,L|167:282,1,100,8|0,0:0|0:0,0:0:0:0:
188,184,104160,1,8,0:0:0:0:
256,192,104560,12,0,105760,0:0:0:0:
78,147,106160,6,0,L|77:259,1,100,0|8,0:0|0:0,0:0:0:0:
154,312,106960,2,0,P|198:337|257:329,1,100,0|8,0:0|0:0,0:0:0:0:
293,317,107560,1,0,0:0:0:0:
340,298,107760,2,0,P|314:257|314:201,1,100,0|8,0:0|0:0,0:0:0:0:
407,173,108560,6,0,L|356:110,2,75,0|0|0,0:0|0:0|0:0,0:0:0:0:
380,216,109360,1,0,0:0:0:0:
287,253,109760,1,8,0:0:0:0:
200,204,110160,1,0,0:0:0:0:
112,250,110560,1,8,0:0:0:0:
95,349,110960,2,0,L|12:284,1,100,0|8,0:0|0:0,0:0:0:0:
1,240,111560,1,0,0:0:0:0:
1,190,111760,2,0,L|49:96,1,100,0|8,0:0|0:0,0:0:0:0:
133,153,112560,6,0,P|223:107|324:128,1,200
399,182,113760,1,8,0:0:0:0:
467,256,114160,2,0,P|407:287|365:280,1,100,0|8,0:0|0:0,0:0:0:0:
283,251,114960,1,0,0:0:0:0:
283,251,115260,2,0,L|207:251,1,75
163,229,115760,5,0,0:0:0:0:
166,129,116160,2,0,L|266:129,1,100,8|0,0:0|0:0,0:0:0:0:
365,118,116960,1,8,0:0:0:0:
300,42,117360,2,0,L|196:42,1,100,0|8,0:0|0:0,0:0:0:0:
133,115,118160,1,0,0:0:0:0:
133,115,118560,1,8,0:0:0:0:
256,192,118960,12,0,120160,0:0:0:0:
396,253,120560,6,0,L|299:278,1,100,0|8,0:0|0:0,0:0:0:0:
250,287,121160,1,0,0:0:0:0:
201,279,121360,2,0,P|167:243|176:192,1,100,0|8,0:0|0:0,0:0:0:0:
256,140,122160,5,0,0:0:0:0:
256,140,122560,2,0,P|210:93|174:100,1,100,8|0,0:0|0:0,0:0:0:0:
112,169,123360,1,8,0:0:0:0:
196,225,123760,2,0,P|245:243|293:232,1,100,0|8,0:0|0:0,0:0:0:0:
337,218,124360,1,0,0:0:0:0:
384,200,124560,2,0,L|385:99,1,100,0|8,0:0|0:0,0:0:0:0:
290,69,125360,5,0,0:0:0:0:
218,138,125760,1,8,0:0:0:0:
143,65,126160,2,0,L|76:148,1,100,0|8,0:0|0:0,0:0:0:0:
100,241,126960,5,0,0:0:0:0:
100,241,127360,2,0,P|144:283|190:294,1,100,8|0,0:0|0:0,0:0:0:0:
280,278,128160,1,8,0:0:0:0:
280,278,128560,2,0,L|370:226,1,100,0|8,0:0|0:0,0:0:0:0:
379,180,129160,1,0,0:0:0:0:
355,137,129360,2,0,L|266:82,1,100,0|8,0:0|0:0,0:0:0:0:
181,130,130160,6,0,L|112:161,2,75,0|0|0,0:0|0:0|0:0,0:0:0:0:
214,169,130960,1,0,0:0:0:0:
300,222,131360,1,8,0:0:0:0:
376,288,131760,2,0,P|407:238|403:196,1,100,0|8,0:0|0:0,0:0:0:0:
398,150,132360,1,0,0:0:0:0:
355,114,132560,2,0,L|305:202,1,100,0|8,0:0|0:0,0:0:0:0:
237,274,133360,6,0,L|136:274,1,100,0|8,0:0|0:0,0:0:0:0:
87,274,133960,1,0,0:0:0:0:
87,274,134160,2,0,P|110:230|78:185,1,100,0|8,0:0|0:0,0:0:0:0:
136,103,134960,2,0,L|210:76,2,75,0|0|0,0:0|0:0|0:0,0:0:0:0:
155,150,135760,1,0,0:0:0:0:
246,193,136160,1,8,0:0:0:0:
331,140,136560,6,0,L|399:221,1,100,0|8,0:0|0:0,0:0:0:0:
399,267,137160,1,0,0:0:0:0:
354,289,137360,2,0,L|282:205,1,100,0|8,0:0|0:0,0:0:0:0:
191,192,138160,1,0,0:0:0:0:
191,192,138560,1,8,0:0:0:0:
92,188,138960,1,0,0:0:0:0:
92,188,139360,1,8,0:0:0:0:
133,97,139760,6,0,L|238:96,1,100,0|8,0:0|0:0,0:0:0:0:
283,95,140360,1,0,0:0:0:0:
333,93,140560,2,0,L|434:92,1,100,0|8,0:0|0:0,0:0:0:0:
454,200,141360,2,0,P|399:202|374:166,1,100,0|8,0:0|0:0,0:0:0:0:
315,251,142160,2,0,P|271:222|227:238,1,100,0|8,0:0|0:0,0:0:0:0:
141,282,142960,6,0,L|89:219,2,75,0|0|0,0:0|0:0|0:0,0:0:0:0:
189,300,143760,1,0,0:0:0:0:
285,272,144160,1,8,0:0:0:0:
256,192,144560,12,0,145760,0:0:0:0:
