osu file format v14

[General]
AudioFilename: SaihatenoKotoba.mp3
AudioLeadIn: 1500
PreviewTime: 107323
Countdown: 0
SampleSet: Soft
StackLeniency: 0.7
Mode: 0
LetterboxInBreaks: 0
WidescreenStoryboard: 1

[Editor]
Bookmarks: 43258,68033,92807,145452,170226,195000,247645,291000,328162,362129
DistanceSpacing: 0.7
BeatDivisor: 4
GridSize: 32
TimelineZoom: 2.999999

[Metadata]
Title:Saihate no Kotoba
TitleUnicode:最果てのコトバ
Artist:senya
ArtistUnicode:senya
Creator:Satellite
Version:Ghostly
Source:東方Project
Tags:eLy Touhou Iceon かませ虎 kamasetora 幻視の夜 genshi no yoru Collab Collaboration Eyes 東方永夜抄 Imperishable Night 例大祭 Reitaisai 11 ZUN wriggle nightbug リグルナイトバグ LunarSakuya Giralda Nasya N_a_s_y_a Narcissu dagger-gazel yuuhei ikuo onryo 音霊
BeatmapID:905424
BeatmapSetID:174417

[Difficulty]
HPDrainRate:6
CircleSize:4
OverallDifficulty:8
ApproachRate:8.8
SliderMultiplier:1.6
SliderTickRate:2

[Events]
//Background and Video events
0,0,"BG.jpg",0,0
//Break Periods
2,136362,144823
//Storyboard Layer 0 (Background)
//Storyboard Layer 1 (Fail)
//Storyboard Layer 2 (Pass)
//Storyboard Layer 3 (Foreground)
//Storyboard Sound Samples

[TimingPoints]
-96,387.096774193548,4,1,0,100,1,0
678,-133.333333333333,4,2,1,50,0,0
702,-133.333333333333,4,2,1,5,0,0
1065,-133.333333333333,4,2,1,55,0,0
1452,-133.333333333333,4,2,1,60,0,0
13839,-100,4,2,1,70,0,0
22742,-100,4,2,1,60,0,0
24678,-100,4,2,1,70,0,0
43258,-100,4,2,1,60,0,0
43645,-100,4,2,1,40,0,0
43839,-100,4,2,1,60,0,0
44323,-100,4,2,2,40,0,0
44516,-100,4,2,1,60,0,0
45194,-100,4,2,1,40,0,0
45387,-100,4,2,1,60,0,0
45968,-100,4,2,1,40,0,0
46162,-100,4,2,1,60,0,0
46742,-100,4,2,1,40,0,0
46936,-100,4,2,1,60,0,0
47516,-100,4,2,1,40,0,0
47710,-100,4,2,1,60,0,0
48291,-100,4,2,1,40,0,0
48484,-100,4,2,1,60,0,0
49065,-100,4,2,1,40,0,0
49258,-100,4,2,1,60,0,0
49839,-100,4,2,1,40,0,0
50033,-100,4,2,1,60,0,0
50613,-100,4,2,1,40,0,0
50807,-100,4,2,1,60,0,0
51387,-100,4,2,1,40,0,0
51581,-100,4,2,1,60,0,0
52162,-100,4,2,1,40,0,0
52355,-100,4,2,1,60,0,0
52936,-100,4,2,1,40,0,0
53129,-100,4,2,1,60,0,0
53710,-100,4,2,1,40,0,0
53903,-100,4,2,1,60,0,0
54484,-100,4,2,1,40,0,0
54678,-100,4,2,1,60,0,0
56033,-100,4,2,1,40,0,0
56226,-100,4,2,1,60,0,0
56710,-100,4,2,2,40,0,0
56903,-100,4,2,2,60,0,0
57581,-100,4,2,1,40,0,0
57774,-100,4,2,1,60,0,0
58355,-100,4,2,1,40,0,0
58549,-100,4,2,1,60,0,0
59129,-100,4,2,1,40,0,0
59323,-100,4,2,1,60,0,0
60678,-100,4,2,1,40,0,0
60871,-100,4,2,1,60,0,0
61452,-100,4,2,1,40,0,0
61645,-100,4,2,1,60,0,0
62226,-100,4,2,1,40,0,0
62420,-100,4,2,1,60,0,0
63000,-100,4,2,1,40,0,0
63194,-100,4,2,1,60,0,0
63774,-100,4,2,1,40,0,0
63968,-100,4,2,1,60,0,0
64549,-100,4,2,1,40,0,0
64742,-100,4,2,1,60,0,0
65323,-100,4,2,1,40,0,0
65516,-100,4,2,1,60,0,0
66097,-100,4,2,1,40,0,0
66291,-100,4,2,1,60,0,0
68033,-100,4,2,1,70,0,0
70742,-100,4,2,2,60,0,0
70839,-100,4,2,1,70,0,0
73839,-100,4,2,2,60,0,0
73936,-100,4,2,1,70,0,0
83129,-100,4,2,2,60,0,0
83226,-100,4,2,1,70,0,0
86226,-100,4,2,2,60,0,0
86420,-100,4,2,1,70,0,0
92807,-100,4,2,1,65,0,0
103645,-100,4,2,1,75,0,0
107516,-100,4,2,1,45,0,0
108291,-100,4,2,1,80,0,1
108484,-100,4,2,1,80,0,0
133162,-100,4,2,1,5,0,0
136162,-100,4,2,1,75,0,0
145452,-100,4,2,1,60,0,0
170226,-100,4,2,1,70,0,0
172936,-100,4,2,2,60,0,0
173129,-100,4,2,1,70,0,0
176033,-100,4,2,2,70,0,0
176226,-100,4,2,1,70,0,0
188420,-100,4,2,2,60,0,0
188613,-100,4,2,1,70,0,0
195000,-100,4,2,1,65,0,0
209710,-133.333333333333,4,2,1,40,0,0
210484,-100,4,2,1,80,0,1
210678,-100,4,2,1,80,0,0
235258,-100,4,2,1,70,0,0
247645,-100,4,2,1,80,0,1
260033,-100,4,2,1,80,0,0
263129,-100,4,2,1,60,0,0
290226,-100,4,2,1,45,0,0
291000,-100,4,2,1,85,0,1
291194,-100,4,2,1,85,0,0
315774,-100,4,2,1,85,0,1
315968,-100,4,2,1,85,0,0
340549,-100,4,2,1,75,0,0
356033,-100,4,2,1,5,0,0
362129,-100,4,2,1,45,0,0

[Colours]
Combo1 : 73,7,209
Combo2 : 0,128,64
Combo3 : 159,0,80
Combo4 : 142,255,142

[HitObjects]
140,64,678,6,0,P|121:100|160:168,1,120.000004577637
165,171,1452,5,0,0:0:0:0:
220,108,1645,1,2,0:0:0:0:
83,137,1839,2,0,P|78:171|83:205,1,60.0000022888184,0|2,0:0|0:0,0:0:0:0:
256,192,2226,1,0,0:0:0:0:
143,259,2420,1,2,0:0:0:0:
165,171,2613,1,0,0:0:0:0:
234,280,2807,1,2,0:0:0:0:
347,213,3000,6,0,L|340:152,1,60.0000022888184,0|2,0:0|0:0,0:0:0:0:
269,108,3387,1,0,0:0:0:0:
325,301,3581,2,0,L|386:294,1,60.0000022888184,2|0,0:0|0:0,0:0:0:0:
433,225,3968,1,2,0:0:0:0:
234,280,4162,2,0,L|241:341,1,60.0000022888184,0|2,0:0|0:0,0:0:0:0:
256,192,4549,6,0,B|194:197|194:197|151:155,1,120.000004577637
183,78,5129,1,2,0:0:0:0:
70,187,5323,2,0,L|62:252,1,60.0000022888184,0|2,0:0|0:0,0:0:0:0:
166,337,5710,1,0,0:0:0:0:
150,254,5903,1,2,0:0:0:0:
275,361,6097,5,0,0:0:0:0:
291,244,6291,1,2,0:0:0:0:
166,337,6484,2,0,L|103:341,1,60.0000022888184,0|2,0:0|0:0,0:0:0:0:
185,173,6871,1,0,0:0:0:0:
225,284,7065,1,2,0:0:0:0:
74,208,7258,2,0,L|81:140,1,60.0000022888184,0|2,0:0|0:0,0:0:0:0:
262,43,7645,6,0,L|269:173,1,120.000004577637
291,244,8226,1,2,0:0:0:0:
357,192,8420,2,0,L|418:185,1,60.0000022888184,0|2,0:0|0:0,0:0:0:0:
338,109,8807,1,0,0:0:0:0:
209,226,9000,6,0,B|197:270|197:270|216:353,1,120.000004577637,2|2,0:0|0:0,0:0:0:0:
268,162,9581,2,0,L|212:139,1,60.0000022888184,0|2,0:0|0:0,0:0:0:0:
291,244,9968,2,0,L|338:207,1,60.0000022888184,0|2,0:0|0:0,0:0:0:0:
209,226,10355,1,0,0:0:0:0:
361,289,10549,1,2,0:0:0:0:
268,162,10742,6,0,L|254:289,1,120.000004577637
247,365,11323,1,2,0:0:0:0:
361,289,11516,2,0,L|354:219,1,60.0000022888184,0|2,0:0|0:0,0:0:0:0:
254,281,11903,1,0,0:0:0:0:
370,375,12097,1,2,0:0:0:0:
444,213,12291,6,0,L|367:191,1,60.0000022888184,0|2,0:0|0:0,0:0:0:0:
319,144,12678,2,0,L|304:85,2,60.0000022888184,0|2|0,0:0|0:0|0:0,0:0:0:0:
303,226,13258,2,0,L|259:267,2,60.0000022888184,2|0|0,0:0|0:0|0:0,0:0:0:0:
464,56,13839,5,4,0:0:0:0:
280,104,14033,1,0,0:0:0:0:
280,104,14129,1,0,0:0:0:0:
280,104,14226,2,0,L|272:220,1,80,2|2,0:0|0:0,0:0:0:0:
364,356,14613,1,2,0:0:0:0:
256,304,14807,1,0,0:0:0:0:
256,304,14903,1,2,0:0:0:0:
256,304,15000,1,0,0:0:0:0:
364,356,15194,1,2,0:0:0:0:
148,356,15387,6,0,P|140:312|140:272,1,80,2|0,0:0|0:0,0:0:0:0:
308,184,15774,2,0,P|244:184|196:100,1,160,0|2,0:0|0:0,0:0:0:0:
256,304,16355,1,0,0:0:0:0:
256,304,16452,1,2,0:0:0:0:
256,304,16549,1,0,0:0:0:0:
454,227,16742,1,2,0:0:0:0:
280,104,16936,5,4,0:0:0:0:
364,272,17129,1,0,0:0:0:0:
364,272,17226,1,0,0:0:0:0:
364,272,17323,2,0,P|372:228|368:188,1,80,2|2,0:0|0:0,0:0:0:0:
164,135,17710,2,0,P|196:192|252:220,1,120,2|2,0:0|0:0,0:0:0:0:
242,217,18097,1,0,0:0:0:0:
280,104,18291,1,2,0:0:0:0:
68,80,18484,6,0,P|60:120|60:164,1,80,2|2,0:0|0:0,0:0:0:0:
124,344,18871,2,0,B|208:312|208:376|292:344,1,160,0|2,0:0|0:0,0:0:0:0:
348,136,19452,1,0,0:0:0:0:
348,136,19549,1,2,0:0:0:0:
348,136,19645,1,0,0:0:0:0:
364,272,19839,1,2,0:0:0:0:
164,135,20033,5,4,0:0:0:0:
164,135,21581,5,4,0:0:0:0:
256,372,22355,1,4,0:0:0:0:
288,276,22742,1,0,0:0:0:0:
92,316,23129,5,4,0:0:0:0:
420,316,23516,1,2,0:0:0:0:
332,368,23710,1,0,0:0:0:0:
288,276,23903,2,0,L|292:192,1,80,2|0,0:0|0:0,0:0:0:0:
291,196,24194,1,2,0:0:0:0:
291,196,24291,1,0,0:0:0:0:
332,368,24484,1,2,0:0:0:0:
92,316,24678,5,4,0:0:0:0:
288,276,24871,1,0,0:0:0:0:
180,252,25065,1,2,0:0:0:0:
420,192,25258,5,4,0:0:0:0:
224,152,25452,1,0,0:0:0:0:
332,128,25645,1,2,0:0:0:0:
92,68,25839,5,4,0:0:0:0:
78,92,25936,1,0,0:0:0:0:
72,119,26033,1,0,0:0:0:0:
73,147,26129,1,0,0:0:0:0:
82,174,26226,2,0,L|174:186,1,80,4|2,0:0|0:0,0:0:0:0:
266,77,26613,2,0,L|257:34,2,40,2|0|0,0:0|0:0|0:0,0:0:0:0:
370,193,27000,6,0,P|361:233|356:279,1,80,2|2,0:0|0:0,0:0:0:0:
364,323,27291,1,0,0:0:0:0:
364,323,27387,1,2,0:0:0:0:
265,227,27581,2,0,P|223:220|154:319,1,160,2|2,0:0|0:0,0:0:0:0:
288,120,28162,2,0,P|295:81|296:41,1,80,2|0,0:0|0:0,0:0:0:0:
184,152,28549,5,2,0:0:0:0:
370,193,28742,1,0,0:0:0:0:
295,40,28936,1,2,0:0:0:0:
255,296,29129,1,2,0:0:0:0:
470,188,29323,6,0,P|456:140|339:95,1,160,4|2,0:0|0:0,0:0:0:0:
217,223,29903,1,0,0:0:0:0:
370,193,30097,1,2,0:0:0:0:
218,57,30291,1,0,0:0:0:0:
218,57,30387,1,2,0:0:0:0:
218,57,30484,2,0,P|199:97|196:135,1,80,0|2,0:0|0:0,0:0:0:0:
332,294,30871,6,0,P|293:228|217:222,1,160,2|2,0:0|0:0,0:0:0:0:
153,305,31452,1,0,0:0:0:0:
57,173,31645,2,0,L|62:253,1,80,2|0,0:0|0:0,0:0:0:0:
255,296,32033,1,2,0:0:0:0:
141,112,32226,1,2,0:0:0:0:
74,334,32420,6,0,P|107:375|218:355,2,160,4|2|2,0:0|0:0|0:0,0:0:0:0:
197,207,33387,1,0,0:0:0:0:
255,296,33581,1,2,0:0:0:0:
103,232,33774,1,2,0:0:0:0:
294,124,33968,6,0,L|301:214,1,80,4|0,0:0|0:0,0:0:0:0:
153,305,34355,1,2,0:0:0:0:
153,305,34742,2,0,L|241:294,1,80,2|0,0:0|0:0,0:0:0:0:
382,274,35129,1,2,0:0:0:0:
197,207,35323,1,2,0:0:0:0:
396,92,35516,6,0,L|403:182,1,80,4|0,0:0|0:0,0:0:0:0:
286,32,35903,1,2,0:0:0:0:
286,32,36291,2,0,L|276:123,1,80,4|0,0:0|0:0,0:0:0:0:
92,218,36678,1,2,0:0:0:0:
257,294,36871,1,0,0:0:0:0:
133,125,37065,5,2,0:0:0:0:
159,297,37258,1,0,0:0:0:0:
295,188,37452,2,0,P|276:182|256:181,3,40,2|0|0|0,0:0|0:0|0:0|0:0,0:0:0:0:
199,202,37839,5,2,0:0:0:0:
363,276,38033,1,0,0:0:0:0:
363,276,38129,1,2,0:0:0:0:
363,276,38226,1,0,0:0:0:0:
345,97,38420,1,2,0:0:0:0:
257,294,38613,5,0,0:0:0:0:
417,179,38807,1,2,0:0:0:0:
239,105,39000,1,2,0:0:0:0:
218,123,39097,1,0,0:0:0:0:
204,147,39194,1,2,0:0:0:0:
197,175,39291,1,0,0:0:0:0:
199,202,39387,6,0,L|206:244,3,40,4|0|0|0,0:0|0:0|0:0|0:0,0:0:0:0:
295,309,39774,2,0,L|257:294,3,40,2|0|0|0,0:0|0:0|0:0|0:0,0:0:0:0:
184,312,40162,1,4,0:0:0:0:
388,192,43258,6,0,P|392:236|384:276,1,80,2|0,0:0|0:0,0:0:0:0:
288,164,43645,1,8,0:0:0:0:
360,92,43839,1,2,0:0:0:0:
196,120,44033,2,0,L|60:104,2,120,2|2|0,0:0|0:0|0:0,0:0:0:0:
148,220,44807,6,0,P|136:264|144:312,1,80,2|0,0:0|0:0,0:0:0:0:
280,160,45194,2,0,P|288:116|268:60,1,80,8|0,0:0|0:0,0:0:0:0:
224,272,45581,2,0,P|304:292|388:268,1,160,2|8,0:0|0:0,0:0:0:0:
368,144,46162,1,2,0:0:0:0:
208,192,46355,5,2,0:0:0:0:
168,328,46549,1,0,0:0:0:0:
284,216,46742,1,8,0:0:0:0:
148,248,46936,1,2,0:0:0:0:
188,112,47129,2,0,P|232:84|272:80,1,80,2|0,0:0|0:0,0:0:0:0:
312,76,47420,1,2,0:0:0:0:
312,76,47516,2,0,L|408:92,1,80,8|2,0:0|0:0,0:0:0:0:
288,252,47903,6,0,P|280:300|288:340,1,80,2|0,0:0|0:0,0:0:0:0:
440,204,48291,2,0,P|400:192|352:192,1,80,8|2,0:0|0:0,0:0:0:0:
216,252,48678,2,0,P|271:178|244:94,1,160,0|10,0:0|0:0,0:0:0:0:
120,208,49258,1,0,0:0:0:0:
64,288,49452,6,0,P|36:256|24:208,1,80,2|0,0:0|0:0,0:0:0:0:
148,135,49839,2,0,P|140:179|116:211,1,80,8|2,0:0|0:0,0:0:0:0:
104,32,50226,2,0,L|276:48,1,160,0|8,0:0|0:0,0:0:0:0:
318,209,50807,1,0,0:0:0:0:
248,148,51000,6,0,P|284:124|340:120,1,80,2|0,0:0|0:0,0:0:0:0:
408,228,51387,2,0,P|392:264|348:296,1,80,8|0,0:0|0:0,0:0:0:0:
244,228,51774,2,0,B|200:212|160:228|160:228|120:244|76:224,1,160,2|8,0:0|0:0,0:0:0:0:
200,324,52355,1,0,0:0:0:0:
324,248,52549,6,0,P|368:240|408:248,1,80,2|0,0:0|0:0,0:0:0:0:
184,332,52936,2,0,P|136:324|88:332,1,80,8|0,0:0|0:0,0:0:0:0:
244,228,53323,2,0,P|276:152|244:72,1,160,2|8,0:0|0:0,0:0:0:0:
124,128,53903,1,0,0:0:0:0:
200,240,54097,5,2,0:0:0:0:
204,96,54291,1,0,0:0:0:0:
104,224,54484,1,8,0:0:0:0:
232,324,54678,1,2,0:0:0:0:
104,224,54871,1,8,3:0:0:0:
76,320,55065,1,2,3:0:0:0:
64,144,55258,1,8,3:0:0:0:
16,240,55452,1,2,3:0:0:0:
184,160,55645,6,0,P|260:144|348:200,1,160,2|8,0:0|0:0,0:0:0:0:
356,312,56226,1,2,0:0:0:0:
264,224,56420,2,0,B|260:180|260:180|268:144|268:144|260:84,2,120,2|2|0,0:0|0:0|0:0,0:0:0:0:
152,160,57194,6,0,L|148:76,1,80,2|0,0:0|0:0,0:0:0:0:
352,196,57581,2,0,L|372:112,1,80,8|2,0:0|0:0,0:0:0:0:
220,220,57968,2,0,P|192:240|140:248,1,80,0|2,0:0|0:0,0:0:0:0:
80,112,58355,1,8,0:0:0:0:
232,144,58549,1,2,0:0:0:0:
56,228,58742,6,0,L|48:144,1,80,2|0,0:0|0:0,0:0:0:0:
248,240,59129,2,0,L|256:324,1,80,8|0,0:0|0:0,0:0:0:0:
160,180,59516,2,0,L|184:84,1,80,2|0,0:0|0:0,0:0:0:0:
248,68,59807,2,0,P|300:80|348:64,1,80,2|0,0:0|0:0,0:0:0:0:
392,36,60097,1,0,0:0:0:0:
264,176,60291,6,0,L|280:352,1,160,2|8,0:0|0:0,0:0:0:0:
176,240,60871,1,2,0:0:0:0:
356,296,61065,2,0,P|398:299|440:292,1,80,0|2,0:0|0:0,0:0:0:0:
336,192,61452,1,8,0:0:0:0:
280,324,61645,1,2,0:0:0:0:
428,208,61839,6,0,P|428:168|400:116,1,80,2|0,0:0|0:0,0:0:0:0:
224,184,62226,2,0,B|164:192|164:192|108:172|108:172|48:180,2,160,8|2|8,0:0|0:0|0:0,0:0:0:0:
176,96,63194,1,2,0:0:0:0:
104,256,63387,6,0,P|96:300|100:352,1,80,0|2,0:0|0:0,0:0:0:0:
248,368,63774,2,0,P|256:324|252:272,1,80,8|0,0:0|0:0,0:0:0:0:
144,136,64162,2,0,L|240:128,1,80,2|0,0:0|0:0,0:0:0:0:
328,208,64549,1,8,0:0:0:0:
460,164,64742,5,2,0:0:0:0:
460,164,64839,1,0,0:0:0:0:
460,164,64936,2,0,P|472:204|460:252,1,80,2|0,0:0|0:0,0:0:0:0:
368,296,65323,1,8,0:0:0:0:
384,128,65516,1,2,0:0:0:0:
240,204,65710,2,0,L|256:296,1,80,0|2,0:0|0:0,0:0:0:0:
368,208,66097,1,8,0:0:0:0:
277,96,66291,1,2,0:0:0:0:
148,160,66484,5,2,0:0:0:0:
139,190,66581,1,0,0:0:0:0:
139,222,66678,1,0,0:0:0:0:
148,252,66774,1,0,0:0:0:0:
166,278,66871,2,0,L|210:281,1,40,2|0,0:0|0:0,0:0:0:0:
279,201,67065,2,0,L|239:203,1,40,2|0,0:0|0:0,0:0:0:0:
139,367,67258,6,0,L|179:365,3,40,2|0|2|0,3:0|0:0|3:0|0:0,0:0:0:0:
219,374,67645,1,2,0:0:0:0:
249,365,67742,1,0,0:0:0:0:
275,347,67839,1,2,0:0:0:0:
292,320,67936,1,0,0:0:0:0:
299,288,68033,6,0,B|292:202|292:202|265:231,1,120,4|0,0:0|0:0,0:0:0:0:
205,280,68420,2,0,L|121:274,1,80,8|0,0:0|0:0,0:0:0:0:
81,129,68807,1,2,0:0:0:0:
210,195,69000,1,0,0:0:0:0:
35,264,69194,1,8,0:0:0:0:
171,111,69387,1,2,0:0:0:0:
283,240,69581,6,0,B|269:286|270:326|270:326|236:345,1,120,2|0,0:0|0:0,0:0:0:0:
168,374,69968,2,0,P|123:364|80:362,1,80,8|0,0:0|0:0,0:0:0:0:
210,195,70355,1,2,0:0:0:0:
35,264,70549,2,0,P|109:262|194:280,1,160,2|2,0:0|0:0,0:0:0:0:
365,351,71129,6,0,P|379:315|380:266,1,80,2|0,0:0|0:0,0:0:0:0:
284,156,71516,2,0,L|365:137,1,80,8|0,0:0|0:0,0:0:0:0:
192,279,71903,2,0,P|152:264|130:160,1,160,2|8,0:0|0:0,0:0:0:0:
283,240,72484,1,2,0:0:0:0:
209,97,72678,6,0,P|207:56|213:10,1,80,0|2,0:0|0:0,0:0:0:0:
362,204,73065,1,8,0:0:0:0:
206,199,73258,1,2,0:0:0:0:
364,117,73452,1,2,0:0:0:0:
360,294,73645,2,0,P|316:324|218:302,1,160,2|2,0:0|0:0,0:0:0:0:
115,146,74226,6,0,L|105:231,1,80,0|2,0:0|0:0,0:0:0:0:
209,97,74613,2,0,L|199:55,2,40,10|0|0,0:0|0:0|0:0,0:0:0:0:
283,240,75000,2,0,L|408:251,1,120,2|0,0:0|0:0,0:0:0:0:
471,209,75387,1,8,0:0:0:0:
383,343,75581,1,2,0:0:0:0:
364,117,75774,5,2,0:0:0:0:
358,127,76162,2,0,P|361:88|383:51,1,80,8|2,0:0|0:0,0:0:0:0:
402,250,76549,1,2,0:0:0:0:
275,153,76742,1,2,0:0:0:0:
451,119,76936,2,0,L|446:158,2,40,10|0|0,0:0|0:0|0:0,0:0:0:0:
302,248,77323,6,0,L|308:328,1,80,4|2,0:0|0:0,0:0:0:0:
184,160,77710,1,2,0:0:0:0:
152,164,77807,1,2,0:0:0:0:
120,166,77903,1,2,0:0:0:0:
222,67,78097,5,6,0:0:0:0:
206,256,78291,1,2,0:0:0:0:
174,260,78387,1,2,0:0:0:0:
142,264,78484,1,2,0:0:0:0:
110,265,78581,1,0,0:0:0:0:
79,257,78678,1,2,0:0:0:0:
52,239,78774,1,2,0:0:0:0:
33,214,78871,6,0,B|25:135|25:135|46:101,1,120,6|0,0:0|0:0,0:0:0:0:
105,46,79258,1,8,0:0:0:0:
206,256,79452,1,2,0:0:0:0:
222,67,79645,1,6,0:0:0:0:
120,165,79839,1,2,0:0:0:0:
328,199,80033,5,6,0:0:0:0:
328,199,80129,1,0,0:0:0:0:
328,199,80226,1,2,0:0:0:0:
328,199,80323,1,0,0:0:0:0:
328,199,80420,2,0,P|358:157|351:88,1,120,6|0,0:0|0:0,0:0:0:0:
279,59,80807,2,0,L|195:69,1,80,8|0,0:0|0:0,0:0:0:0:
115,251,81194,5,2,0:0:0:0:
246,148,81387,1,0,0:0:0:0:
257,343,81581,1,8,0:0:0:0:
146,157,81774,1,2,0:0:0:0:
328,199,81968,6,0,P|348:255|330:319,1,120,2|0,0:0|0:0,0:0:0:0:
257,343,82355,2,0,L|176:349,1,80,8|2,0:0|0:0,0:0:0:0:
246,148,82742,1,2,0:0:0:0:
103,271,82936,2,0,L|263:259,1,160,2|2,0:0|0:0,0:0:0:0:
452,241,83516,6,0,P|445:281|434:326,1,80,4|2,0:0|0:0,0:0:0:0:
329,199,83903,1,8,0:0:0:0:
454,132,84097,1,2,0:0:0:0:
246,148,84291,1,4,0:0:0:0:
357,289,84484,1,2,0:0:0:0:
333,97,84678,1,8,0:0:0:0:
241,247,84871,1,2,0:0:0:0:
412,153,85065,6,0,P|429:107|375:7,1,160,2|8,0:0|0:0,0:0:0:0:
179,97,85645,1,2,0:0:0:0:
333,97,85839,1,2,0:0:0:0:
128,12,86033,2,0,P|84:76|100:153,1,160,2|2,0:0|0:0,0:0:0:0:
236,332,86613,6,0,B|260:232|260:232|232:176,1,160,2|8,0:0|0:0,0:0:0:0:
147,274,87194,1,2,0:0:0:0:
179,97,87387,2,0,P|222:80|321:129,1,160,2|8,0:0|0:0,0:0:0:0:
360,246,87968,1,2,0:0:0:0:
234,180,88162,6,0,L|219:259,1,80,2|0,0:0|0:0,0:0:0:0:
318,125,88549,2,0,L|302:46,1,80,8|0,0:0|0:0,0:0:0:0:
360,246,88936,2,0,B|411:231|435:167|435:167|425:109,1,160,2|8,0:0|0:0,0:0:0:0:
179,97,89516,1,2,0:0:0:0:
376,42,89710,5,4,0:0:0:0:
138,177,89903,1,2,0:0:0:0:
264,72,90097,1,8,0:0:0:0:
268,100,90194,1,2,0:0:0:0:
274,128,90291,1,2,0:0:0:0:
144,23,90484,5,4,0:0:0:0:
377,137,90678,1,2,0:0:0:0:
371,168,90774,1,2,0:0:0:0:
355,196,90871,1,2,0:0:0:0:
331,217,90968,1,0,0:0:0:0:
302,230,91065,1,2,0:0:0:0:
270,232,91162,1,2,0:0:0:0:
239,224,91258,5,4,0:0:0:0:
264,72,91452,1,2,0:0:0:0:
138,177,91645,1,8,0:0:0:0:
134,205,91742,1,2,0:0:0:0:
130,233,91839,1,2,0:0:0:0:
313,325,92033,5,6,0:0:0:0:
313,325,92129,1,0,0:0:0:0:
313,325,92226,1,2,0:0:0:0:
313,325,92323,1,0,0:0:0:0:
313,325,92420,2,2,P|294:286|214:245,1,120,2|0,1:0|0:0,1:0:0:0:
173,318,92807,5,2,0:0:0:0:
247,161,93000,1,0,0:0:0:0:
152,232,93194,2,0,L|236:248,1,80,8|0,0:0|0:0,0:0:0:0:
138,129,93581,1,2,0:0:0:0:
63,258,93774,1,0,0:0:0:0:
152,116,93968,2,0,L|136:32,1,80,8|0,0:0|0:0,0:0:0:0:
256,176,94355,5,2,0:0:0:0:
368,128,94549,1,0,0:0:0:0:
284,264,94742,2,0,P|276:308|280:356,1,80,8|0,0:0|0:0,0:0:0:0:
336,200,95129,1,2,0:0:0:0:
208,304,95323,1,0,0:0:0:0:
420,280,95516,2,0,P|422:243|412:188,1,80,8|0,0:0|0:0,0:0:0:0:
172,168,95903,6,0,L|260:176,1,80,2|0,0:0|0:0,0:0:0:0:
124,96,96291,1,8,0:0:0:0:
256,56,96484,1,0,0:0:0:0:
136,248,96678,2,0,L|216:304,1,80,2|0,0:0|0:0,0:0:0:0:
56,212,97065,1,8,0:0:0:0:
72,340,97258,1,0,0:0:0:0:
224,192,97452,6,0,P|232:144|220:96,1,80,2|0,0:0|0:0,0:0:0:0:
352,264,97839,2,0,P|348:308|364:352,1,80,8|0,0:0|0:0,0:0:0:0:
196,276,98226,2,0,P|160:264|108:264,1,80,2|0,0:0|0:0,0:0:0:0:
336,176,98613,2,0,P|372:152|436:144,1,80,8|0,0:0|0:0,0:0:0:0:
196,276,99000,6,0,B|156:276|128:260|128:260|92:264|92:264|60:244|24:252,1,160,4|8,0:0|0:0,0:0:0:0:
68,112,99581,1,0,0:0:0:0:
196,188,99774,2,0,P|236:164|260:124,1,80,2|0,0:0|0:0,0:0:0:0:
136,36,100162,1,8,0:0:0:0:
104,204,100355,5,0,0:0:0:0:
104,204,100452,1,0,0:0:0:0:
104,204,100549,2,0,L|120:288,1,80,2|0,0:0|0:0,0:0:0:0:
308,136,100936,2,0,L|288:224,1,80,8|0,0:0|0:0,0:0:0:0:
12,196,101323,2,0,P|24:156|60:124,1,80,2|0,0:0|0:0,0:0:0:0:
260,296,101710,2,0,P|212:296|172:272,1,80,8|0,0:0|0:0,0:0:0:0:
328,168,102097,5,4,0:0:0:0:
358,289,102291,1,2,0:0:0:0:
242,88,102484,2,0,L|250:46,2,40,10|0|2,0:0|0:0|0:0,0:0:0:0:
183,282,102871,5,4,0:0:0:0:
183,282,102968,1,0,0:0:0:0:
183,282,103065,1,2,0:0:0:0:
183,282,103162,1,0,0:0:0:0:
183,282,103258,1,8,0:0:0:0:
328,168,103452,1,2,0:0:0:0:
96,226,103645,5,4,0:0:0:0:
83,255,103742,1,0,0:0:0:0:
81,287,103839,1,2,0:0:0:0:
88,318,103936,1,0,0:0:0:0:
104,345,104033,1,8,0:0:0:0:
128,366,104129,1,0,0:0:0:0:
158,379,104226,1,2,0:0:0:0:
189,382,104323,1,0,0:0:0:0:
221,375,104420,6,0,L|234:329,3,40,6|0|0|0,0:0|0:0|0:0|0:0,0:0:0:0:
285,255,104807,2,0,L|272:208,3,40,6|0|0|0,0:0|0:0|0:0|0:0,0:0:0:0:
213,140,105194,1,4,1:0:0:0:
144,124,107516,5,8,0:3:0:0:
260,88,107710,1,0,0:0:0:0:
260,88,107807,1,0,0:0:0:0:
260,88,107903,1,4,0:3:0:0:
228,208,108097,1,2,0:0:0:0:
56,140,108291,6,0,P|68:72|168:40,1,160,4|8,0:0|0:0,0:0:0:0:
308,160,108871,1,0,0:0:0:0:
148,232,109065,2,0,P|100:228|56:236,1,80,2|0,0:0|0:0,0:0:0:0:
240,344,109452,2,0,P|288:316|308:284,1,80,8|0,0:0|0:0,0:0:0:0:
232,112,109839,6,0,P|216:160|252:232,1,120,2|0,0:0|0:0,0:0:0:0:
292,244,110226,1,8,0:0:0:0:
280,48,110420,2,0,B|236:28|200:44|200:44|164:60|116:40,1,160,2|0,0:0|0:0,0:0:0:0:
359,102,111000,2,0,P|372:61|368:20,1,80,8|0,0:0|0:0,0:0:0:0:
144,132,111387,6,0,P|144:172|160:216,1,80,4|0,0:0|0:0,0:0:0:0:
324,340,111774,2,0,P|340:288|336:248,1,80,8|0,0:0|0:0,0:0:0:0:
128,344,112162,2,0,L|212:336,1,80,2|0,0:0|0:0,0:0:0:0:
416,216,112549,2,0,L|328:200,1,80,8|0,0:0|0:0,0:0:0:0:
140,248,112936,6,0,P|176:216|180:124,1,120,2|0,0:0|0:0,0:0:0:0:
172,96,113323,1,8,0:0:0:0:
36,200,113516,1,0,0:0:0:0:
80,32,113710,2,0,L|92:120,1,80,2|0,0:0|0:0,0:0:0:0:
347,50,114097,2,0,P|305:43|264:52,1,80,8|0,0:0|0:0,0:0:0:0:
292,288,114484,6,0,P|328:240|304:136,1,160,4|8,0:0|0:0,0:0:0:0:
196,260,115065,1,0,0:0:0:0:
152,132,115258,2,0,L|168:44,1,80,2|0,0:0|0:0,0:0:0:0:
236,124,115645,1,8,0:0:0:0:
88,192,115839,1,2,0:0:0:0:
252,220,116033,2,0,P|240:260|200:288,1,80
303,111,116420,6,0,P|337:137|358:174,1,80,8|0,0:0|0:0,0:0:0:0:
136,200,116807,2,0,P|120:240|120:288,1,80,2|0,0:0|0:0,0:0:0:0:
272,332,117194,1,8,0:0:0:0:
252,220,117387,1,0,0:0:0:0:
116,328,117581,6,0,L|20:312,1,80,4|0,0:0|0:0,0:0:0:0:
324,264,117968,2,0,L|416:232,1,80,8|0,0:0|0:0,0:0:0:0:
196,276,118355,1,2,0:0:0:0:
264,140,118549,1,0,0:0:0:0:
264,140,118645,1,0,0:0:0:0:
264,140,118742,2,0,L|252:52,1,80,8|0,0:0|0:0,0:0:0:0:
416,140,119129,5,2,0:0:0:0:
428,172,119226,1,0,0:0:0:0:
428,208,119323,1,0,0:0:0:0:
412,240,119420,1,0,0:0:0:0:
388,264,119516,1,8,0:0:0:0:
252,228,119710,1,0,0:0:0:0:
344,80,119903,2,0,P|376:56|428:48,1,80,2|0,0:0|0:0,0:0:0:0:
444,344,120291,2,0,P|400:356|356:352,1,80,8|0,0:0|0:0,0:0:0:0:
300,296,120581,1,0,0:0:0:0:
300,296,120678,6,0,L|328:212,1,80,4|0,0:0|0:0,0:0:0:0:
180,280,121065,2,0,L|212:376,1,80,10|0,0:0|0:0,0:0:0:0:
404,208,121452,2,0,L|372:112,1,80,2|0,0:0|0:0,0:0:0:0:
160,220,121839,2,0,L|128:308,1,80,10|0,0:0|0:0,0:0:0:0:
300,104,122226,5,2,0:0:0:0:
328,236,122420,1,0,0:0:0:0:
208,120,122613,2,0,P|168:108|120:116,1,80,10|0,0:0|0:0,0:0:0:0:
240,296,123000,1,2,0:0:0:0:
360,160,123194,1,0,0:0:0:0:
180,216,123387,2,0,P|152:244|140:296,1,80,10|0,0:0|0:0,0:0:0:0:
416,340,123774,6,0,P|428:300|424:244,1,80,2|0,0:0|0:0,0:0:0:0:
240,296,124162,2,0,P|196:284|148:292,1,80,10|0,0:0|0:0,0:0:0:0:
364,272,124549,2,0,P|393:242|410:203,1,80,2|0,0:0|0:0,0:0:0:0:
152,348,124936,2,0,P|128:312|80:284,1,80,10|0,0:0|0:0,0:0:0:0:
224,116,125323,5,2,0:0:0:0:
192,260,125516,1,2,0:0:0:0:
356,168,125710,2,0,P|388:148|436:140,1,80,10|0,0:0|0:0,0:0:0:0:
248,200,126097,1,2,0:0:0:0:
304,48,126291,1,2,0:0:0:0:
132,196,126484,2,0,P|100:204|32:192,1,80,10|0,0:0|0:0,0:0:0:0:
248,12,126871,6,0,P|280:92|260:184,1,160,4|8,0:0|0:0,0:0:0:0:
380,64,127452,1,0,0:0:0:0:
380,64,127549,1,0,0:0:0:0:
380,64,127645,2,0,L|416:144,1,80,4|0,0:0|0:0,0:0:0:0:
200,176,128033,2,0,L|172:264,1,80,10|0,0:0|0:0,0:0:0:0:
372,332,128420,6,0,P|356:292|320:264,1,80,4|0,0:0|0:0,0:0:0:0:
111,170,128807,2,0,P|122:130|152:100,1,80,10|0,0:0|0:0,0:0:0:0:
408,136,129194,2,0,P|360:140|312:120,1,80,2|0,0:0|0:0,0:0:0:0:
96,272,129581,2,0,P|137:254|180:258,1,80,10|0,0:0|0:0,0:0:0:0:
316,336,129968,5,4,0:0:0:0:
244,168,130162,1,0,0:0:0:0:
244,168,130258,1,0,0:0:0:0:
244,168,130355,2,0,P|232:124|244:76,1,80,8|0,0:0|0:0,0:0:0:0:
476,188,130742,2,0,L|452:232,1,40,2|0,0:0|0:0,0:0:0:0:
420,332,130936,2,0,L|400:280,1,40,2|0,0:0|0:0,0:0:0:0:
352,224,131129,1,10,0:0:0:0:
312,220,131226,1,0,0:0:0:0:
276,232,131323,1,2,0:0:0:0:
244,256,131420,1,0,0:0:0:0:
220,288,131516,6,0,L|196:196,1,80,4|0,0:0|0:0,0:0:0:0:
332,344,131903,1,8,0:0:0:0:
432,236,132097,2,0,L|448:144,1,80,4|0,0:0|0:0,0:0:0:0:
304,328,132484,1,0,0:0:0:0:
184,188,132678,1,10,0:0:0:0:
152,168,132774,1,0,0:0:0:0:
116,160,132871,1,0,0:0:0:0:
80,164,132968,1,0,0:0:0:0:
44,180,133065,1,4,0:0:0:0:
256,192,133162,12,4,136162,0:0:0:0:
255,187,145452,6,0,P|260:148|261:102,1,80,4|0,0:0|0:0,0:0:0:0:
173,234,145839,1,8,0:0:0:0:
338,190,146033,1,0,0:0:0:0:
174,145,146226,2,0,B|155:108|155:108|145:29,2,120,2|2|2,0:0|0:0|0:0,0:0:0:0:
338,190,147000,6,0,L|419:173,1,80,2|0,0:0|0:0,0:0:0:0:
255,278,147387,2,0,P|249:325|248:360,1,80,8|2,0:0|0:0,0:0:0:0:
397,266,147774,1,0,0:0:0:0:
241,189,147968,1,2,0:0:0:0:
339,335,148162,1,8,0:0:0:0:
289,110,148355,1,2,0:0:0:0:
165,248,148549,6,0,P|123:251|85:242,1,80,0|2,0:0|0:0,0:0:0:0:
255,278,148936,2,0,L|263:363,1,80,8|2,0:0|0:0,0:0:0:0:
154,158,149323,1,2,0:0:0:0:
325,221,149516,2,0,L|366:213,2,40,2|0|8,0:0|0:0|0:0,0:0:0:0:
165,248,149903,1,2,0:0:0:0:
289,135,150097,6,0,L|296:53,1,80,2|0,0:0|0:0,0:0:0:0:
154,158,150484,2,0,L|112:153,2,40,8|0|2,0:0|0:0|0:0,0:0:0:0:
325,221,150871,1,0,0:0:0:0:
165,248,151065,1,2,0:0:0:0:
289,135,151258,1,8,0:0:0:0:
254,279,151452,1,2,0:0:0:0:
210,92,151645,6,0,B|222:53|224:8|224:8|248:44,1,120,2|0,0:0|0:0,0:0:0:0:
313,85,152033,2,0,P|352:89|396:89,1,80,8|2,0:0|0:0,0:0:0:0:
269,175,152420,1,0,0:0:0:0:
415,273,152613,1,2,0:0:0:0:
254,279,152807,1,8,0:0:0:0:
373,169,153000,1,2,0:0:0:0:
321,365,153194,6,0,L|234:358,1,80,0|2,0:0|0:0,0:0:0:0:
34,301,153581,1,8,0:0:0:0:
65,299,153678,1,0,0:0:0:0:
95,286,153774,1,2,0:0:0:0:
118,264,153871,1,0,0:0:0:0:
132,236,153968,2,0,L|123:157,1,80,0|2,0:0|0:0,0:0:0:0:
315,219,154355,1,8,0:0:0:0:
230,98,154549,6,0,L|220:260,1,160,2|2,0:0|0:0,0:0:0:0:
374,169,155129,2,0,L|421:173,2,40,8|0|2,0:0|0:0|0:0,0:0:0:0:
151,146,155516,1,2,0:0:0:0:
315,106,155710,1,0,0:0:0:0:
315,106,155807,1,2,0:0:0:0:
315,106,155903,1,8,0:0:0:0:
132,236,156097,1,2,0:0:0:0:
352,282,156291,5,0,0:0:0:0:
228,221,156484,1,2,0:0:0:0:
260,311,156678,1,10,0:0:0:0:
320,192,156871,1,2,0:0:0:0:
161,295,157065,5,8,3:0:0:0:
332,381,157258,1,2,3:0:0:0:
417,205,157452,1,8,3:0:0:0:
249,122,157645,1,2,3:0:0:0:
352,282,157839,6,0,P|365:202|358:119,1,160,4|8,0:0|0:0,0:0:0:0:
175,196,158420,1,2,0:0:0:0:
319,48,158613,1,0,0:0:0:0:
280,214,158807,1,2,0:0:0:0:
280,214,158903,1,2,0:0:0:0:
280,214,159000,1,8,0:0:0:0:
154,99,159194,1,2,0:0:0:0:
349,142,159387,6,0,B|374:178|374:178|376:264,1,120,2|0,0:0|0:0,0:0:0:0:
351,295,159774,1,8,0:0:0:0:
249,122,159968,1,2,0:0:0:0:
214,289,160162,1,0,0:0:0:0:
349,142,160355,1,2,0:0:0:0:
175,196,160549,2,0,L|96:184,1,80,8|2,0:0|0:0,0:0:0:0:
249,122,160936,5,0,0:0:0:0:
214,289,161129,1,2,0:0:0:0:
154,99,161323,1,8,0:0:0:0:
280,214,161516,1,2,0:0:0:0:
316,45,161710,2,0,P|279:24|197:34,2,120,2|2|2,0:0|0:0|0:0,0:0:0:0:
417,205,162484,6,0,P|414:244|404:290,1,80,2|0,0:0|0:0,0:0:0:0:
280,214,162871,1,8,0:0:0:0:
376,119,163065,1,2,0:0:0:0:
310,304,163258,2,0,B|204:322|244:264|157:280,1,160,2|8,0:0|0:0,0:0:0:0:
53,134,163839,1,2,0:0:0:0:
102,357,164033,6,0,P|115:307|112:200,1,160,2|8,0:0|0:0,0:0:0:0:
236,99,164613,1,2,0:0:0:0:
236,99,164807,2,0,P|229:178|245:256,1,160,0|8,0:0|0:0,0:0:0:0:
324,42,165387,1,2,0:0:0:0:
141,51,165581,6,0,L|130:139,1,80,0|2,0:0|0:0,0:0:0:0:
322,209,165968,1,8,0:0:0:0:
236,99,166162,1,2,0:0:0:0:
263,292,166355,1,0,0:0:0:0:
406,146,166549,1,2,0:0:0:0:
221,200,166742,1,8,0:0:0:0:
448,238,166936,1,2,0:0:0:0:
279,113,167129,6,0,P|272:196|282:280,1,160,0|8,0:0|0:0,0:0:0:0:
363,63,167710,1,2,0:0:0:0:
187,70,167903,2,0,L|183:151,1,80,0|2,0:0|0:0,0:0:0:0:
368,164,168291,1,8,0:0:0:0:
273,16,168484,1,2,0:0:0:0:
140,251,168678,5,2,0:0:0:0:
170,260,168774,1,0,0:0:0:0:
202,260,168871,1,0,0:0:0:0:
232,251,168968,1,0,0:0:0:0:
258,233,169065,2,0,L|261:189,1,40,2|0,0:0|0:0,0:0:0:0:
181,120,169258,2,0,L|183:160,1,40,2|0,0:0|0:0,0:0:0:0:
347,259,169452,6,0,L|345:220,3,40,2|0|2|0,3:0|0:0|3:0|0:0,0:0:0:0:
354,180,169839,1,2,0:0:0:0:
345,150,169936,1,0,0:0:0:0:
327,123,170033,1,2,0:0:0:0:
300,107,170129,1,0,0:0:0:0:
268,100,170226,6,0,P|224:112|176:112,1,80,4|0,0:0|0:0,0:0:0:0:
380,160,170613,2,0,P|396:112|416:84,1,80,8|0,0:0|0:0,0:0:0:0:
344,312,171000,2,0,B|300:285|260:290|260:290|224:308,1,120,2|0,0:0|0:0,0:0:0:0:
156,348,171387,1,8,0:0:0:0:
348,224,171581,2,0,P|360:172|348:124,1,80,2|0,0:0|0:0,0:0:0:0:
203,83,171968,1,0,0:0:0:0:
203,83,172065,1,0,0:0:0:0:
203,83,172162,6,0,L|219:173,1,80,8|0,0:0|0:0,0:0:0:0:
312,42,172549,1,2,0:0:0:0:
261,242,172742,2,0,B|221:262|177:242|177:242|133:222|89:246,1,160,2|2,0:0|0:0,0:0:0:0:
78,258,173226,1,0,0:0:0:0:
78,258,173323,6,0,L|91:354,1,80,2|0,0:0|0:0,0:0:0:0:
217,161,173710,2,0,L|203:83,1,80,8|0,0:0|0:0,0:0:0:0:
178,245,174097,1,2,0:0:0:0:
312,146,174291,1,0,0:0:0:0:
115,165,174484,1,8,0:0:0:0:
324,232,174678,1,2,0:0:0:0:
324,232,174774,1,0,0:0:0:0:
324,232,174871,6,0,P|319:272|296:310,1,80,2|0,0:0|0:0,0:0:0:0:
468,201,175258,2,0,P|427:197|384:169,1,80,8|0,0:0|0:0,0:0:0:0:
236,240,175645,1,2,0:0:0:0:
296,76,175839,2,0,P|216:108|172:176,1,160,2|0,0:0|0:0,0:0:0:0:
171,200,176323,1,0,0:0:0:0:
171,200,176420,6,0,P|116:188|80:192,1,80,2|0,0:0|0:0,0:0:0:0:
324,220,176807,2,0,P|368:204|408:200,1,80,8|0,0:0|0:0,0:0:0:0:
240,328,177194,2,0,P|196:344|148:344,1,80,2|0,0:0|0:0,0:0:0:0:
340,344,177581,1,8,0:0:0:0:
236,236,177774,1,2,0:0:0:0:
236,236,177871,1,0,0:0:0:0:
236,236,177968,6,0,P|200:188|196:80,1,160,2|8,0:0|0:0,0:0:0:0:
328,208,178549,1,0,0:0:0:0:
140,280,178742,1,2,0:0:0:0:
252,348,178936,1,0,0:0:0:0:
64,344,179129,2,0,L|52:256,1,80,8|0,0:0|0:0,0:0:0:0:
100,72,179516,6,0,P|96:116|116:168,1,80,2|0,0:0|0:0,0:0:0:0:
256,240,179903,1,8,0:0:0:0:
296,244,180000,1,0,0:0:0:0:
332,232,180097,1,0,0:0:0:0:
360,204,180194,1,0,0:0:0:0:
372,168,180291,2,0,P|384:124|380:80,1,80,2|0,0:0|0:0,0:0:0:0:
224,220,180678,1,8,0:0:0:0:
192,196,180774,1,0,0:0:0:0:
156,188,180871,1,0,0:0:0:0:
120,196,180968,1,0,0:0:0:0:
88,216,181065,6,0,P|68:272|68:312,1,80,4|0,0:0|0:0,0:0:0:0:
288,160,181452,1,8,0:0:0:0:
156,76,181645,1,0,0:0:0:0:
156,76,181742,1,0,0:0:0:0:
156,76,181839,2,0,L|96:64,1,40,2|0,0:0|0:0,0:0:0:0:
252,88,182033,2,0,L|292:72,1,40
192,156,182226,1,8,0:0:0:0:
180,188,182323,1,0,0:0:0:0:
176,220,182420,1,0,0:0:0:0:
180,252,182516,1,0,0:0:0:0:
192,284,182613,6,0,P|240:308|284:316,1,80,4|0,0:0|0:0,0:0:0:0:
456,224,183000,2,0,P|416:212|368:212,1,80,8|0,0:0|0:0,0:0:0:0:
108,296,183387,2,0,B|92:216|92:216|100:170,1,120,2|0,0:0|0:0,0:0:0:0:
128,100,183774,1,8,0:0:0:0:
16,260,183968,1,2,0:0:0:0:
184,224,184162,6,0,P|228:232|272:252,1,80,2|0,0:0|0:0,0:0:0:0:
364,336,184549,1,8,0:0:0:0:
352,192,184742,1,0,0:0:0:0:
352,192,184839,1,0,0:0:0:0:
352,192,184936,2,0,L|364:104,1,80,2|0,0:0|0:0,0:0:0:0:
240,316,185323,1,8,0:0:0:0:
104,200,185516,5,2,0:0:0:0:
104,200,185613,1,0,0:0:0:0:
104,200,185710,2,0,P|104:148|112:104,1,80,2|0,0:0|0:0,0:0:0:0:
284,256,186097,2,0,B|344:276|344:276|408:264,1,120,8|0,0:0|0:0,0:0:0:0:
428,272,186484,2,0,L|456:192,1,80,2|0,0:0|0:0,0:0:0:0:
244,180,186871,1,8,0:0:0:0:
151,343,187065,2,0,L|236:336,1,80,2|2,0:0|0:0,0:0:0:0:
88,264,187452,5,0,0:0:0:0:
88,264,187549,1,0,0:0:0:0:
88,264,187645,2,0,P|56:304|52:352,1,80,8|0,0:0|0:0,0:0:0:0:
148,160,188033,1,2,0:0:0:0:
41,157,188226,2,0,P|74:87|145:53,1,160,2|2,0:0|0:0,0:0:0:0:
179,48,188710,1,0,0:0:0:0:
179,48,188807,6,0,P|204:80|240:116,1,80,2|0,0:0|0:0,0:0:0:0:
440,80,189194,2,0,P|388:88|348:108,1,80,8|0,0:0|0:0,0:0:0:0:
324,300,189581,2,0,P|323:259|312:216,1,80,2|0,0:0|0:0,0:0:0:0:
272,184,189871,1,0,0:0:0:0:
272,184,189968,1,8,0:0:0:0:
220,348,190162,1,2,0:0:0:0:
112,232,190355,5,2,0:0:0:0:
132,204,190452,1,0,0:0:0:0:
160,188,190549,1,0,0:0:0:0:
192,176,190645,1,0,0:0:0:0:
224,180,190742,1,8,0:0:0:0:
256,192,190839,1,0,0:0:0:0:
284,208,190936,1,0,0:0:0:0:
316,216,191033,1,0,0:0:0:0:
348,212,191129,2,0,P|380:196|408:148,1,80,2|0,0:0|0:0,0:0:0:0:
304,92,191516,1,8,0:0:0:0:
200,268,191710,5,2,0:0:0:0:
200,268,191807,1,0,0:0:0:0:
200,268,191903,1,6,0:0:0:0:
344,304,192097,1,2,0:0:0:0:
180,180,192291,1,8,0:0:0:0:
144,192,192387,1,0,0:0:0:0:
104,188,192484,1,2,0:0:0:0:
68,172,192581,1,0,0:0:0:0:
44,140,192678,5,6,0:0:0:0:
256,88,192871,1,2,0:0:0:0:
296,264,193065,1,10,0:0:0:0:
340,268,193162,1,0,0:0:0:0:
380,252,193258,1,2,0:0:0:0:
412,220,193355,1,0,0:0:0:0:
428,180,193452,5,6,0:0:0:0:
256,88,193645,1,2,0:0:0:0:
172,280,193839,1,6,0:0:0:0:
172,280,193936,1,0,0:0:0:0:
172,280,194033,2,0,L|212:268,1,40,2|0,0:0|0:0,0:0:0:0:
332,176,194226,2,0,L|288:164,1,40,0|0,1:0|0:0,0:0:0:0:
128,104,194420,2,0,L|172:92,1,40,0|0,3:0|3:0,0:0:0:0:
332,48,194613,1,0,1:0:0:0:
345,79,194710,1,0,0:0:0:0:
370,101,194807,1,0,0:0:0:0:
400,115,194903,1,0,0:0:0:0:
434,114,195000,6,0,L|424:201,1,80,2|0,0:0|0:0,0:0:0:0:
444,304,195387,1,8,0:0:0:0:
228,276,195581,1,0,3:0:0:0:
336,264,195774,2,0,L|340:364,1,80,2|0,0:0|0:0,0:0:0:0:
208,172,196162,1,8,0:0:0:0:
112,256,196355,1,0,3:0:0:0:
112,256,196452,1,2,0:0:0:0:
112,256,196549,6,0,P|72:264|16:248,1,80,2|0,0:0|0:0,0:0:0:0:
56,72,196936,1,8,0:0:0:0:
72,168,197129,1,0,3:0:0:0:
188,84,197323,2,0,L|180:176,1,80,2|0,0:0|0:0,0:0:0:0:
308,56,197710,1,8,0:0:0:0:
432,128,197903,1,0,3:0:0:0:
432,128,198000,1,2,0:0:0:0:
432,128,198097,6,0,L|448:224,1,80,2|0,0:0|0:0,0:0:0:0:
308,92,198484,1,8,0:0:0:0:
448,36,198678,1,0,3:0:0:0:
356,180,198871,2,0,P|320:192|260:180,1,80,2|0,0:0|0:0,0:0:0:0:
188,84,199258,1,8,0:0:0:0:
228,264,199452,1,0,3:0:0:0:
228,264,199549,1,2,0:0:0:0:
228,264,199645,6,0,P|188:248|160:204,1,80,2|0,0:0|0:0,0:0:0:0:
328,216,200033,1,8,0:0:0:0:
268,364,200226,1,0,3:0:0:0:
404,288,200420,2,0,L|500:276,1,80,2|0,0:0|0:0,0:0:0:0:
328,216,200807,1,8,0:0:0:0:
472,68,201000,1,0,3:0:0:0:
472,68,201097,1,2,0:0:0:0:
472,68,201194,6,0,B|436:92|436:92|304:100,1,160,4|8,0:0|0:0,0:0:0:0:
224,44,201774,1,0,3:0:0:0:
116,76,201968,2,0,L|108:164,1,80,2|0,0:0|3:0,0:0:0:0:
300,128,202355,2,0,L|304:208,1,80,10|0,0:0|3:0,0:0:0:0:
96,320,202742,6,0,P|100:284|128:244,1,80,2|0,0:0|3:0,0:0:0:0:
284,296,203129,2,0,P|280:260|252:220,1,80,10|0,0:0|3:0,0:0:0:0:
64,176,203516,2,0,P|100:160|156:160,1,80,2|0,0:0|3:0,0:0:0:0:
300,128,203903,2,0,P|264:112|208:112,1,80,10|0,0:0|3:0,0:0:0:0:
200,296,204291,5,2,0:0:0:0:
200,296,204484,1,2,0:0:0:0:
276,236,204678,2,0,L|372:240,1,80,10|2,0:0|0:0,0:0:0:0:
152,168,205065,1,2,0:0:0:0:
152,168,205258,1,2,0:0:0:0:
84,236,205452,2,0,L|0:240,1,80,10|2,0:0|0:0,0:0:0:0:
44,52,205839,5,0,3:0:0:0:
72,66,205936,1,0,3:0:0:0:
102,76,206033,1,0,3:0:0:0:
134,83,206129,1,0,3:0:0:0:
165,85,206226,1,0,3:0:0:0:
197,83,206323,1,0,3:0:0:0:
229,76,206420,1,0,3:0:0:0:
259,66,206516,1,0,3:0:0:0:
287,51,206613,5,0,3:0:0:0:
388,104,206807,1,0,3:0:0:0:
388,104,206903,1,0,3:0:0:0:
388,104,207000,1,0,3:0:0:0:
484,44,207194,1,0,3:0:0:0:
484,44,207291,1,0,3:0:0:0:
484,44,207387,1,4,3:2:0:0:
456,68,209710,6,0,L|452:152,1,60.0000022888184,8|0,0:3|0:0,0:0:0:0:
360,44,210097,2,0,L|363:103,1,60.0000022888184,4|0,0:3|0:0,0:0:0:0:
124,128,210484,6,0,P|204:112|296:148,1,160,4|10,0:0|0:0,0:0:0:0:
56,200,211065,1,2,0:0:0:0:
56,200,211162,1,2,0:0:0:0:
56,200,211258,2,0,P|32:168|32:104,1,80,2|0,0:0|0:0,0:0:0:0:
192,264,211645,2,0,L|200:352,1,80,10|0,0:0|0:0,0:0:0:0:
324,184,212033,6,0,P|356:112|332:16,1,160,2|10,0:0|0:0,0:0:0:0:
436,168,212613,2,0,B|420:212|420:212|432:352,1,160,2|2,0:0|0:0,0:0:0:0:
324,184,213194,2,0,L|240:176,1,80,10|0,0:0|0:0,0:0:0:0:
88,304,213581,6,0,P|128:308|176:288,1,80,2|2,0:0|0:0,0:0:0:0:
192,264,213871,1,2,0:0:0:0:
192,264,213968,1,10,0:0:0:0:
336,292,214162,1,2,0:0:0:0:
216,156,214355,2,0,L|212:64,1,80,2|2,0:0|0:0,0:0:0:0:
352,160,214742,1,10,0:0:0:0:
460,92,214936,1,2,0:0:0:0:
460,92,215033,1,2,0:0:0:0:
460,92,215129,6,0,P|480:168|440:256,1,160,2|10,0:0|0:0,0:0:0:0:
200,240,215710,1,2,0:0:0:0:
272,156,215903,2,0,L|368:160,1,80,2|0,0:0|3:0,0:0:0:0:
172,56,216291,1,10,0:0:0:0:
200,240,216484,1,2,0:0:0:0:
76,112,216678,6,0,L|64:276,1,160,2|10,0:0|0:0,0:0:0:0:
244,344,217258,1,2,0:0:0:0:
244,344,217355,1,2,0:0:0:0:
244,344,217452,2,0,L|238:254,1,80
268,120,217839,1,10,0:0:0:0:
312,204,218033,6,0,P|396:212|480:156,1,160,2|2,0:0|0:0,0:0:0:0:
192,180,218613,2,0,P|152:184|100:164,1,80,10|0,0:0|3:0,0:0:0:0:
268,120,219000,2,0,L|272:36,1,80,2|0,0:0|3:0,0:0:0:0:
188,224,219387,1,10,0:0:0:0:
368,168,219581,1,2,0:0:0:0:
164,72,219774,6,0,L|68:64,1,80,4|0,0:0|3:0,0:0:0:0:
368,168,220162,2,0,L|472:156,1,80,10|0,0:0|3:0,0:0:0:0:
164,200,220549,2,0,P|136:280|168:372,1,160,2|10,0:0|0:0,0:0:0:0:
240,284,221129,1,2,0:0:0:0:
392,340,221323,5,0,3:0:0:0:
392,340,221420,1,0,3:0:0:0:
392,340,221516,1,0,3:0:0:0:
432,136,221710,1,0,3:0:0:0:
432,136,221807,1,0,3:0:0:0:
432,136,221903,1,0,3:0:0:0:
320,200,222097,5,0,3:0:0:0:
288,200,222194,1,0,3:0:0:0:
256,194,222291,1,0,3:0:0:0:
227,182,222387,1,0,3:0:0:0:
200,165,222484,1,0,3:0:0:0:
177,142,222581,1,0,3:0:0:0:
159,116,222678,1,0,3:0:0:0:
146,86,222774,1,0,3:0:0:0:
140,56,222871,6,0,L|24:40,1,80,4|0,0:0|0:0,0:0:0:0:
160,252,223258,2,0,L|76:260,1,80,10|0,0:0|0:0,0:0:0:0:
264,92,223645,2,0,L|244:0,1,80,2|0,0:0|0:0,0:0:0:0:
264,280,224033,2,0,L|256:376,1,80,10|0,0:0|0:0,0:0:0:0:
384,120,224420,5,2,0:0:0:0:
476,184,224613,1,2,0:0:0:0:
476,184,224710,1,2,0:0:0:0:
476,184,224807,2,0,L|484:276,1,80,8|0,0:0|0:0,0:0:0:0:
268,132,225194,1,2,0:0:0:0:
164,176,225387,1,2,0:0:0:0:
164,176,225484,1,2,0:0:0:0:
164,176,225581,2,0,P|144:216|140:272,1,80,8|0,0:0|0:0,0:0:0:0:
414,285,225968,6,0,P|406:241|374:205,1,80,2|0,0:0|0:0,0:0:0:0:
73,209,226355,2,0,P|105:239|152:250,1,80,10|0,0:0|0:0,0:0:0:0:
394,70,226742,2,0,P|349:64|305:84,1,80,2|0,0:0|0:0,0:0:0:0:
215,371,227129,2,0,P|254:350|279:308,1,80,10|0,0:0|0:0,0:0:0:0:
164,98,227516,5,2,0:0:0:0:
268,176,227710,1,2,0:0:0:0:
268,176,227807,1,2,0:0:0:0:
268,176,227903,2,0,L|368:168,1,80,8|0,0:0|0:0,0:0:0:0:
153,289,228291,1,2,0:0:0:0:
73,209,228484,1,2,0:0:0:0:
73,209,228581,1,2,0:0:0:0:
73,209,228678,2,0,L|-16:204,1,80,8|0,0:0|0:0,0:0:0:0:
232,196,229065,6,0,P|312:216|416:180,1,160,4|10,0:0|0:0,0:0:0:0:
440,120,229645,1,2,0:0:0:0:
456,256,229839,2,0,L|464:344,1,80,2|0,0:0|3:0,0:0:0:0:
344,164,230226,2,0,L|348:60,1,80,10|0,0:0|3:0,0:0:0:0:
216,280,230613,6,0,P|183:302|143:307,1,80,2|0,0:0|3:0,0:0:0:0:
0,200,231000,2,0,P|32:222|72:227,1,80,10|0,0:0|3:0,0:0:0:0:
216,108,231387,2,0,P|232:144|232:200,1,80,2|0,0:0|3:0,0:0:0:0:
80,56,231774,2,0,P|64:92|64:148,1,80,10|0,0:0|3:0,0:0:0:0:
132,220,232162,5,2,0:0:0:0:
132,220,232355,1,2,0:0:0:0:
68,292,232549,2,0,L|64:336,2,40,10|2|2,0:0|0:0|0:0,0:0:0:0:
296,216,232936,1,2,0:0:0:0:
296,216,233129,1,2,0:0:0:0:
376,272,233323,2,0,L|380:316,2,40,10|2|2,0:0|0:0|0:0,0:0:0:0:
204,332,233710,5,0,3:0:0:0:
187,304,233807,1,0,3:0:0:0:
175,275,233903,1,0,3:0:0:0:
169,243,234000,1,0,3:0:0:0:
168,211,234097,1,0,3:0:0:0:
172,180,234194,1,0,3:0:0:0:
182,149,234291,1,0,3:0:0:0:
197,121,234387,1,0,3:0:0:0:
217,96,234484,6,0,L|312:88,1,80,0|0,3:0|3:0,0:0:0:0:
128,36,234871,1,0,3:0:0:0:
128,36,234968,1,0,3:0:0:0:
128,36,235065,1,0,3:0:0:0:
320,120,235258,6,0,P|408:108|472:44,1,160,4|8,0:0|0:0,0:0:0:0:
432,272,235839,1,2,0:0:0:0:
356,212,236033,2,0,L|268:208,1,80,2|2,0:0|0:0,0:0:0:0:
80,312,236420,2,0,L|168:308,1,80,10|2,0:0|0:0,0:0:0:0:
252,176,236807,5,2,0:0:0:0:
296,352,237000,1,2,0:0:0:0:
160,308,237194,1,10,0:0:0:0:
388,252,237387,2,0,P|416:180|392:72,1,160,2|2,0:0|0:0,0:0:0:0:
308,44,237968,2,0,L|208:36,1,80,10|2,0:0|0:0,0:0:0:0:
6,106,238355,6,0,B|50:118|50:118|164:108,1,160,2|10,0:0|0:0,0:0:0:0:
68,168,238936,2,0,P|44:240|84:328,1,160,2|2,0:0|0:0,0:0:0:0:
248,152,239516,2,0,P|260:116|248:56,1,80,10|2,0:0|0:0,0:0:0:0:
140,240,239903,5,2,0:0:0:0:
356,192,240097,1,2,0:0:0:0:
164,108,240291,1,10,0:0:0:0:
252,304,240484,1,2,0:0:0:0:
356,192,240678,2,0,L|364:88,1,80,2|2,0:0|0:0,0:0:0:0:
456,252,241065,2,0,L|464:356,1,80,10|2,0:0|0:0,0:0:0:0:
252,304,241452,6,0,P|308:292|384:316,2,120,2|2|2,0:0|0:0|0:0,0:0:0:0:
144,272,242226,2,0,P|88:284|12:260,2,120,2|2|2,0:0|0:0|0:0,0:0:0:0:
193,21,243000,6,0,P|176:98|196:176,1,160,2|10,0:0|0:0,0:0:0:0:
320,208,243581,1,2,0:0:0:0:
320,208,243678,1,2,0:0:0:0:
320,208,243774,2,0,B|332:260|332:260|320:388,1,160,2|10,0:0|0:0,0:0:0:0:
240,268,244355,1,0,0:0:0:0:
416,240,244549,5,2,0:0:0:0:
416,240,244645,1,2,0:0:0:0:
416,240,244742,1,2,0:0:0:0:
228,152,244936,2,0,L|184:144,2,40,10|2|2,0:0|0:0|0:0,0:0:0:0:
424,120,245323,1,2,0:0:0:0:
424,120,245420,1,2,0:0:0:0:
424,120,245516,1,2,0:0:0:0:
240,268,245710,2,0,L|184:272,2,40,10|2|2,0:0|0:0|0:0,0:0:0:0:
316,92,246097,5,0,3:0:0:0:
292,70,246194,1,0,3:0:0:0:
263,57,246291,1,0,3:0:0:0:
231,53,246387,1,0,3:0:0:0:
200,58,246484,1,0,3:0:0:0:
171,72,246581,1,0,3:0:0:0:
148,94,246678,1,0,3:0:0:0:
132,121,246774,1,0,3:0:0:0:
125,152,246871,6,0,P|136:196|132:248,1,80,0|0,3:0|3:0,3:0:0:0:
24,212,247258,1,0,3:0:0:0:
24,212,247355,1,0,3:0:0:0:
24,212,247452,1,0,3:0:0:0:
240,268,247645,5,6,0:1:0:0:
266,257,247742,1,0,0:0:0:0:
290,246,247839,2,0,L|344:220,2,40,2|0|0,0:1|0:0|0:0,0:0:0:0:
189,110,248226,1,2,0:1:0:0:
164,96,248323,1,0,0:0:0:0:
138,83,248420,2,0,L|75:50,2,40,2|0|0,0:1|0:0|0:0,0:0:0:0:
49,197,248807,1,2,0:1:0:0:
110,329,249000,1,2,0:1:0:0:
110,329,249097,1,0,0:0:0:0:
110,329,249194,6,0,P|169:325|197:313,1,80,0|2,0:0|0:1,0:0:0:0:
310,163,249581,2,0,P|261:162|210:180,1,80,2|0,0:1|0:1,0:0:0:0:
98,82,249968,1,2,3:1:0:0:
148,282,250162,1,0,0:0:0:0:
148,282,250258,2,2,P|214:282|271:252,1,120,0|0,0:0|0:0,0:1:0:0:
381,180,250742,5,2,0:1:0:0:
371,153,250839,1,0,0:0:0:0:
360,126,250936,2,0,L|341:66,2,40,2|0|0,0:1|0:0|0:0,0:0:0:0:
203,224,251323,1,2,0:1:0:0:
199,251,251420,1,0,0:0:0:0:
194,278,251516,2,0,L|183:350,2,40,2|0|0,0:1|0:0|0:0,0:0:0:0:
59,174,251903,1,2,3:1:0:0:
119,35,252097,1,2,0:1:0:0:
119,35,252194,1,0,0:0:0:0:
119,35,252291,6,2,B|162:72|162:72|224:64|269:90,1,160,0|0,0:0|0:0,0:1:0:0:
429,237,252871,2,2,L|320:255,1,80,0|0,0:0|3:0,0:1:0:0:
150,174,253258,1,0,0:0:0:0:
205,338,253452,1,2,0:1:0:0:
205,338,253549,1,0,0:0:0:0:
205,338,253645,1,2,0:1:0:0:
205,338,253742,1,0,0:0:0:0:
205,338,253839,6,0,L|218:284,3,40,6|0|0|0,0:1|0:0|0:0|0:0,0:0:0:0:
292,225,254226,2,0,L|281:186,3,40,2|0|0|0,0:1|0:0|0:0|0:0,0:0:0:0:
219,86,254613,2,0,L|170:76,2,40,2|0|0,0:1|0:0|0:0,0:0:0:0:
370,189,255000,2,2,L|459:173,1,80,0|0,0:0|0:0,0:1:0:0:
336,72,255387,5,4,0:0:0:0:
247,193,255581,1,2,0:1:0:0:
341,303,255774,1,0,0:0:0:0:
480,270,255968,2,2,B|450:212|450:212|467:165|440:117,1,160,0|0,0:0|0:0,0:1:0:0:
290,39,256549,1,2,0:1:0:0:
263,211,256742,1,0,0:0:0:0:
97,129,256936,6,2,B|189:108|189:108|221:129,2,120,6|2|2,0:1|0:1|0:1,0:1:0:0:
52,290,257710,2,2,P|107:297|173:262,1,120,0|0,0:0|0:0,0:1:0:0:
206,203,258097,2,0,L|213:95,1,80,2|2,0:1|0:1,0:0:0:0:
143,6,258484,5,6,0:0:0:0:
97,129,258678,1,0,0:0:0:0:
206,203,258871,1,0,0:0:0:0:
314,128,259065,1,2,0:0:0:0:
376,289,259258,5,0,3:0:0:0:
341,298,259355,1,0,0:0:0:0:
306,308,259452,1,0,0:0:0:0:
271,317,259549,1,0,0:0:0:0:
237,327,259645,1,2,0:0:0:0:
202,336,259742,1,0,0:0:0:0:
167,346,259839,2,0,L|121:360,1,40,0|0,1:0|0:0,0:0:0:0:
21,329,260033,6,0,L|50:153,1,160,4|0,0:0|0:0,0:0:0:0:
281,204,260807,2,0,B|257:224|210:228|210:228|176:284,2,120
216,134,261581,5,4,0:0:0:0:
278,327,261774,1,0,0:0:0:0:
77,295,261968,1,0,0:0:0:0:
77,295,262355,2,2,L|101:162,1,120,4|4,0:0|0:0,0:0:0:0:
29,64,263129,6,0,L|129:48,1,80,4|0,0:0|0:0,0:0:0:0:
177,165,263516,2,0,P|229:173|293:145,1,120,10|0,0:0|0:0,0:0:0:0:
373,158,263903,2,0,L|381:74,1,80
224,224,264291,1,10,0:0:0:0:
448,264,264678,6,0,P|360:280|328:308,1,120
268,352,265065,2,0,L|176:336,1,80,10|0,0:0|0:0,0:0:0:0:
68,368,265452,1,2,3:2:0:0:
104,213,265839,1,10,0:0:0:0:
68,368,266226,6,0,L|204:348,1,120
272,364,266613,2,0,L|284:268,1,80,10|0,0:0|0:0,0:0:0:0:
228,112,267000,2,0,P|156:132|132:148,1,80
48,64,267387,1,10,0:0:0:0:
56,252,267774,6,0,P|124:232|184:236,1,120
256,276,268162,2,0,L|360:260,1,80,10|0,0:0|0:0,0:0:0:0:
440,156,268549,1,2,3:2:0:0:
488,304,268936,1,10,0:0:0:0:
440,156,269323,6,0,L|452:56,1,80,4|2,0:0|0:0,0:0:0:0:
344,24,269710,1,8,0:0:0:0:
260,164,269903,2,0,P|144:160|108:112,1,160,2|2,0:0|0:0,0:0:0:0:
88,12,270484,1,8,0:0:0:0:
200,84,270678,1,2,0:0:0:0:
36,168,270871,6,0,L|20:284,1,80,2|0,0:0|0:0,0:0:0:0:
204,364,271258,2,0,L|215:276,1,80,10|0,0:0|0:0,0:0:0:0:
272,112,271645,2,0,P|344:168|428:152,1,160,2|10,3:2|0:0,0:0:0:0:
408,162,272420,6,0,L|384:266,1,80,4|2,0:0|0:0,0:0:0:0:
361,356,272807,1,8,0:0:0:0:
276,268,273000,2,0,L|176:292,1,80,2|0,0:0|0:0,0:0:0:0:
102,213,273387,1,0,0:0:0:0:
0,267,273581,1,10,0:0:0:0:
93,331,273774,1,0,0:0:0:0:
227,215,273968,6,0,P|239:151|231:111,1,80,4|0,0:0|0:0,0:0:0:0:
164,29,274355,1,10,0:0:0:0:
87,141,274549,1,0,0:0:0:0:
265,253,274742,2,0,L|357:233,1,80,2|0,3:2|0:0,0:0:0:0:
187,105,275129,2,2,L|47:137,1,120,8|0,0:0|0:0,0:0:0:0:
0,212,275516,6,0,P|68:212|132:252,1,120,4|0,0:0|0:0,0:0:0:0:
168,308,275903,1,10,0:0:0:0:
386,333,276291,2,0,L|374:221,1,80
342,95,276678,2,0,P|270:135|214:135,1,120,10|0,0:0|0:0,0:0:0:0:
157,92,277065,6,0,L|145:184,2,80,0|0|10,0:0|0:0|0:0,0:0:0:0:
328,284,277839,2,0,P|320:292|228:312,1,80,2|0,3:2|0:0,0:0:0:0:
78,195,278226,2,0,P|122:179|186:179,1,80,10|0,0:0|0:0,0:0:0:0:
257,316,278613,6,0,L|388:339,1,120
462,288,279000,1,10,0:0:0:0:
288,128,279387,2,0,P|216:128|156:172,1,120
96,100,279774,2,0,L|108:12,1,80,10|0,0:0|0:0,0:0:0:0:
280,232,280162,6,0,L|264:88,1,120
308,36,280549,1,10,0:0:0:0:
208,280,280936,2,0,P|248:308|328:312,1,120,2|0,3:2|0:0,0:0:0:0:
392,344,281323,2,0,L|404:240,1,80,10|0,0:0|0:0,0:0:0:0:
389,100,281710,5,6,0:0:0:0:
290,223,281903,1,0,0:0:0:0:
192,113,282097,2,0,P|144:117|93:138,1,80,8|0,0:0|0:0,0:0:0:0:
24,264,282484,2,0,L|32:344,1,80,2|0,0:0|0:0,0:0:0:0:
202,375,282871,2,0,L|208:281,1,80,10|0,0:0|0:0,0:0:0:0:
368,296,283258,5,2,0:0:0:0:
300,176,283452,1,0,0:0:0:0:
204,280,283645,2,0,P|132:268|100:244,1,80,10|0,0:0|0:0,0:0:0:0:
16,124,284033,2,0,L|36:36,1,80,2|0,3:2|0:0,0:0:0:0:
196,120,284420,2,0,L|176:216,1,80,10|0,0:0|0:0,0:0:0:0:
294,359,284807,5,4,0:0:0:0:
320,367,284903,1,0,0:0:0:0:
347,369,285000,1,2,0:0:0:0:
375,367,285097,1,0,0:0:0:0:
401,359,285194,1,8,0:0:0:0:
425,344,285291,1,0,0:0:0:0:
445,325,285387,1,2,0:0:0:0:
457,300,285484,1,0,0:0:0:0:
466,273,285581,6,0,L|456:227,3,40,0|0|2|0,0:0|0:0|0:0|0:0,0:0:0:0:
381,135,285968,2,0,L|372:174,3,40,8|0|2|0,0:0|0:0|0:0|0:0,0:0:0:0:
303,247,286355,6,0,P|231:263|147:207,1,160,6|8,0:0|0:0,0:0:0:0:
136,35,286936,1,2,0:0:0:0:
238,77,287129,2,0,P|245:129|245:184,1,80,4|0,0:0|0:0,0:0:0:0:
128,317,287516,6,2,P|76:268|74:165,1,160,10|4,0:0|0:0,0:0:0:0:
256,192,288000,12,2,290226,0:0:0:0:
46,275,291000,6,0,P|87:339|164:345,1,160,4|8,0:0|0:0,0:0:0:0:
286,307,291581,1,0,0:0:0:0:
137,195,291774,2,0,P|127:233|130:273,1,80,2|0,0:0|0:0,0:0:0:0:
366,339,292162,2,0,P|369:299|359:260,1,80,8|0,0:0|0:0,0:0:0:0:
137,195,292549,6,0,P|199:203|257:168,1,120,6|0,0:0|0:0,0:0:0:0:
276,148,292936,1,8,0:0:0:0:
184,53,293129,2,0,B|118:27|99:69|26:48,1,160,2|2,0:0|0:0,0:0:0:0:
209,266,293710,2,0,P|200:227|200:187,1,80,8|0,0:0|0:0,0:0:0:0:
360,87,294097,5,4,0:0:0:0:
372,185,294291,1,2,0:0:0:0:
287,144,294484,1,8,0:0:0:0:
440,122,294678,1,2,0:0:0:0:
303,320,294871,2,0,P|292:281|291:241,1,80
440,122,295258,2,0,P|450:160|451:200,1,80,8|0,0:0|0:0,0:0:0:0:
132,167,295645,6,0,P|186:143|246:138,1,120,4|0,0:0|0:0,0:0:0:0:
287,144,296033,1,8,0:0:0:0:
130,68,296226,1,2,0:0:0:0:
219,216,296420,2,0,L|208:296,1,80,2|0,0:0|0:0,0:0:0:0:
395,377,296807,2,0,L|383:297,1,80,8|0,0:0|0:0,0:0:0:0:
494,165,297194,6,0,P|426:204|349:188,1,160,4|8,0:0|0:0,0:0:0:0:
211,268,297774,1,0,0:0:0:0:
256,62,297968,2,0,L|272:140,1,80,2|0,0:0|0:0,0:0:0:0:
125,254,298355,1,8,0:0:0:0:
143,160,298549,1,2,0:0:0:0:
5,270,298742,6,0,L|21:348,1,80,4|0,0:0|0:0,0:0:0:0:
159,379,299129,2,0,L|142:300,1,80,8|0,0:0|0:0,0:0:0:0:
259,235,299516,2,0,L|275:313,1,80,2|0,0:0|0:0,0:0:0:0:
424,370,299903,1,8,0:0:0:0:
457,277,300097,1,10,0:0:0:0:
363,132,300291,6,0,L|377:210,1,80,4|2,0:0|0:0,0:0:0:0:
252,74,300678,2,0,L|266:152,1,80,8|0,0:0|0:0,0:0:0:0:
204,300,301065,1,2,0:0:0:0:
55,223,301258,1,2,0:0:0:0:
55,223,301355,1,0,0:0:0:0:
55,223,301452,2,0,L|134:214,1,80,8|2,0:0|0:0,0:0:0:0:
348,285,301839,5,6,0:0:0:0:
312,288,301936,1,0,0:0:0:0:
276,292,302033,1,2,0:0:0:0:
240,296,302129,1,0,0:0:0:0:
204,300,302226,1,8,0:0:0:0:
134,214,302420,1,2,0:0:0:0:
166,55,302613,2,0,P|175:93|178:133,1,80,6|0,0:0|0:0,0:0:0:0:
102,367,303000,2,0,P|92:328|89:288,1,80,12|2,0:0|0:0,0:0:0:0:
134,214,303291,1,0,0:0:0:0:
134,214,303387,6,0,L|213:207,1,80,4|0,0:0|0:0,0:0:0:0:
355,316,303774,2,0,L|276:323,1,80,10|0,0:0|0:0,0:0:0:0:
416,230,304162,1,2,0:0:0:0:
457,321,304355,1,0,0:0:0:0:
290,233,304549,1,10,0:0:0:0:
323,132,304742,1,0,0:0:0:0:
204,41,304936,6,0,L|214:120,1,80,4|0,0:0|0:0,0:0:0:0:
45,243,305323,2,0,L|55:163,1,80,10|0,0:0|0:0,0:0:0:0:
212,226,305710,1,2,0:0:0:0:
172,353,305903,1,0,0:0:0:0:
126,256,306097,1,10,0:0:0:0:
253,303,306291,1,0,0:0:0:0:
395,244,306484,6,0,L|319:216,1,80,4|0,0:0|0:0,0:0:0:0:
221,84,306871,2,0,L|296:111,1,80,10|0,0:0|0:0,0:0:0:0:
130,143,307258,1,2,0:0:0:0:
116,47,307452,1,0,0:0:0:0:
252,172,307645,1,10,0:0:0:0:
238,268,307839,1,0,0:0:0:0:
416,347,308033,6,0,L|401:268,1,80,4|0,0:0|0:0,0:0:0:0:
432,70,308420,2,0,L|446:148,1,80,10|0,0:0|0:0,0:0:0:0:
221,189,308807,1,2,0:0:0:0:
357,161,309000,1,0,0:0:0:0:
279,110,309194,1,10,0:0:0:0:
306,238,309387,1,0,0:0:0:0:
145,330,309581,6,0,P|122:254|141:177,1,160,4|8,0:0|0:0,0:0:0:0:
306,238,310162,1,0,0:0:0:0:
306,238,310258,1,0,0:0:0:0:
306,238,310355,2,0,L|216:227,1,80,2|0,0:0|0:0,0:0:0:0:
109,88,310742,2,0,L|188:97,1,80,10|0,0:0|0:0,0:0:0:0:
407,145,311129,6,0,P|416:106|418:66,1,80,4|0,0:0|0:0,0:0:0:0:
306,238,311516,2,0,P|308:277|317:316,1,80,10|0,0:0|0:0,0:0:0:0:
418,135,311903,2,0,P|429:86|431:37,1,80,2|0,0:0|0:0,0:0:0:0:
292,250,312291,2,0,P|294:299|305:347,1,80,10|0,0:0|0:0,0:0:0:0:
435,214,312678,5,4,0:0:0:0:
300,131,312871,1,2,0:0:0:0:
300,131,312968,1,0,0:0:0:0:
300,131,313065,2,0,L|221:143,1,80,8|0,0:0|0:0,0:0:0:0:
37,278,313452,2,0,L|53:232,1,40,2|0,0:0|0:0,0:0:0:0:
96,138,313645,2,0,L|109:175,1,40,2|0,0:0|0:0,0:0:0:0:
159,254,313839,1,10,0:0:0:0:
192,266,313936,1,0,0:0:0:0:
228,266,314033,1,2,0:0:0:0:
260,251,314129,1,0,0:0:0:0:
286,233,314226,6,0,L|374:270,1,80,6|0,0:0|0:0,0:0:0:0:
480,65,314613,1,8,0:0:0:0:
371,79,314807,1,2,0:0:0:0:
389,185,315000,1,2,0:0:0:0:
389,185,315097,1,0,0:0:0:0:
389,185,315194,1,2,0:0:0:0:
249,54,315387,1,10,0:0:0:0:
260,88,315484,1,0,0:0:0:0:
263,123,315581,1,2,0:0:0:0:
251,157,315678,1,0,0:0:0:0:
230,186,315774,6,0,L|151:176,1,80,6|0,0:0|0:0,0:0:0:0:
41,341,316162,2,0,L|120:331,1,80,8|0,0:0|0:0,0:0:0:0:
464,304,316549,2,0,L|305:285,1,160,2|8,0:0|0:0,0:0:0:0:
175,247,317129,1,0,0:0:0:0:
304,75,317323,6,0,P|323:130|306:186,1,120,6|0,0:0|0:0,0:0:0:0:
283,219,317710,1,8,0:0:0:0:
82,133,317903,2,0,B|160:116|161:149|241:134,1,160,2|2,0:0|0:0,0:0:0:0:
428,175,318484,2,0,P|419:137|419:97,1,80,10|0,0:0|0:0,0:0:0:0:
497,283,318871,6,0,P|459:270|419:267,1,80,6|0,0:0|0:0,0:0:0:0:
193,314,319258,1,8,0:0:0:0:
274,218,319452,1,0,0:0:0:0:
158,111,319645,2,0,L|150:194,1,80,2|0,0:0|0:0,0:0:0:0:
354,332,320033,2,0,L|346:252,1,80,8|0,0:0|0:0,0:0:0:0:
481,62,320420,6,0,P|503:116|498:176,1,120,6|0,0:0|0:0,0:0:0:0:
479,211,320807,1,8,0:0:0:0:
357,152,321000,1,0,0:0:0:0:
271,248,321194,2,0,L|192:233,1,80,2|0,0:0|0:0,0:0:0:0:
61,368,321581,2,0,L|139:353,1,80,10|0,0:0|0:0,0:0:0:0:
326,222,321968,6,0,L|168:192,1,160,4|8,0:0|0:0,0:0:0:0:
79,246,322549,1,0,0:0:0:0:
16,172,322742,2,0,L|5:92,1,80,2|0,0:0|0:0,0:0:0:0:
153,25,323129,1,8,0:0:0:0:
134,119,323323,1,2,0:0:0:0:
247,231,323516,6,0,P|240:191|232:152,1,80,4|0,0:0|0:0,0:0:0:0:
365,98,323903,2,0,P|356:137|350:176,1,80,10|0,0:0|0:0,0:0:0:0:
450,270,324291,2,0,P|458:230|464:191,1,80,2|0,0:0|0:0,0:0:0:0:
330,278,324678,1,10,0:0:0:0:
362,367,324871,1,10,0:0:0:0:
205,319,325065,6,0,L|222:240,1,80,4|0,0:0|0:0,0:0:0:0:
97,365,325452,2,0,L|114:286,1,80,10|0,0:0|0:0,0:0:0:0:
23,189,325839,1,2,0:0:0:0:
188,137,326033,1,0,0:0:0:0:
188,137,326129,1,0,0:0:0:0:
188,137,326226,2,0,L|109:123,1,80,8|2,0:0|0:0,0:0:0:0:
219,248,326613,5,6,0:0:0:0:
254,242,326710,1,0,0:0:0:0:
289,236,326807,1,2,0:0:0:0:
325,229,326903,1,0,0:0:0:0:
360,223,327000,1,8,0:0:0:0:
449,135,327194,1,2,0:0:0:0:
353,10,327387,2,0,P|346:49|343:89,1,80,4|0,0:0|0:0,0:0:0:0:
495,287,327774,2,0,P|491:247|485:207,1,80,12|2,0:0|0:0,0:0:0:0:
449,135,328065,1,0,0:0:0:0:
449,135,328162,6,0,P|392:149|331:148,1,120,4|0,0:0|0:0,0:0:0:0:
264,100,328549,2,0,L|256:15,1,80,10|0,0:0|0:0,0:0:0:0:
169,142,328936,1,2,0:0:0:0:
329,254,329129,1,2,0:0:0:0:
329,254,329226,1,0,0:0:0:0:
329,254,329323,2,0,P|345:297|347:337,1,80,10|0,0:0|0:0,0:0:0:0:
222,229,329710,5,4,0:0:0:0:
331,148,329903,1,0,0:0:0:0:
253,318,330097,2,0,L|162:308,1,80,10|0,0:0|0:0,0:0:0:0:
242,138,330484,1,2,0:0:0:0:
329,254,330678,1,0,0:0:0:0:
145,164,330871,2,0,L|155:77,1,80,10|0,0:0|0:0,0:0:0:0:
313,29,331258,6,0,L|331:150,1,120,4|0,0:0|0:0,0:0:0:0:
400,203,331645,2,0,L|479:211,1,80,10|0,0:0|0:0,0:0:0:0:
242,138,332033,1,2,0:0:0:0:
406,299,332226,1,2,0:0:0:0:
406,299,332323,1,0,0:0:0:0:
406,299,332420,1,10,0:0:0:0:
167,198,332613,1,0,0:0:0:0:
336,76,332807,6,0,L|324:203,1,120,4|0,0:0|0:0,0:0:0:0:
318,277,333194,1,10,0:0:0:0:
242,138,333387,1,0,0:0:0:0:
406,299,333581,2,0,P|387:337|356:361,1,80,2|0,0:0|0:0,0:0:0:0:
302,367,333871,1,0,0:0:0:0:
252,339,333968,2,0,L|243:254,1,80,10|0,0:0|0:0,0:0:0:0:
188,39,334355,6,0,L|166:204,1,160,4|8,0:0|0:0,0:0:0:0:
84,97,334936,1,0,0:0:0:0:
273,166,335129,2,0,L|281:253,1,80,2|0,0:0|0:0,0:0:0:0:
59,318,335516,2,0,L|66:238,1,80,10|0,0:0|0:0,0:0:0:0:
248,352,335903,6,0,L|161:360,1,80,4|0,0:0|0:0,0:0:0:0:
96,138,336291,2,0,L|175:145,1,80,10|0,0:0|0:0,0:0:0:0:
355,216,336678,1,4,0:0:0:0:
235,74,336871,1,0,0:0:0:0:
267,357,337065,1,4,0:0:0:0:
271,370,337452,6,0,P|228:331|141:349,1,120,4|0,0:0|0:0,0:0:0:0:
104,371,337839,1,8,0:0:0:0:
257,253,338033,1,0,0:0:0:0:
76,187,338226,1,2,0:0:0:0:
76,187,338323,1,0,0:0:0:0:
76,187,338420,1,0,0:0:0:0:
360,299,338613,5,2,0:0:0:0:
360,299,338710,1,0,0:0:0:0:
360,299,338807,1,2,0:0:0:0:
360,299,338903,1,0,0:0:0:0:
360,299,339000,1,6,0:0:0:0:
235,74,339194,1,0,0:0:0:0:
271,370,339387,1,8,0:0:0:0:
455,262,339581,2,0,P|417:219|315:206,1,160,2|2,0:0|0:0,0:0:0:0:
104,371,340162,1,8,0:0:0:0:
360,299,340355,5,2,0:0:0:0:
360,299,340452,1,0,0:0:0:0:
360,299,340549,2,0,P|370:237|381:151,1,120,4|0,0:0|0:0,0:0:0:0:
381,100,340936,1,8,0:0:0:0:
278,220,341129,1,2,0:0:0:0:
117,196,341323,6,0,P|116:236|123:275,1,80,2|2,0:0|0:0,0:0:0:0:
148,323,341613,1,0,0:0:0:0:
148,323,341710,1,2,0:0:0:0:
247,227,341903,2,0,P|289:220|358:319,1,160,2|2,0:0|0:0,0:0:0:0:
224,120,342484,2,0,P|217:81|216:41,1,80,2|0,0:0|0:0,0:0:0:0:
328,152,342871,5,2,0:0:0:0:
142,193,343065,1,0,0:0:0:0:
216,40,343258,1,2,0:0:0:0:
257,296,343452,1,2,0:0:0:0:
42,188,343645,6,0,P|56:140|173:95,1,160,4|2,0:0|0:0,0:0:0:0:
295,223,344226,1,0,0:0:0:0:
142,193,344420,1,2,0:0:0:0:
294,57,344613,1,0,0:0:0:0:
294,57,344710,1,2,0:0:0:0:
294,57,344807,2,0,P|313:97|316:135,1,80,0|2,0:0|0:0,0:0:0:0:
180,294,345194,6,0,P|219:228|295:222,1,160,2|2,0:0|0:0,0:0:0:0:
359,305,345774,1,0,0:0:0:0:
455,173,345968,2,0,L|450:253,1,80,2|0,0:0|0:0,0:0:0:0:
257,296,346355,1,2,0:0:0:0:
371,112,346549,1,2,0:0:0:0:
438,334,346742,6,0,P|405:375|294:355,2,160,4|2|2,0:0|0:0|0:0,0:0:0:0:
315,207,347710,1,0,0:0:0:0:
257,296,347903,1,2,0:0:0:0:
409,232,348097,1,2,0:0:0:0:
218,124,348291,6,0,L|211:214,1,80,4|0,0:0|0:0,0:0:0:0:
359,305,348678,1,2,0:0:0:0:
359,305,349065,2,0,L|271:294,1,80,2|0,0:0|0:0,0:0:0:0:
130,274,349452,1,2,0:0:0:0:
315,207,349645,1,2,0:0:0:0:
116,92,349839,6,0,L|109:182,1,80,4|0,0:0|0:0,0:0:0:0:
226,32,350226,1,2,0:0:0:0:
226,32,350613,2,0,L|236:123,1,80,4|0,0:0|0:0,0:0:0:0:
420,218,351000,1,2,0:0:0:0:
255,294,351194,1,2,0:0:0:0:
379,125,351387,5,0,0:0:0:0:
353,297,351581,1,2,0:0:0:0:
217,188,351774,1,6,0:0:0:0:
203,159,351871,1,0,0:0:0:0:
197,127,351968,1,2,0:0:0:0:
199,95,352065,1,0,0:0:0:0:
208,65,352162,6,0,B|256:56|286:41|286:41|299:57|313:69,1,120,4|2,0:0|0:0,0:0:0:0:
379,125,352549,2,0,L|373:164,1,40,6|0,0:0|0:0,0:0:0:0:
280,202,352742,2,0,L|274:163,1,40,2|2,0:0|0:0,0:0:0:0:
360,265,352936,6,0,P|330:292|285:301,1,80,0|4,0:0|0:0,0:0:0:0:
134,175,353323,1,4,0:0:0:0:
280,202,353516,1,2,0:0:0:0:
86,260,353710,1,4,0:0:0:0:
225,120,353903,1,2,0:0:0:0:
225,120,354000,1,0,0:0:0:0:
225,120,354097,1,6,0:0:0:0:
177,335,354291,1,2,0:0:0:0:
35,172,354484,6,0,L|40:124,3,40,4|0|2|0,0:0|0:0|0:0|0:0,0:0:0:0:
119,42,354871,2,0,L|123:81,3,40,4|0|2|0,0:0|0:0|0:0|0:0,0:0:0:0:
134,175,355258,1,4,0:0:0:0:
165,176,355355,1,0,0:0:0:0:
197,178,355452,1,0,0:0:0:0:
229,179,355549,1,4,0:0:0:0:
261,181,355645,1,0,0:0:0:0:
293,182,355742,1,0,0:0:0:0:
325,184,355839,1,4,0:0:0:0:
256,192,356033,12,0,362129,0:0:0:0:
