osu file format v14

[General]
AudioFilename: ripsatellite.mp3
AudioLeadIn: 0
PreviewTime: 69290
Countdown: 0
SampleSet: Soft
StackLeniency: 0.7
Mode: 0
LetterboxInBreaks: 0
WidescreenStoryboard: 0

[Editor]
Bookmarks: 23425,95415,106709,167415,178709,218238
DistanceSpacing: 1.1
BeatDivisor: 4
GridSize: 32
TimelineZoom: 2.7

[Metadata]
Title:Renbei no Searchlight
TitleUnicode:聯袂のサーチライト
Artist:senya
ArtistUnicode:senya
Creator:Dailycare
Version:Normal
Source:艦隊これくしょん -艦これ-
Tags:Satellite wring ShiraKai Kantai Collection~KanColle~ 艦隊これくしょん kancolle yuuhei catharsis 幽閉カタルシス キズナ、ありふれた二人 Kizuna Arifureta Futari 56 Jintsuu Kai Ni dagger-gazel 軽巡 神通改二
BeatmapID:1046538
BeatmapSetID:491057

[Difficulty]
HPDrainRate:4
CircleSize:3.3
OverallDifficulty:4
ApproachRate:4.5
SliderMultiplier:1.03
SliderTickRate:1

[Events]
//Background and Video events
0,0,"jintsuu.jpg",0,0
//Break Periods
2,95608,105442
2,167608,177442
//Storyboard Layer 0 (Background)
//Storyboard Layer 1 (Fail)
//Storyboard Layer 2 (Pass)
//Storyboard Layer 3 (Foreground)
//Storyboard Sound Samples

[TimingPoints]
12114,352.941176470588,4,2,1,60,1,0
81290,-100,4,2,1,70,0,1
93819,-100,4,2,1,70,0,0
95408,-100,4,2,1,70,0,1
95496,-100,4,2,1,60,0,0
193172,-100,4,2,1,95,0,1
216643,-100,4,2,1,95,0,0
218231,-100,4,2,1,95,0,1
218319,-100,4,2,1,95,0,0

[Colours]
Combo1 : 255,128,128
Combo2 : 128,128,255
Combo3 : 250,194,5
Combo4 : 0,0,160

[HitObjects]
102,24,23408,6,0,P|83:92|78:141,1,103,4|8,0:0|0:0,0:0:0:0:
130,224,24113,2,0,P|178:197|243:214,1,103,2|8,3:0|0:0,0:0:0:0:
257,248,24643,2,0,P|305:275|370:258,1,103,0|0,0:0|0:0,0:0:0:0:
397,237,25172,2,0,L|407:120,2,103,8|2|8,0:0|3:0|0:0,0:0:0:0:
431,345,26231,6,0,L|326:333,1,103,2|8,3:0|0:0,0:0:0:0:
221,370,26937,2,0,P|216:321|249:255,1,103,2|8,3:0|0:0,0:0:0:0:
278,234,27466,2,0,P|222:195|180:197,1,103
145,157,27996,2,0,B|80:162|80:162|43:195,2,103,8|2|8,0:0|3:0|0:0,0:0:0:0:
222,74,29055,6,0,L|324:66,1,103,2|8,3:0|0:0,0:0:0:0:
429,22,29761,2,0,P|419:62|408:130,1,103,2|8,3:0|0:0,0:0:0:0:
378,170,30290,2,0,P|424:170|486:217,1,103,0|0,0:0|0:0,0:0:0:0:
489,252,30819,2,0,P|480:302|468:352,2,103,8|2|8,0:0|3:0|0:0,0:0:0:0:
388,306,31878,6,0,P|342:306|280:259,1,103,2|8,3:0|0:0,0:0:0:0:
192,227,32584,2,0,P|187:198|184:160,2,51.5,2|0|8,3:0|0:0|0:0,0:0:0:0:
163,275,33113,1,2,0:0:0:0:
45,263,34702,6,0,B|-2:157|-2:157|-7:100|49:78,1,206,0|0,3:0|3:0,0:0:0:0:
150,100,35761,1,8,0:0:0:0:
230,21,36113,2,0,P|273:8|408:98,1,206,0|0,3:0|0:0,0:0:0:0:
417,196,37172,1,8,0:0:0:0:
313,242,37525,6,0,B|292:279|302:318|302:318|257:329|238:376,2,154.5,0|2|8,3:0|0:0|0:0,0:0:0:0:
417,196,38937,2,0,L|522:206,1,103,0|8,3:0|0:0,0:0:0:0:
501,93,39643,2,0,L|398:83,1,103,0|8,0:0|0:0,0:0:0:0:
304,19,40349,6,0,B|274:66|292:119|292:119|309:166|268:224,1,206,0|0,3:0|0:0,0:0:0:0:
169,260,41408,1,8,0:0:0:0:
85,336,41761,2,0,P|59:282|122:159,1,206,0|0,3:0|3:0,0:0:0:0:
232,163,42819,1,0,0:0:0:0:
315,239,43172,6,0,B|364:253|397:223|397:223|473:250|445:336,2,206,0|0|0,3:0|0:0|3:0,0:0:0:0:
232,163,44937,1,8,0:0:0:0:
290,66,45290,2,0,P|237:47|140:97,1,154.5,0|0,1:0|0:0,0:0:0:0:
95,97,45996,6,0,P|99:155|106:210,1,103,0|0,1:0|1:0,0:0:0:0:
196,266,46702,2,0,P|202:214|205:163,1,103,0|0,1:0|1:0,0:0:0:0:
233,114,47231,1,0,3:0:0:0:
233,114,47408,2,0,L|356:126,2,103,0|0|0,1:0|1:0|1:0,0:0:0:0:
153,32,48466,1,0,1:0:0:0:
49,77,48819,6,0,P|51:129|58:191,1,103,0|0,1:0|1:0,0:0:0:0:
11,283,49525,2,0,P|50:308|122:301,1,103,0|0,1:0|1:0,0:0:0:0:
164,324,50055,1,0,3:0:0:0:
164,324,50231,2,0,P|169:272|171:221,2,103,0|0|0,1:0|1:0|1:0,0:0:0:0:
265,375,51290,1,0,1:0:0:0:
367,326,51643,6,0,P|362:274|360:223,1,103,0|0,1:0|1:0,0:0:0:0:
449,153,52349,2,0,P|408:118|342:111,1,103,0|0,1:0|1:0,0:0:0:0:
313,77,52878,1,0,3:0:0:0:
313,77,53055,2,0,L|204:89,2,103,0|0|0,1:0|1:0|1:0,0:0:0:0:
410,18,54113,1,0,1:0:0:0:
503,82,54466,6,0,P|514:126|491:189,1,103,0|0,1:0|1:0,0:0:0:0:
426,268,55172,2,0,P|377:263|321:249,1,103,0|0,1:0|1:0,0:0:0:0:
295,201,55702,2,0,L|308:369,1,154.5,0|8,3:0|0:0,0:0:0:0:
197,325,56584,2,0,L|189:232,2,77.25,0|0|0,1:0|1:0|1:0,0:0:0:0:
161,369,57290,6,0,P|134:336|13:328,1,154.5,4|2,1:0|3:0,0:0:0:0:
46,208,58172,2,0,P|34:174|25:155,1,51.5,2|8,3:0|0:0,0:0:0:0:
59,50,58702,6,0,B|156:32|156:32|224:61,1,154.5,4|2,1:0|3:0,0:0:0:0:
309,103,59584,2,0,P|298:126|290:151,1,51.5,2|8,3:0|0:0,0:0:0:0:
197,215,60113,6,0,P|229:250|335:253,1,154.5,4|2,1:0|3:0,0:0:0:0:
386,265,60819,2,0,P|381:211|379:176,2,77.25,0|0|0,0:0|0:0|0:0,0:0:0:0:
362,316,61525,2,0,P|399:324|464:350,1,103,2|8,3:0|0:0,0:0:0:0:
511,323,62055,2,0,P|527:294|485:169,1,154.5,2|8,3:0|0:0,0:0:0:0:
436,89,62937,6,0,P|395:114|306:183,1,154.5,4|4,1:0|1:0,0:0:0:0:
202,213,63819,2,0,P|197:175|202:141,1,51.5,0|8,1:0|0:0,0:0:0:0:
211,48,64349,6,0,B|110:25|110:25|48:62,1,154.5,4|4,1:0|1:0,0:0:0:0:
1,144,65231,2,0,P|5:169|15:192,1,51.5,0|8,1:0|0:0,0:0:0:0:
57,231,65584,1,0,0:0:0:0:
57,231,65761,6,0,P|106:224|183:218,1,103,4|0,1:0|1:0,0:0:0:0:
258,274,66466,2,0,P|298:283|313:285,1,51.5,0|2,1:0|0:0,0:0:0:0:
361,263,66819,2,0,P|401:254|416:252,1,51.5,0|2,1:0|0:0,0:0:0:0:
462,278,67172,2,0,P|476:232|457:160,1,103,4|0,1:0|1:0,0:0:0:0:
372,115,67878,1,0,1:0:0:0:
282,184,68231,2,0,P|256:179|231:173,1,51.5,0|0,1:0|1:0,0:0:0:0:
231,173,69996,6,0,P|202:225|206:274,1,103,4|2,0:0|0:0,0:0:0:0:
238,311,70525,1,2,0:0:0:0:
238,311,70702,2,0,L|342:303,1,103,2|0,3:0|0:0,0:0:0:0:
446,345,71408,2,0,L|454:230,1,103,2|2,3:0|0:0,0:0:0:0:
426,191,71937,1,2,0:0:0:0:
426,191,72113,2,0,L|434:76,1,103,2|0,3:0|0:0,0:0:0:0:
334,31,72819,6,0,P|267:34|232:68,1,103,2|2,3:0|0:0,0:0:0:0:
218,107,73349,1,2,0:0:0:0:
218,107,73525,2,0,P|160:100|103:93,1,103,2|0,3:0|0:0,0:0:0:0:
14,145,74231,1,2,3:0:0:0:
107,209,74584,2,0,P|117:242|120:268,1,51.5,2|2,0:0|0:0,0:0:0:0:
100,312,74937,2,0,P|90:345|87:371,2,51.5,2|2|0,3:0|3:0|0:0,0:0:0:0:
207,271,75643,6,0,P|244:268|331:360,1,154.5,2|2,3:0|0:0,0:0:0:0:
380,360,76349,2,0,P|399:338|407:312,2,51.5,2|2|8,3:0|3:0|0:0,0:0:0:0:
489,327,77055,6,0,L|474:169,1,154.5,2|2,3:0|0:0,0:0:0:0:
455,119,77761,2,0,L|528:125,2,51.5,2|2|8,3:0|3:0|0:0,0:0:0:0:
372,41,78466,6,0,B|342:90|342:90|358:197,1,154.5,4|2,0:0|0:0,0:0:0:0:
389,232,79172,2,0,P|363:208|248:207,1,154.5,2|2,3:0|0:0,0:0:0:0:
212,248,79878,6,0,L|107:257,1,103,6|6,0:0|0:0,0:0:0:0:
56,156,80584,2,0,L|158:147,1,103,6|0,0:0|1:0,0:0:0:0:
251,81,81290,5,4,0:0:0:0:
306,179,81643,2,0,L|379:173,1,51.5,8|8,0:0|0:0,0:0:0:0:
405,205,81996,2,0,P|435:166|436:95,2,103,2|8|4,3:0|0:0|0:0,0:0:0:0:
328,288,83055,1,8,0:0:0:0:
245,210,83408,2,0,P|183:219|134:230,1,103,2|8,3:0|0:0,0:0:0:0:
40,274,84113,5,4,0:0:0:0:
8,165,84466,2,0,L|18:97,1,51.5,8|2,0:0|0:0,0:0:0:0:
9,57,84819,2,0,B|75:43|75:43|127:68,1,103,2|8,3:0|0:0,0:0:0:0:
180,145,85525,2,0,P|207:106|208:34,1,103,4|4,0:0|0:0,0:0:0:0:
327,54,86231,2,0,P|331:104|360:146,1,103,2|4,3:0|0:0,0:0:0:0:
463,194,86937,6,0,P|461:252|448:308,1,103,4|8,0:0|0:0,0:0:0:0:
348,342,87643,2,0,B|254:318|254:318|188:351,1,154.5,4|2,0:0|0:0,0:0:0:0:
154,374,88349,2,0,P|160:301|161:247,1,103,4|8,0:0|0:0,0:0:0:0:
132,161,89055,2,0,B|226:137|226:137|292:170,1,154.5,4|2,0:0|0:0,0:0:0:0:
327,190,89761,5,4,0:0:0:0:
426,243,90113,1,8,0:0:0:0:
510,167,90466,2,0,P|504:103|488:53,1,103,2|8,3:0|0:0,0:0:0:0:
394,10,91172,2,0,P|302:21|261:81,2,154.5,4|8|8,0:0|0:0|0:0,0:0:0:0:
363,119,92584,6,0,P|345:171|305:212,1,103,4|8,0:0|0:0,0:0:0:0:
198,206,93290,2,0,P|164:168|148:119,1,103,2|4,3:0|0:0,0:0:0:0:
146,63,93819,1,4,0:0:0:0:
366,63,95408,5,4,0:0:0:0:
366,63,106702,6,0,B|423:122|423:122|406:260,1,206,2|0,3:0|0:0,0:0:0:0:
412,301,107584,2,0,L|350:313,1,51.5,2|8,0:0|0:0,0:0:0:0:
249,294,108113,2,0,P|246:336|245:390,2,77.25,4|12|2,3:0|3:0|0:0,0:0:0:0:
232,239,108819,2,0,P|234:203|235:172,2,51.5,0|2|8,0:0|3:0|0:0,0:0:0:0:
142,308,109525,6,0,P|123:271|131:196,1,103,4|8,1:0|0:0,0:0:0:0:
150,159,110055,2,0,B|54:129|54:129|-11:173,1,154.5,2|8,0:0|0:0,0:0:0:0:
52,268,110937,2,0,P|96:302|163:302,1,103,4|0,3:0|0:0,0:0:0:0:
193,284,111466,1,8,0:0:0:0:
193,284,111643,2,0,P|237:250|304:250,1,103,0|8,0:0|0:0,0:0:0:0:
384,293,112349,6,0,B|413:170|413:170|379:78,1,206,4|0,1:0|0:0,0:0:0:0:
376,39,113231,2,0,P|328:31|301:29,1,51.5,4|8,3:0|0:0,0:0:0:0:
238,103,113761,2,0,P|218:68|215:18,2,77.25,4|12|8,3:0|3:0|0:0,0:0:0:0:
235,159,114466,2,0,P|265:169|292:180,2,51.5,0|2|8,0:0|3:0|0:0,0:0:0:0:
143,225,115172,6,0,P|123:183|132:118,1,103,4|8,1:0|0:0,0:0:0:0:
98,78,115702,2,2,B|194:58|194:58|250:80|250:80|351:58,1,257.5,0|2,0:0|1:0,0:1:0:0:
346,58,117290,6,0,P|333:126|325:178,1,103,0|0,1:0|1:0,0:0:0:0:
247,240,117996,6,0,P|281:269|350:274,2,103,4|8|0,1:0|0:0|0:0,0:0:0:0:
220,189,118878,2,0,P|177:169|103:168,1,103,4|0,3:0|0:0,0:0:0:0:
75,131,119408,2,0,L|66:245,1,103,2|0,3:0|0:0,0:0:0:0:
0,322,120113,2,0,P|43:342|117:343,1,103,0|8,0:0|0:0,0:0:0:0:
204,384,120819,6,0,L|213:270,1,103,4|8,1:0|0:0,0:0:0:0:
293,202,121525,1,0,0:0:0:0:
293,202,121702,2,0,B|241:167|241:167|130:182,1,154.5,4|2,3:0|3:0,0:0:0:0:
41,146,122584,1,8,0:0:0:0:
81,39,122937,2,0,P|114:34|201:62,1,103,0|8,3:0|0:0,0:0:0:0:
285,93,123643,6,0,P|318:98|405:70,2,103,2|8|0,3:0|0:0|0:0,0:0:0:0:
239,127,124525,2,0,P|228:183|223:244,1,103,2|2,3:0|3:0,0:0:0:0:
259,274,125055,2,0,B|321:297|321:297|371:283,1,103,2|0,3:0|0:0,0:0:0:0:
447,355,125761,2,0,P|471:284|459:241,1,103,0|8,0:0|0:0,0:0:0:0:
379,185,126466,6,0,P|355:114|367:71,1,103,4|8,1:0|0:0,0:0:0:0:
447,16,127172,1,4,1:0:0:0:
447,16,127349,2,0,B|488:39|488:39|507:158,1,154.5,4|4,1:0|1:0,0:0:0:0:
461,249,128231,1,8,0:0:0:0:
349,231,128584,2,0,L|364:326,2,77.25,2|2|2,1:0|1:0|1:0,0:0:0:0:
369,177,129290,5,6,1:0:0:0:
369,177,129466,2,0,L|295:172,1,51.5,0|2,0:0|1:0,0:0:0:0:
215,223,129996,2,0,L|90:212,1,103,2|2,1:0|1:0,0:0:0:0:
13,158,130702,1,6,1:0:0:0:
13,158,130878,2,0,P|22:128|25:108,1,51.5,2|2,1:0|1:0,0:0:0:0:
104,27,131408,2,0,P|160:32|201:71,1,103,2|2,1:0|1:0,0:0:0:0:
208,115,131937,1,0,0:0:0:0:
208,115,132113,6,0,L|202:236,1,103,2|2,1:0|1:0,0:0:0:0:
91,242,132819,2,0,L|85:363,1,103,2|2,1:0|1:0,0:0:0:0:
195,375,133525,2,0,P|229:348|301:360,1,103,2|2,1:0|1:0,0:0:0:0:
342,341,134055,2,0,B|371:250|371:250|338:181,1,154.5,2|2,1:0|1:0,0:0:0:0:
321,145,134761,1,0,0:0:0:0:
321,145,134937,6,0,P|370:125|503:188,1,206,6|2,1:0|1:0,0:0:0:0:
442,281,135996,1,0,1:0:0:0:
332,252,136349,2,0,P|283:272|150:209,1,206,2|2,1:0|1:0,0:0:0:0:
40,193,137408,2,0,P|48:152|57:122,1,51.5,0|2,1:0|1:0,0:0:0:0:
28,90,137761,6,0,B|89:77|89:77|134:96,1,103,6|2,1:0|1:0,0:0:0:0:
175,120,138290,1,2,1:0:0:0:
175,120,138466,2,0,P|212:102|286:117,1,103,2|2,1:0|1:0,0:0:0:0:
363,175,139172,2,0,L|369:94,2,77.25,6|0|2,1:0|0:0|1:0,0:0:0:0:
390,224,139878,2,0,L|384:292,1,51.5,2|2,1:0|1:0,0:0:0:0:
352,321,140231,2,0,P|392:320|426:329,1,51.5,2|2,1:0|1:0,0:0:0:0:
451,351,140584,5,4,1:0:0:0:
505,335,140761,2,0,P|522:302|509:225,1,103,2|0,1:0|0:0,0:0:0:0:
472,201,141290,2,0,L|305:209,1,154.5,2|2,3:0|1:0,0:0:0:0:
270,240,141996,2,0,P|263:185|260:129,1,103,6|2,1:0|1:0,0:0:0:0:
186,51,142702,1,2,1:0:0:0:
76,80,143055,2,0,P|73:109|72:144,1,51.5,2|0,1:0|1:0,0:0:0:0:
62,187,143408,6,0,P|69:242|72:298,1,103,2|2,1:0|1:0,0:0:0:0:
167,355,144113,1,2,1:0:0:0:
279,339,144466,2,0,P|286:297|285:281,1,51.5,2|2,1:0|3:0,0:0:0:0:
258,238,144819,1,2,1:0:0:0:
258,238,144996,2,0,P|251:196|252:180,1,51.5,0|2,0:0|1:0,0:0:0:0:
275,136,145349,2,0,P|317:122|420:191,1,154.5,2|2,0:1|1:0,0:0:0:0:
496,241,146231,6,0,B|404:266|404:266|333:234,1,154.5,6|0,1:0|0:0,0:0:0:0:
300,214,146937,2,0,B|246:189|246:189|154:214,1,154.5,2|0,1:0|0:0,0:0:0:0:
100,231,147643,2,0,P|85:177|77:119,1,103,2|2,1:0|1:0,0:0:0:0:
118,24,148349,2,0,P|172:17|232:48,1,103,2|2,1:0|1:0,0:0:0:0:
279,128,149055,6,0,P|333:135|393:104,1,103,2|2,1:0|1:0,0:0:0:0:
415,75,149584,1,0,0:0:0:0:
415,75,149761,2,0,L|428:192,1,103,2|2,1:0|1:0,0:0:0:0:
372,276,150466,2,0,L|380:364,2,77.25,2|2|2,1:0|0:1|0:1,0:0:0:0:
330,237,151172,2,0,P|278:229|225:260,1,103,2|2,1:0|1:0,0:0:0:0:
129,295,151878,6,0,P|121:253|139:197,1,103,2|2,1:0|1:0,0:0:0:0:
104,151,152408,1,0,1:0:0:0:
104,151,152584,2,0,P|124:113|174:82,1,103,2|2,1:0|1:0,0:0:0:0:
177,24,153114,1,0,1:0:0:0:
177,24,153290,2,0,P|216:8|275:16,1,103,2|2,1:0|1:0,0:0:0:0:
318,52,153819,1,0,1:0:0:0:
318,52,153996,2,2,P|312:113|308:218,1,154.5,2|2,1:0|3:0,0:1:0:0:
271,249,154702,6,0,B|364:291|364:291|435:266,1,154.5,4|0,0:0|0:0,0:0:0:0:
470,278,155408,2,0,P|480:238|488:176,1,103,2|8,3:0|0:0,0:0:0:0:
457,67,156113,2,0,P|422:32|308:32,1,154.5,4|0,0:0|0:0,0:0:0:0:
280,63,156819,2,0,P|232:95|165:93,1,103,2|8,3:0|0:0,0:0:0:0:
85,49,157525,6,0,B|67:114|67:114|83:156,1,103,4|8,0:0|0:0,0:0:0:0:
101,199,158055,1,0,0:0:0:0:
101,199,158231,2,0,P|34:183|10:178,2,77.25,2|0|0,3:0|0:0|0:0,0:0:0:0:
138,242,158937,2,0,P|199:232|255:217,1,103,4|8,0:0|0:0,0:0:0:0:
285,188,159466,2,0,P|340:209|367:305,1,154.5,0|8,0:0|0:0,0:0:0:0:
278,362,160349,6,0,L|157:355,1,103,4|8,0:0|0:0,0:0:0:0:
120,371,160878,2,0,P|109:316|101:206,1,154.5,0|8,0:0|0:0,0:0:0:0:
22,136,161761,2,0,P|54:112|129:111,1,103,4|8,0:0|0:0,0:0:0:0:
149,61,162290,2,0,P|220:77|284:140,1,154.5,0|8,0:0|0:0,0:0:0:0:
292,186,162996,1,2,0:0:0:0:
292,186,163172,6,0,L|406:198,1,103,4|8,0:0|0:0,0:0:0:0:
502,162,163878,2,0,B|511:107|511:107|490:58,1,103,2|8,3:0|0:0,0:0:0:0:
460,22,164408,1,2,0:0:0:0:
460,22,164584,6,0,L|386:30,1,51.5,2|0,3:0|0:0,0:0:0:0:
367,66,164937,2,0,L|293:58,1,51.5,8|0,0:0|0:0,0:0:0:0:
262,41,165290,2,0,L|272:161,1,103,2|8,3:0|0:0,0:0:0:0:
235,188,165819,1,0,0:0:0:0:
235,188,165996,6,0,L|245:308,1,103,2|8,3:0|0:0,0:0:0:0:
157,365,166702,1,2,3:0:0:0:
93,271,167055,1,8,0:0:0:0:
6,344,167408,1,4,0:0:0:0:
6,344,178702,6,0,B|60:323|52:259|52:259|-2:232|2:159,1,206,2|0,0:0|0:0,0:0:0:0:
50,98,179761,1,0,0:0:0:0:
94,178,180113,2,0,P|237:221|308:240,1,206,2|0,0:0|0:0,0:0:0:0:
470,185,181525,6,0,P|510:120|418:50,1,206,2|0,0:0|0:0,0:0:0:0:
367,120,182584,1,0,0:0:0:0:
293,63,182937,2,0,B|258:110|198:93|198:93|236:208,1,206,2|2,0:0|0:0,0:0:0:0:
162,251,183996,1,2,0:0:0:0:
70,236,184349,6,0,B|19:164|19:164|44:96,1,154.5,2|0,0:0|0:0,0:0:0:0:
62,60,185055,2,0,B|108:67|139:44|139:44|154:80|210:103,1,154.5,2|0,0:0|0:0,0:0:0:0:
236,102,185761,2,0,P|232:147|176:197,1,103,2|0,0:0|0:0,0:0:0:0:
102,179,186466,2,0,P|106:224|162:274,1,103,2|0,0:0|0:0,0:0:0:0:
235,272,187172,1,2,0:0:0:0:
256,192,187261,12,0,188584,0:0:0:0:
315,193,189996,6,0,B|337:257|345:324|345:324|435:213|435:213|444:283|465:346,1,412,2|0,0:0|0:0,0:0:0:0:
464,344,193172,6,0,P|457:317|453:294,1,51.5,4|2,0:0|0:0,0:0:0:0:
475,241,193525,1,2,3:0:0:0:
475,241,193702,2,0,P|481:214|486:191,1,51.5,2|8,0:0|0:0,0:0:0:0:
447,84,194231,2,0,P|409:72|339:111,1,103,4|8,0:0|0:0,0:0:0:0:
318,140,194761,1,2,0:0:0:0:
318,140,194937,2,0,L|325:206,2,51.5,2|2|8,3:0|3:0|0:0,0:0:0:0:
207,111,195643,6,0,P|169:123|99:84,1,103,4|8,0:0|0:0,0:0:0:0:
72,60,196172,1,2,0:0:0:0:
72,60,196349,2,0,L|76:3,2,51.5,2|2|8,3:0|3:0|0:0,0:0:0:0:
10,154,197055,2,0,P|8:210|18:278,1,103,4|8,0:0|0:0,0:0:0:0:
27,311,197584,1,2,0:0:0:0:
27,311,197761,2,0,L|84:305,1,51.5,2|2,3:0|3:0,0:0:0:0:
129,328,198113,2,0,L|186:322,1,51.5,8|2,0:0|0:0,0:0:0:0:
235,334,198466,6,0,B|268:240|268:240|240:169,1,154.5,4|2,0:0|0:0,0:0:0:0:
224,137,199172,1,4,0:0:0:0:
224,137,199349,2,0,L|150:144,1,51.5,2|8,3:0|0:0,0:0:0:0:
122,40,199878,6,0,B|216:12|216:12|279:51,1,154.5,4|2,0:0|0:0,0:0:0:0:
294,89,200584,1,4,0:0:0:0:
294,89,200761,2,0,P|332:95|359:97,1,51.5,2|8,3:0|0:0,0:0:0:0:
399,76,201113,1,2,0:0:0:0:
449,101,201290,6,0,P|462:164|432:207,1,103,4|8,0:0|0:0,0:0:0:0:
342,244,201996,2,0,L|317:155,2,77.25,4|2|2,0:0|0:0|0:0,0:0:0:0:
322,297,202702,6,0,P|345:329|410:355,1,103,6|8,0:0|0:0,0:0:0:0:
507,312,203408,2,0,P|484:280|419:254,1,103,4|8,0:0|0:0,0:0:0:0:
322,297,204113,5,4,0:0:0:0:
251,208,204466,2,0,P|215:202|176:206,1,51.5,8|2,0:0|0:0,0:0:0:0:
152,234,204819,2,0,L|135:118,1,103,2|8,3:0|0:0,0:0:0:0:
223,58,205525,1,4,0:0:0:0:
116,18,205878,1,8,0:0:0:0:
32,94,206231,2,0,L|46:195,1,103,2|8,3:0|0:0,0:0:0:0:
152,234,206937,5,4,0:0:0:0:
240,163,207290,2,0,P|275:157|315:161,1,51.5,8|2,0:0|0:0,0:0:0:0:
341,183,207643,2,0,L|358:67,1,103,2|8,3:0|0:0,0:0:0:0:
459,33,208349,2,0,B|475:72|463:114|463:114|472:151,1,103,4|4,0:0|0:0,0:0:0:0:
467,249,209055,2,0,B|463:270|463:270|475:312|459:350,1,103,2|4,3:0|0:0,0:0:0:0:
355,304,209761,6,0,P|301:296|245:335,1,103,4|8,0:0|0:0,0:0:0:0:
202,320,210290,1,2,0:0:0:0:
202,320,210466,2,0,B|166:247|166:247|161:200|209:170,1,154.5,4|2,0:0|0:0,0:0:0:0:
202,126,211172,2,0,L|306:136,1,103,4|8,0:0|0:0,0:0:0:0:
349,171,211702,1,2,0:0:0:0:
349,171,211878,2,0,B|385:98|385:98|390:51|342:21,1,154.5,4|2,0:0|0:0,0:0:0:0:
302,21,212584,5,4,0:0:0:0:
258,125,212937,1,8,0:0:0:0:
211,228,213290,2,0,P|167:245|100:238,1,103,2|8,3:0|0:0,0:0:0:0:
16,181,213996,2,0,P|24:126|114:74,2,154.5,4|2|8,0:0|0:0|0:0,0:0:0:0:
112,242,215408,6,0,P|164:245|212:228,1,103,4|8,0:0|0:0,0:0:0:0:
306,167,216113,2,0,P|354:149|406:152,1,103,2|4,3:0|0:0,0:0:0:0:
457,176,216643,1,4,0:0:0:0:
62,218,218231,5,4,0:0:0:0:
