osu file format v13

[General]
AudioFilename: senya - Opposite World (EDver.).mp3
AudioLeadIn: 0
PreviewTime: 52561
Countdown: 1
SampleSet: None
StackLeniency: 0.7
Mode: 0
LetterboxInBreaks: 1
WidescreenStoryboard: 0

[Editor]
DistanceSpacing: 1
BeatDivisor: 8
GridSize: 4
TimelineZoom: 1

[Metadata]
Title:Opposite World (TV Size)
TitleUnicode:Opposite World (TV Size)
Artist:senya
ArtistUnicode:senya
Creator:Number5
Version:Extra
Source:Touhou
Tags:th06 koumakyou remilia scarlet flandre scarlet
BeatmapID:530294
BeatmapSetID:227619

[Difficulty]
HPDrainRate:8
CircleSize:4
OverallDifficulty:9
ApproachRate:9
SliderMultiplier:3.2
SliderTickRate:2

[Events]
//Background and Video events
0,0,"b1afbd1b0343f553864c2c8bfbf39e1d.jpg",0,0
//Break Periods
//Storyboard Layer 0 (Background)
//Storyboard Layer 1 (Fail)
//Storyboard Layer 2 (Pass)
//Storyboard Layer 3 (Foreground)
//Storyboard Sound Samples
//Background Colour Transformations
3,100,163,162,255

[TimingPoints]
-58,495.867768595041,4,2,2,40,1,0
-58,-200,4,2,2,40,0,0
19776,-133.333333333333,4,2,2,50,0,0
35644,-100,4,2,2,70,0,0
53495,-100,4,2,2,60,0,1
69362,-100,4,2,2,60,0,0
69363,-100,4,2,2,60,0,1
85231,-133.333333333333,4,2,2,40,0,1
91181,-1000,4,2,2,20,0,0

[Colours]
Combo1 : 128,96,64
Combo2 : 64,128,96
Combo3 : 64,96,128
Combo4 : 128,128,64
Combo5 : 128,16,16

[HitObjects]
256,192,1925,12,0,2917,0:0:0:0:
116,104,3165,5,0,0:0:0:0:
208,228,3413,1,0,0:0:0:0:
252,64,3661,1,0,0:0:0:0:
320,156,3908,2,0,P|368:160|420:148,1,80
252,64,4404,2,0,P|204:60|152:72,1,80
320,156,4900,2,0,P|308:252|336:336,1,160
208,300,5644,1,0,0:0:0:0:
88,340,5892,6,0,P|84:296|96:240,1,80
108,176,6388,1,0,0:0:0:0:
60,80,6636,1,0,0:0:0:0:
216,32,6884,1,0,0:0:0:0:
284,152,7132,2,0,L|276:104,1,40
368,160,7380,2,0,L|376:208,1,40
464,248,7627,2,0,L|456:200,1,40
320,256,7875,6,0,P|264:256|184:188,1,160
24,156,8619,1,0,0:0:0:0:
147,68,8867,2,0,P|199:36|255:32,1,80
420,64,9363,2,0,P|368:96|312:100,1,80
256,140,9859,5,0,0:0:0:0:
280,344,10107,1,0,0:0:0:0:
420,64,10355,1,0,0:0:0:0:
230,306,10603,1,0,0:0:0:0:
230,306,11099,1,0,0:0:0:0:
256,140,11346,2,0,P|264:96|260:44,1,80
420,64,11842,6,0,P|408:136|440:220,2,160,0|0|0,0:0|0:0|0:0,0:0:0:0:
256,140,13082,2,0,P|192:136|152:140,2,80,0|0|0,0:0|0:0|0:0,0:0:0:0:
192,240,13826,5,0,0:0:0:0:
248,332,14074,1,0,0:0:0:0:
328,176,14322,1,0,0:0:0:0:
424,232,14570,1,0,0:0:0:0:
420,64,14818,2,0,P|376:76|320:68,1,80
44,88,15313,2,0,P|88:76|144:84,1,80
224,228,15809,6,0,P|240:136|216:40,1,160
40,244,16553,1,0,0:0:0:0:
364,148,16801,2,0,P|428:136|464:140,1,80
280,308,17297,2,0,P|216:320|180:316,1,80
224,228,17793,6,0,P|140:196|104:120,1,160
384,96,18537,1,0,0:0:0:0:
368,304,18784,1,0,0:0:0:0:
328,311,19032,2,0,L|400:299,1,40
260,280,19280,2,0,L|188:292,1,40
100,264,19528,2,0,L|172:252,1,40
108,152,19776,6,0,P|156:140|60:72,1,240.000009155274
276,48,20520,1,0,0:0:0:0:
304,160,20768,2,0,P|352:136|392:68,1,120.000004577637
416,208,21264,2,0,P|368:232|328:300,1,120.000004577637
232,272,21760,6,0,P|164:220|44:304,2,240.000009155274,0|0|0,0:0|0:0|0:0,0:0:0:0:
80,120,22999,1,0,0:0:0:0:
96,128,23123,1,0,0:0:0:0:
164,168,23247,2,0,L|168:108,1,60.0000022888184
240,64,23495,1,0,0:0:0:0:
248,76,23619,1,0,0:0:0:0:
280,188,23743,6,0,P|347:133|328:-8,1,240.000009155274
164,168,24487,2,0,P|97:223|116:364,1,240.000009155274,0|0,0:0|0:0,0:0:0:0:
344,276,25231,1,0,0:0:0:0:
200,280,25479,1,0,0:0:0:0:
408,188,25727,5,0,0:0:0:0:
412,176,25851,1,0,0:0:0:0:
416,164,25975,1,0,0:0:0:0:
420,152,26099,1,0,0:0:0:0:
424,140,26222,1,0,0:0:0:0:
216,144,26470,1,0,0:0:0:0:
220,156,26594,1,0,0:0:0:0:
224,168,26718,1,0,0:0:0:0:
228,180,26842,1,0,0:0:0:0:
232,192,26965,1,0,0:0:0:0:
236,204,27090,1,0,0:0:0:0:
256,272,27214,2,0,L|236:204,1,60.0000022888184
344,296,27462,2,0,L|364:364,1,60.0000022888184
432,252,27710,6,0,P|496:228|464:48,1,240.000009155274
364,64,28454,1,0,0:0:0:0:
224,152,28702,1,0,0:0:0:0:
88,140,28950,2,0,L|144:176,1,60.0000022888184
80,288,29198,2,0,L|83:221,1,60.0000022888184
212,216,29446,2,0,L|152:246,1,60.0000022888184
320,176,29694,6,0,P|320:256|444:216,1,240.000009155274
440,104,30437,1,0,0:0:0:0:
376,216,30685,1,0,0:0:0:0:
296,108,30933,2,0,P|224:84|160:88,1,120.000004577637
84,280,31429,1,0,0:0:0:0:
88,268,31553,1,0,0:0:0:0:
92,256,31677,6,0,P|104:184|92:112,1,120.000004577637
99,137,32421,1,0,0:0:0:0:
216,88,32669,2,0,P|308:80|412:196,1,240.000009155274
400,324,33413,1,0,0:0:0:0:
200,336,33661,5,0,0:0:0:0:
200,336,34652,1,0,0:0:0:0:
112,252,34900,2,0,L|172:260,1,60.0000022888184
180,144,35148,1,0,0:0:0:0:
200,164,35272,1,0,0:0:0:0:
292,180,35396,2,0,L|248:232,1,60.0000022888184
316,56,35644,6,0,P|392:84|472:8,1,160,12|0,0:0|0:0,0:0:0:0:
384,8,36016,1,0,0:0:0:0:
384,144,36140,2,0,P|396:220|460:280,1,160
336,312,36512,1,0,0:0:0:0:
236,292,36636,2,0,L|64:264,1,160,8|0,0:0|0:0,0:0:0:0:
232,216,37008,2,0,B|272:216|296:244|296:244|316:232|348:224|408:236|415:297|416:324,1,240,8|8,0:0|0:0,0:0:0:0:
244,104,37503,1,0,0:0:0:0:
152,144,37627,6,0,L|64:172,1,80,8|0,0:0|0:0,0:0:0:0:
148,48,37875,2,0,L|236:20,1,80
336,112,38123,2,0,L|412:136,1,80,8|0,0:0|0:0,0:0:0:0:
484,256,38371,2,0,L|407:231,1,80
300,192,38619,2,0,P|284:244|248:268,1,80,8|0,0:0|0:0,0:0:0:0:
212,192,38867,1,0,0:0:0:0:
336,112,38991,2,0,P|298:72|296:28,1,80,8|0,0:0|0:0,0:0:0:0:
380,35,39239,1,0,0:0:0:0:
388,182,39363,2,0,P|441:169|479:189,1,80,8|0,0:0|0:0,0:0:0:0:
432,258,39611,6,0,L|416:344,2,80,0|0|0,0:0|0:0|0:0,0:0:0:0:
336,112,39983,2,0,L|352:26,2,80,0|8|0,0:0|0:0|0:0,0:0:0:0:
264,180,40355,1,0,0:0:0:0:
168,200,40479,1,0,0:0:0:0:
72,180,40603,2,0,P|112:124|208:112,1,160
264,180,40975,1,0,0:0:0:0:
344,220,41099,2,0,P|332:260|348:320,1,80,8|0,0:0|0:0,0:0:0:0:
433,258,41346,2,0,P|445:218|429:158,1,80,0|0,0:0|0:0,0:0:0:0:
340,116,41594,6,0,L|256:112,1,80
432,72,41842,2,0,L|516:76,1,80
356,16,42090,2,0,L|188:8,1,160,8|0,0:0|0:0,0:0:0:0:
96,88,42462,1,0,0:0:0:0:
76,176,42586,2,0,L|-4:196,1,80
136,232,42834,2,0,L|216:212,1,80
196,120,43082,2,0,P|256:128|304:232,1,160,8|0,0:0|0:0,0:0:0:0:
336,316,43454,1,0,0:0:0:0:
404,240,43578,6,0,P|392:176|332:64,1,160,12|0,0:0|0:0,0:0:0:0:
256,32,43950,1,0,0:0:0:0:
196,120,44074,2,0,P|162:126|165:254,1,160
180,300,44446,1,0,0:0:0:0:
264,288,44570,2,0,B|292:268|280:232|280:232|232:220|188:186,1,160,8|0,0:0|0:0,0:0:0:0:
280,152,44941,2,0,P|320:164|424:24,1,240,8|8,0:0|0:0,0:0:0:0:
332,64,45437,1,0,0:0:0:0:
184,80,45561,5,8,0:0:0:0:
208,84,45685,1,0,0:0:0:0:
164,160,45809,1,0,0:0:0:0:
180,152,45933,1,0,0:0:0:0:
192,236,46057,1,8,0:0:0:0:
200,220,46181,1,0,0:0:0:0:
260,256,46305,1,0,0:0:0:0:
260,272,46429,1,0,0:0:0:0:
320,304,46553,2,0,P|388:300|408:188,1,160,8|0,0:0|0:0,0:0:0:0:
348,232,46925,2,0,B|288:160|332:64|332:64|364:88|416:76,1,240,8|8,0:0|0:0,0:0:0:0:
380,4,47421,1,0,0:0:0:0:
264,20,47545,6,0,L|180:40,2,80,0|0|0,0:0|0:0|0:0,0:0:0:0:
383,146,47917,2,0,L|323:83,2,80,0|8|0,0:0|0:0|0:0,0:0:0:0:
333,312,48289,2,0,L|357:229,1,80
165,352,48537,2,0,L|249:332,2,80,0|0|0,0:0|0:0|0:0,0:0:0:0:
46,226,48908,2,0,L|105:288,2,80,0|8|0,0:0|0:0|0:0,0:0:0:0:
96,60,49281,2,0,L|71:142,1,80
176,56,49528,6,0,L|88:60,1,80,8|0,0:0|0:0,0:0:0:0:
432,80,49776,2,0,L|520:76,1,80
296,72,50024,1,0,0:0:0:0:
462,242,50272,2,0,L|382:245,1,80,8|0,0:0|0:0,0:0:0:0:
47,226,50520,2,0,L|126:222,1,80
262,230,50768,1,0,0:0:0:0:
296,72,51016,2,0,L|304:-8,1,80,8|0,0:0|0:0,0:0:0:0:
262,230,51264,2,0,L|254:310,1,80
256,192,51512,12,0,52503,0:0:0:0:
156,95,52999,6,0,L|74:122,1,80,0|0,0:0|0:0,0:0:0:0:
373,128,53247,2,0,L|455:101,1,80,0|0,0:0|0:0,0:0:0:0:
263,208,53495,6,0,P|266:244|253:302,1,80,8|0,0:0|0:0,0:0:0:0:
200,136,53743,2,0,P|197:100|210:42,1,80,8|0,0:0|0:0,0:0:0:0:
152,240,53991,2,0,P|72:248|0:228,1,120,8|0,0:1|0:0,0:0:0:0:
76,168,54239,2,0,L|68:112,1,40,8|0,0:0|0:0,0:0:0:0:
156,96,54363,2,0,L|152:136,1,40,8|0,0:1|0:0,0:0:0:0:
244,96,54487,2,0,L|236:52,1,40,8|0,0:0|0:0,0:0:0:0:
336,32,54611,2,0,L|328:80,1,40,8|0,0:1|0:0,0:0:0:0:
400,96,54735,2,0,L|480:80,1,80,8|0,0:0|0:0,0:0:0:0:
476,64,54983,2,0,P|500:120|488:208,1,120,8|0,0:1|0:0,0:0:0:0:
408,144,55231,2,0,P|336:156|316:160,1,80,8|0,0:0|0:0,0:0:0:0:
224,216,55479,6,8,P|224:260|196:304,1,80,8|0,0:0|0:0,0:0:0:0:
140,172,55727,2,0,P|140:128|168:84,1,80,8|0,0:0|0:0,0:0:0:0:
220,152,55975,2,0,P|276:152|332:120,1,120,8|0,1:0|0:0,0:0:0:0:
332,136,56222,2,0,L|328:192,1,40,8|0,0:0|0:0,0:0:0:0:
221,256,56346,2,0,L|225:200,1,40,8|0,0:1|0:0,0:0:0:0:
220,152,56470,1,8,0:0:0:0:
140,172,56594,1,8,0:1:0:0:
52,204,56718,1,8,0:0:0:0:
68,112,56842,1,8,0:0:0:0:
144,100,56966,2,0,P|184:96|224:32,1,120,8|0,0:0|0:0,0:0:0:0:
224,48,57214,2,0,P|224:104|248:144,1,80,8|8,0:1|0:0,0:0:0:0:
316,72,57462,6,0,L|420:64,1,80,8|0,0:0|0:0,0:0:0:0:
440,140,57710,2,0,P|416:200|464:256,1,120,8|0,0:0|0:0,0:0:0:0:
420,228,57958,2,0,B|276:232,1,120,8|0,0:1|0:0,0:0:0:0:
272,236,58206,2,0,L|268:284,1,40,8|0,0:0|0:0,0:0:0:0:
192,208,58330,2,0,L|188:160,1,40,8|0,0:1|0:0,0:0:0:0:
111,236,58454,2,0,L|105:319,1,80,8|0,0:0|0:0,0:0:0:0:
28,212,58702,2,0,L|20:116,1,80,8|0,0:0|0:0,0:0:0:0:
108,52,58950,2,0,P|176:80|228:40,1,120,8|0,0:1|0:0,0:0:0:0:
196,88,59198,2,0,P|196:148|192:208,1,120,8|0,0:1|0:0,0:0:0:0:
280,152,59446,5,8,0:0:0:0:
348,200,59570,1,0,0:0:0:0:
272,156,59694,1,8,0:0:0:0:
372,124,59818,1,0,0:0:0:0:
260,160,59941,1,8,0:1:0:0:
136,192,60189,1,8,0:0:0:0:
144,296,60313,1,8,0:1:0:0:
140,184,60437,1,8,0:0:0:0:
84,252,60561,1,0,0:0:0:0:
196,88,60685,2,0,L|288:68,1,80,8|8,0:0|0:0,0:0:0:0:
393,281,60933,2,0,L|369:193,1,80,8|8,0:1|0:0,0:0:0:0:
156,324,61181,2,0,L|168:228,1,80,8|8,0:1|0:1,0:0:0:0:
244,204,61429,6,0,P|304:220|372:184,1,120,8|0,0:0|0:0,0:0:0:0:
360,184,61677,2,0,L|360:252,1,40,8|0,0:0|0:0,0:0:0:0:
436,172,61801,2,0,L|432:120,1,40,8|0,0:0|0:0,0:0:0:0:
400,64,61925,2,0,P|336:84|304:16,1,120,8|0,0:1|0:0,0:0:0:0:
236,92,62173,2,0,P|264:124|300:148,1,80,8|8,0:0|0:1,0:0:0:0:
132,200,62421,6,0,L|132:144,1,40,8|0,0:0|0:0,0:0:0:0:
48,224,62545,2,0,L|56:264,1,40,8|0,0:1|0:0,0:0:0:0:
116,344,62669,2,0,P|152:304|156:272,1,80,8|8,0:0|0:0,0:0:0:0:
236,168,62917,2,0,P|264:228|364:216,1,160,8|8,0:1|0:1,0:0:0:0:
308,172,63289,1,0,0:0:0:0:
352,72,63413,6,0,L|436:52,1,80,8|0,0:0|0:0,0:0:0:0:
136,68,63661,2,0,L|52:48,1,80,8|0,0:0|0:0,0:0:0:0:
236,168,63908,1,8,0:1:0:0:
432,280,64156,6,0,L|354:261,1,80,8|8,0:0|0:1,0:0:0:0:
64,288,64404,2,0,L|141:269,1,80,8|8,0:0|0:1,0:0:0:0:
236,168,64651,1,8,0:0:0:0:
264,84,64776,1,8,0:0:0:0:
352,72,64900,1,8,0:1:0:0:
432,116,65024,1,8,0:0:0:0:
400,204,65148,1,8,0:1:0:0:
432,280,65272,1,8,0:1:0:0:
340,296,65396,6,0,L|236:312,1,80,8|0,0:0|0:0,0:0:0:0:
56,212,65644,2,0,L|160:224,1,80,8|0,0:0|0:0,0:0:0:0:
264,84,65892,2,0,L|172:56,1,80,8|0,0:1|0:0,0:0:0:0:
432,116,66140,2,0,P|472:104|524:116,1,80,8|8,0:0|0:1,0:0:0:0:
432,280,66388,2,0,P|468:252|464:160,1,120,8|0,0:0|0:0,0:0:0:0:
320,200,66636,2,0,L|404:204,1,80,8|0,0:1|0:0,0:0:0:0:
216,204,66884,2,0,L|216:248,1,40,8|0,0:0|0:0,0:0:0:0:
132,196,67008,2,0,L|136:148,1,40,8|0,0:0|0:0,0:0:0:0:
56,212,67132,2,0,P|52:292|64:324,1,80,8|8,0:1|0:1,0:0:0:0:
112,340,67380,5,8,0:0:0:0:
180,376,67503,1,0,0:0:0:0:
256,360,67627,1,8,0:0:0:0:
304,296,67751,1,0,0:0:0:0:
372,328,67875,1,8,0:1:0:0:
432,280,67999,1,0,0:0:0:0:
464,208,68123,1,8,0:0:0:0:
456,132,68247,1,8,0:1:0:0:
400,72,68371,2,0,L|308:88,1,80,8|8,0:0|0:1,0:0:0:0:
116,88,68619,2,0,L|232:76,1,80,8|8,0:0|0:0,0:0:0:0:
108,208,68867,2,0,L|112:168,1,40,8|0,0:1|0:0,0:0:0:0:
192,224,68991,2,0,L|208:180,1,40,8|0,0:0|0:0,0:0:0:0:
252,276,69115,2,0,L|288:228,1,40,8|0,0:1|0:0,0:0:0:0:
300,340,69239,2,0,L|352:308,1,40,8|0,0:1|0:0,0:0:0:0:
344,336,69363,6,0,P|304:300|292:252,1,80,8|0,0:0|0:0,0:0:0:0:
292,128,69611,2,0,P|344:152|408:104,1,120,8|0,0:0|0:0,0:0:0:0:
388,136,69859,2,0,P|420:200|368:268,1,160,8|8,0:1|0:0,0:0:0:0:
252,276,70231,1,8,0:1:0:0:
192,224,70355,2,0,L|196:180,1,40,8|0,0:0|0:0,0:0:0:0:
277,91,70479,2,0,L|297:139,1,40,8|0,0:1|0:0,0:0:0:0:
388,136,70603,2,0,P|396:76|448:44,1,120,8|0,0:0|0:0,0:0:0:0:
432,40,70851,2,0,B|460:116|460:116|472:180|416:200,1,160,8|8,0:1|0:0,0:0:0:0:
396,252,71222,1,8,0:1:0:0:
252,276,71346,6,0,P|184:296|120:352,1,120,8|0,0:0|0:0,0:0:0:0:
128,340,71594,2,0,P|112:280|96:260,1,80,8|0,0:0|0:0,0:0:0:0:
88,120,71842,2,0,P|132:128|204:80,1,120,8|0,0:1|0:0,0:0:0:0:
180,112,72090,2,0,L|232:188,1,80,8|8,0:0|0:1,0:0:0:0:
312,136,72338,1,8,0:0:0:0:
396,108,72462,1,8,0:0:0:0:
464,156,72586,1,8,0:1:0:0:
448,240,72710,1,8,0:0:0:0:
348,268,72834,2,0,P|268:248|212:280,1,120,8|0,0:1|0:0,0:0:0:0:
240,276,73082,2,0,L|248:144,1,120,8|0,0:0|0:0,0:0:0:0:
232,168,73330,6,0,P|280:176|312:120,1,120,8|0,0:0|0:0,0:0:0:0:
312,136,73578,2,0,P|344:176|416:192,1,120,8|0,0:0|0:0,0:0:0:0:
392,220,73826,2,0,B|372:160|372:160|396:108,1,120,8|0,0:1|0:0,0:0:0:0:
232,40,74074,1,0,0:0:0:0:
140,64,74198,1,8,0:0:0:0:
120,152,74260,1,8,0:1:0:0:
180,216,74322,2,0,L|228:192,1,40,8|0,0:0|0:0,0:0:0:0:
240,276,74446,2,0,L|300:300,1,40,8|0,0:1|0:0,0:0:0:0:
180,216,74570,2,0,P|200:168|184:96,1,120,8|0,0:0|0:0,0:0:0:0:
188,76,74818,2,0,B|216:68|232:40|232:40|268:88|336:64,1,160,8|8,0:1|0:0,0:0:0:0:
412,104,75189,1,8,0:1:0:0:
488,164,75313,5,8,0:0:0:0:
484,252,75437,1,0,0:0:0:0:
432,320,75561,1,8,0:0:0:0:
336,336,75685,1,0,0:0:0:0:
264,284,75809,2,0,P|312:272|364:248,1,80,8|0,0:1|0:0,0:0:0:0:
400,183,76057,2,0,P|411:119|412:75,1,80,8|8,0:0|0:1,0:0:0:0:
284,140,76305,2,0,P|216:144|176:136,1,80,8|0,0:0|0:0,0:0:0:0:
68,240,76553,2,0,P|136:236|176:244,1,80,8|0,0:0|0:0,0:0:0:0:
68,240,76801,1,8,0:1:0:0:
32,160,76925,1,0,0:0:0:0:
64,76,77049,1,8,0:1:0:0:
144,36,77173,1,0,0:0:0:0:
240,24,77297,6,0,P|248:72|356:64,1,160,8|8,0:0|0:0,0:0:0:0:
412,28,77669,1,0,0:0:0:0:
440,124,77793,2,0,P|444:176|440:208,1,80,8|0,0:1|0:0,0:0:0:0:
316,276,78041,2,0,P|312:216|324:168,1,80,8|8,0:0|0:1,0:0:0:0:
204,184,78289,2,0,L|116:200,1,80,8|8,0:0|0:1,0:0:0:0:
40,268,78537,1,8,0:0:0:0:
40,268,78661,1,0,0:0:0:0:
64,164,78784,2,0,P|84:104|72:48,1,120,8|0,0:1|0:0,0:0:0:0:
56,64,79032,2,0,L|152:52,1,80,8|8,0:0|0:0,0:0:0:0:
248,32,79280,5,8,0:0:0:0:
260,40,79528,1,8,0:0:0:0:
272,48,79776,1,8,0:1:0:0:
280,164,80024,2,0,L|268:256,2,80,8|8|8,0:0|0:1|0:0,0:0:0:0:
376,24,80520,1,8,0:0:0:0:
444,184,80768,1,8,0:1:0:0:
472,264,80892,1,0,0:0:0:0:
404,332,81016,1,8,0:1:0:0:
316,312,81140,1,0,0:0:0:0:
232,272,81264,6,0,P|164:232|76:268,1,160,12|8,0:0|0:0,0:0:0:0:
152,332,81636,1,0,0:0:0:0:
184,156,81760,2,0,P|196:84|160:0,1,160,8|12,0:1|0:0,0:0:0:0:
88,88,82132,1,8,0:1:0:0:
272,80,82256,2,0,P|364:80|456:128,2,160,8|8|8,0:0|0:0|0:1,0:0:0:0:
104,184,82999,2,0,L|112:240,1,40,8|0,0:1|0:0,0:0:0:0:
184,156,83123,2,0,L|188:204,1,40,8|0,0:1|0:0,0:0:0:0:
272,172,83247,5,8,0:0:0:0:
340,224,83371,1,0,0:0:0:0:
432,216,83495,1,8,0:0:0:0:
464,128,83619,1,0,0:0:0:0:
368,132,83743,1,8,0:1:0:0:
340,224,83867,1,0,0:0:0:0:
264,284,83991,1,8,0:0:0:0:
184,228,84115,1,8,0:1:0:0:
272,172,84239,1,8,0:0:0:0:
284,168,84487,1,8,0:0:0:0:
296,164,84735,1,8,0:1:0:0:
304,160,84983,1,8,0:1:0:0:
316,156,85231,6,0,P|320:100|304:32,1,120.000004577637
184,104,85727,1,0,0:0:0:0:
172,200,85975,2,0,P|96:148|140:16,1,240.000009155274
308,36,86718,2,0,P|380:44|444:24,1,120.000004577637,0|0,0:0|0:0,0:0:0:0:
380,196,87214,1,0,0:0:0:0:
256,192,87276,12,0,90685,0:0:0:0:
112,80,91181,6,0,L|144:96,1,32
172,104,92173,2,0,L|174:139,1,32
172,168,93165,2,0,P|192:168|204:164,1,32
216,156,93908,1,0,0:0:0:0:
228,148,94156,2,0,P|243:143|259:144,1,32
288,160,95148,2,0,L|308:156,1,16
320,152,95644,2,0,L|336:160,1,16
352,160,96140,2,0,L|372:164,1,16
376,160,96512,1,0,0:0:0:0:
384,156,96636,2,0,L|400:148,1,16
404,136,97132,2,0,P|448:120|496:132,1,96
