osu file format v13

[General]
AudioFilename: senya - Nureta kami ni furerare ta toki.mp3
AudioLeadIn: 2000
PreviewTime: 65269
Countdown: 0
SampleSet: Soft
StackLeniency: 0.6
Mode: 0
LetterboxInBreaks: 0
WidescreenStoryboard: 1

[Editor]
Bookmarks: 2075,21429,52205
DistanceSpacing: 1.1
BeatDivisor: 4
GridSize: 4
TimelineZoom: 1

[Metadata]
Title:Nureta Kami ni Furerareta Toki
TitleUnicode:濡れた髪に触れられた時
Artist:senya
ArtistUnicode:senya
Creator:Smoothie
Version:Normal
Source:Touhou
Tags:Yuuhei Satellite Tatara Kogasa Beware The Umbrella Left There Forever kamase tora Iceon Nmaaaaa Comiket 83
BeatmapID:253675
BeatmapSetID:92507

[Difficulty]
HPDrainRate:3
CircleSize:3
OverallDifficulty:4
ApproachRate:5
SliderMultiplier:1
SliderTickRate:2

[Events]
//Background and Video events
0,0,"senya - Nureta Kami ni Furerareta Toki.jpg",0,0
//Break Periods
2,34791,39585
2,96727,101521
//Storyboard Layer 0 (Background)
//Storyboard Layer 1 (Fail)
//Storyboard Layer 2 (Pass)
//Storyboard Layer 3 (Foreground)
//Storyboard Sound Samples
//Background Colour Transformations
3,100,163,162,255

[TimingPoints]
-1021,387.096774193548,4,2,1,20,1,0
19108,-100,4,2,1,30,0,0
26849,-100,4,2,1,40,0,0
27624,-100,4,2,2,40,0,0
28785,-100,4,2,1,30,0,0
41075,-100,4,2,2,30,0,0
41269,-100,4,2,1,30,0,0
42624,-100,4,2,2,30,0,0
42817,-100,4,2,1,30,0,0
48817,-100,4,2,2,30,0,0
49011,-100,4,2,1,30,0,0
49591,-100,4,2,2,30,0,0
49785,-100,4,2,1,30,0,0
51914,-100,4,2,2,30,0,0
52108,-100,4,2,1,30,0,0
52591,-100,4,2,2,30,0,0
53172,-100,4,2,1,40,0,0
64108,-100,4,2,2,50,0,0
64785,-100,4,2,1,50,0,0
65559,-100,4,2,1,50,0,1
75624,-100,4,2,1,50,0,0
77946,-100,4,2,1,50,0,1
88011,-100,4,2,1,50,0,0
90333,-100,4,2,1,50,0,1
92656,-100,4,2,2,50,0,1
96527,-100,4,2,1,50,0,0
102720,-100,4,2,1,30,0,0
103011,-100,4,2,2,30,0,0
103204,-100,4,2,1,30,0,0
104559,-100,4,2,2,30,0,0
104753,-100,4,2,1,30,0,0
110753,-100,4,2,2,30,0,0
110946,-100,4,2,1,30,0,0
111527,-100,4,2,2,30,0,0
111720,-100,4,2,1,30,0,0
113849,-100,4,2,2,30,0,0
114043,-100,4,2,1,30,0,0
114527,-100,4,2,2,30,0,0
115108,-100,4,2,1,40,0,0
125946,-100,4,2,2,40,0,0
127495,-100,4,2,1,40,0,1
127882,-100,4,2,1,50,0,1
137559,-100,4,2,1,50,0,0
139882,-100,4,2,1,50,0,1
149946,-100,4,2,1,50,0,0
152269,-100,4,2,1,50,0,1
154591,-100,4,2,2,50,0,1
155753,-100,4,2,1,50,0,1
158462,-100,4,2,1,30,0,0

[Colours]
Combo1 : 230,183,228
Combo2 : 255,98,98
Combo3 : 149,197,255
Combo4 : 249,234,181

[HitObjects]
164,324,527,6,0,B|208:228|124:228|164:120,1,200,2|0,0:0|0:0,0:0:0:0:
256,176,1688,1,0,0:0:0:0:
351,130,2075,2,0,B|384:228|304:228|348:324,1,200,2|0,0:0|0:0,0:0:0:0:
448,276,3236,1,0,0:0:0:0:
448,276,3623,2,0,P|468:192|448:64,1,200,2|0,0:0|0:0,0:0:0:0:
376,4,4785,1,0,0:0:0:0:
368,112,5172,6,0,P|380:168|368:216,1,100,2|0,0:0|0:0,0:0:0:0:
272,256,5946,2,0,P|263:215|275:159,1,100,2|0,0:0|0:0,0:0:0:0:
224,72,6720,6,0,B|128:36|128:104|28:72,1,200,2|0,0:0|0:0,0:0:0:0:
0,172,7881,1,0,0:0:0:0:
0,172,8269,2,0,P|88:208|136:300,1,200,2|0,0:0|0:0,0:0:0:0:
216,372,9430,1,0,0:0:0:0:
216,372,9817,2,0,L|320:188,2,200,2|0|2,0:0|0:0|0:0,0:0:0:0:
96,188,12139,1,0,0:0:0:0:
248,348,12914,6,0,B|348:388|348:324|444:356,1,200,4|0,0:0|0:0,0:0:0:0:
508,268,14075,1,0,0:0:0:0:
508,268,14462,2,0,P|412:248|304:260,1,200,2|0,0:0|0:0,0:0:0:0:
204,228,15623,1,0,0:0:0:0:
204,228,16010,2,0,B|192:168|160:140|160:140|192:108|204:48,2,200,2|0|2,0:0|0:0|0:0,0:0:0:0:
300,280,17946,1,0,0:0:0:0:
388,344,18333,1,2,0:0:0:0:
404,236,18720,1,0,0:0:0:0:
460,140,19107,6,0,B|364:100|364:164|264:136,1,200,4|2,0:0|0:0,0:0:0:0:
148,144,20269,1,0,0:0:0:0:
84,56,20656,2,0,P|40:140|88:236,1,200,0|2,0:0|0:0,0:0:0:0:
192,252,21817,1,0,0:0:0:0:
300,228,22204,2,0,B|396:188|396:252|496:224,2,200,8|2|8,0:0|0:0|0:0,0:0:0:0:
104,324,24527,2,0,L|48:224,1,100,8|8,0:0|0:0,0:0:0:0:
164,248,25301,6,0,L|88:108,2,150,12|2|2,0:0|0:0|0:0,0:0:0:0:
272,224,26849,2,0,P|312:192|368:192,1,100,8|8,0:0|0:0,0:0:0:0:
460,228,27623,2,0,B|476:272|516:296|516:296|448:312|436:376,1,200,0|4,1:0|1:0,0:0:0:0:
256,192,28785,12,4,34591,0:0:0:0:
144,220,40785,6,0,B|108:206|68:230|36:278|64:342|128:350|128:350|164:318|204:334,1,300,2|8,0:0|0:0,0:0:0:0:
309,333,42333,2,0,B|347:318|383:350|383:350|447:342|475:278|443:230|403:206|368:220,1,300,2|8,0:0|0:0,0:0:0:0:
320,120,43881,2,0,B|312:88|312:88|324:48|308:12,1,100,2|8,0:0|0:0,0:0:0:0:
200,24,44656,2,0,B|187:49|199:89|199:89|191:121,1,100,2|8,0:0|0:0,0:0:0:0:
116,200,45430,6,0,L|36:200,2,75,12|8|8,0:0|0:0|0:0,0:0:0:0:
152,244,46204,2,0,P|176:288|168:352,1,100,8|8,0:0|0:0,0:0:0:0:
276,380,46978,6,0,L|332:284,1,100,6|8,0:0|0:0,0:0:0:0:
404,372,47752,2,0,L|460:268,1,100,2|8,0:0|0:0,0:0:0:0:
476,176,48527,2,0,B|468:140|420:96|420:96|468:48|476:4,2,200,2|2|2,0:0|0:0|0:0,0:0:0:0:
372,208,50462,1,8,0:0:0:0:
308,300,50849,2,0,P|272:260|260:200,1,100,2|8,0:0|0:0,0:0:0:0:
220,112,51623,2,0,B|124:76|124:140|24:112,2,200,8|8|12,0:0|0:0|0:0,0:0:0:0:
328,144,53559,5,2,0:0:0:0:
328,144,53946,2,0,P|340:196|324:244,1,100,8|2,0:0|0:0,0:0:0:0:
220,268,54720,2,0,B|124:304|124:240|24:268,2,200,8|8|8,0:0|0:0|0:0,0:0:0:0:
328,260,56656,1,2,0:0:0:0:
328,260,57043,2,0,P|344:312|320:364,1,100,8|2,0:0|0:0,0:0:0:0:
436,324,57817,2,0,L|460:120,1,200,8|8,0:0|0:0,0:0:0:0:
428,20,58978,1,4,0:0:0:0:
376,116,59365,6,0,L|360:232,1,100,8|0,0:0|0:0,0:0:0:0:
268,272,60139,2,0,P|224:292|160:276,1,100,8|0,0:0|0:0,0:0:0:0:
72,248,60914,2,0,L|48:146,1,100,8|0,0:0|0:0,0:0:0:0:
120,68,61688,2,0,L|140:156,2,75,8|8|8,0:0|0:0|0:0,0:0:0:0:
168,40,62462,6,0,P|216:24|272:36,1,100,8|0,0:0|0:0,0:0:0:0:
356,92,63236,2,0,L|388:200,1,100,8|0,0:0|0:0,0:0:0:0:
432,288,64010,2,0,B|332:316|332:248|236:288,1,200,8|8,0:0|0:0,0:0:0:0:
132,316,65172,1,4,0:0:0:0:
36,368,65559,6,0,B|-4:272|76:272|40:164,1,200,8|8,0:0|0:0,0:0:0:0:
76,72,66720,1,0,0:0:0:0:
180,32,67107,2,0,B|213:130|136:128|176:232,1,200,8|8,0:0|0:0,0:0:0:0:
272,176,68268,1,0,0:0:0:0:
356,248,68656,2,0,P|368:296|348:356,1,100,8|0,0:0|0:0,0:0:0:0:
456,300,69430,6,0,L|484:376,2,75,8|8|8,0:0|0:0|0:0,0:0:0:0:
440,248,70204,2,0,P|460:204|508:172,1,100,8|8,0:0|0:0,0:0:0:0:
452,76,70978,1,8,0:0:0:0:
452,76,71365,1,8,0:0:0:0:
352,28,71752,6,0,P|339:81|352:128,1,100,12|0,0:0|0:0,0:0:0:0:
356,180,72333,2,0,P|300:232|224:216,1,150,8|8,0:0|0:0,0:0:0:0:
188,120,73301,2,0,L|168:16,1,100,8|8,0:0|0:0,0:0:0:0:
64,52,74075,2,0,P|40:96|44:156,1,100,8|0,0:0|0:0,0:0:0:0:
64,196,74656,2,0,B|88:272|44:272|72:348,1,150,8|8,0:0|0:0,0:0:0:0:
172,300,75623,6,0,P|220:288|284:308,1,100,8|0,0:0|0:0,0:0:0:0:
212,204,76398,2,0,P|268:208|320:232,1,100,8|0,0:0|0:0,0:0:0:0:
416,208,77172,2,0,P|432:160|408:108,1,100,8|8,0:0|0:0,0:0:0:0:
320,64,77946,6,0,B|284:56|232:20|232:20|184:56|140:64,1,200,12|8,0:0|0:0,0:0:0:0:
32,44,79107,1,0,0:0:0:0:
56,152,79494,2,0,P|140:168|260:132,1,200,8|8,0:0|0:0,0:0:0:0:
360,128,80656,1,0,0:0:0:0:
436,208,81043,2,0,P|448:260|432:308,1,100,8|0,0:0|0:0,0:0:0:0:
332,344,81817,6,0,P|324:308|336:264,2,75,8|8|8,0:0|0:0|0:0,0:0:0:0:
280,364,82591,2,0,B|240:368|220:384|220:384|168:368,1,100,8|8,0:0|0:0,0:0:0:0:
104,304,83365,2,0,P|56:293|-1:308,1,100,8|8,0:0|0:0,0:0:0:0:
0,200,84139,6,0,B|8:176|24:156|24:156|8:140|0:112,1,100,12|0,0:0|0:0,0:0:0:0:
16,60,84720,2,0,P|76:24|168:52,1,150,8|8,0:0|0:0,0:0:0:0:
228,112,85688,2,0,P|212:156|228:212,1,100,8|8,0:0|0:0,0:0:0:0:
324,160,86462,2,0,L|424:160,1,100,8|0,0:0|0:0,0:0:0:0:
476,176,87043,2,0,B|484:216|512:248|512:248|484:272|476:312,1,150,8|8,0:0|0:0,0:0:0:0:
372,332,88010,6,0,P|324:320|260:340,1,100,8|8,0:0|0:0,0:0:0:0:
176,288,88785,2,0,P|164:240|176:192,1,100,8|8,0:0|0:0,0:0:0:0:
68,204,89559,2,0,P|84:152|116:112,1,100,8|8,0:0|0:0,0:0:0:0:
216,80,90333,6,0,P|280:132|292:212,2,150,12|8|8,0:0|0:0|0:0,0:0:0:0:
308,24,91881,2,0,L|424:8,1,100,8|8,0:0|0:0,0:0:0:0:
456,108,92656,2,0,P|444:204|508:288,1,200,0|4,1:0|1:0,0:0:0:0:
256,192,93817,12,4,96527,0:0:0:0:
368,164,102721,6,0,B|404:178|444:154|476:106|448:42|384:34|384:34|348:66|308:50,1,300,2|8,0:0|0:0,0:0:0:0:
202,50,104269,2,0,B|164:66|128:34|128:34|64:42|36:106|68:154|108:178|144:164,1,300,2|8,0:0|0:0,0:0:0:0:
200,260,105817,2,0,P|212:308|196:360,1,100,2|8,0:0|0:0,0:0:0:0:
313,355,106591,2,0,P|300:308|312:260,1,100,2|8,0:0|0:0,0:0:0:0:
292,152,107365,6,0,P|256:144|208:160,2,75,8|8|8,0:0|0:0|0:0,0:0:0:0:
346,140,108139,2,0,P|359:96|340:36,1,100,8|8,0:0|0:0,0:0:0:0:
235,44,108914,6,0,P|189:53|132:42,1,100,6|8,0:0|0:0,0:0:0:0:
28,44,109688,2,0,P|14:95|27:139,1,100,2|8,0:0|0:0,0:0:0:0:
120,200,110462,2,0,B|152:260|120:320|120:320|168:296|212:316,2,200,2|2|2,0:0|0:0|0:0,0:0:0:0:
28,260,112398,1,8,0:0:0:0:
40,152,112785,2,0,P|76:116|132:108,1,100,2|8,0:0|0:0,0:0:0:0:
224,144,113559,2,0,B|320:180|320:116|420:144,2,200,8|8|12,0:0|0:0|0:0,0:0:0:0:
128,196,115494,5,2,0:0:0:0:
128,196,115881,2,0,P|120:252|140:304,1,100,8|2,0:0|0:0,0:0:0:0:
224,352,116656,2,0,B|324:324|324:388|420:352,2,200,8|8|8,0:0|0:0|0:0,0:0:0:0:
116,344,118591,1,2,0:0:0:0:
116,344,118978,2,0,P|101:302|117:250,1,100,8|2,0:0|0:0,0:0:0:0:
224,220,119752,2,0,B|324:248|324:184|420:220,1,200,8|8,0:0|0:0,0:0:0:0:
500,144,120914,1,4,0:0:0:0:
392,124,121301,6,0,P|340:124|272:144,1,100,8|0,0:0|0:0,0:0:0:0:
184,116,122075,2,0,P|172:64|188:16,1,100,8|0,0:0|0:0,0:0:0:0:
76,44,122849,2,0,P|88:92|72:144,1,100,8|0,0:0|0:0,0:0:0:0:
72,248,123623,2,0,P|16:232|-20:240,2,75,8|8|8,0:0|0:0|0:0,0:0:0:0:
124,268,124398,6,0,P|164:272|216:232,1,100,8|0,0:0|0:0,0:0:0:0:
312,280,125172,2,0,L|348:396,1,100,8|0,0:0|0:0,0:0:0:0:
412,292,125946,2,0,P|404:200|508:144,1,200,0|0,1:0|1:0,0:0:0:0:
412,60,127107,1,4,0:0:0:0:
412,60,127494,6,0,P|316:60|200:20,1,200,8|8,0:0|0:0,0:0:0:0:
116,72,128655,1,0,0:0:0:0:
116,72,129043,2,0,P|144:136|64:244,1,200,8|8,0:0|0:0,0:0:0:0:
24,332,130203,1,0,0:0:0:0:
136,332,130591,2,0,L|244:332,1,100,8|0,0:0|0:0,0:0:0:0:
284,236,131365,6,0,L|196:236,2,75,8|8|8,0:0|0:0|0:0,0:0:0:0:
320,196,132139,2,0,P|332:148|316:92,1,100,8|8,0:0|0:0,0:0:0:0:
408,36,132914,2,0,L|436:144,1,100,8|8,0:0|0:0,0:0:0:0:
416,240,133688,6,0,P|400:292|416:352,1,100,12|0,0:0|0:0,0:0:0:0:
360,360,134269,2,0,L|192:380,1,150,8|8,0:0|0:0,0:0:0:0:
148,288,135236,2,0,P|155:244|139:192,1,100,8|8,0:0|0:0,0:0:0:0:
44,248,136010,2,0,L|8:136,1,100,8|0,0:0|0:0,0:0:0:0:
0,104,136591,2,0,P|56:48|128:64,1,150,8|8,0:0|0:0,0:0:0:0:
208,124,137559,6,0,L|244:232,1,100,8|0,0:0|0:0,0:0:0:0:
348,244,138333,2,0,P|396:248|444:208,1,100,8|0,0:0|0:0,0:0:0:0:
408,112,139107,2,0,P|360:108|312:148,1,100,8|8,0:0|0:0,0:0:0:0:
248,220,139881,6,0,B|208:212|160:200|160:200|88:220|48:196,1,200,12|8,0:0|0:0,0:0:0:0:
8,100,141043,1,0,0:0:0:0:
116,104,141430,2,0,B|156:112|204:124|204:124|276:104|316:128,1,200,8|8,0:0|0:0,0:0:0:0:
356,220,142591,1,0,0:0:0:0:
456,264,142978,2,0,P|464:212|448:164,1,100,8|0,0:0|0:0,0:0:0:0:
356,220,143752,6,0,P|344:264|352:300,2,75,8|8|8,0:0|0:0|0:0,0:0:0:0:
344,168,144527,2,0,L|244:168,1,100,8|8,0:0|0:0,0:0:0:0:
172,252,145301,2,0,P|184:304|168:352,1,100,8|8,0:0|0:0,0:0:0:0:
72,300,146075,6,0,P|58:256|70:204,1,100,12|0,0:0|0:0,0:0:0:0:
112,168,146656,2,0,P|136:96|74:39,1,150,8|8,0:0|0:0,0:0:0:0:
200,28,147623,2,0,L|310:28,1,100,8|8,0:0|0:0,0:0:0:0:
368,112,148398,2,0,L|256:112,1,100,8|0,0:0|0:0,0:0:0:0:
232,156,148978,2,0,B|232:208|184:232|184:232|220:256|224:288,1,150,8|8,0:0|0:0,0:0:0:0:
120,312,149946,6,0,P|76:336|44:384,1,100,8|8,0:0|0:0,0:0:0:0:
8,272,150720,2,0,P|60:236|104:224,1,100,8|8,0:0|0:0,0:0:0:0:
12,152,151494,2,0,P|68:136|116:132,1,100,8|8,0:0|0:0,0:0:0:0:
220,136,152269,6,0,P|204:212|248:284,2,150,12|8|8,0:0|0:0|0:0,0:0:0:0:
312,192,153816,2,0,L|428:164,1,100,8|8,0:0|0:0,0:0:0:0:
500,228,154591,2,0,P|516:152|428:60,1,200,0|4,1:0|1:0,0:0:0:0:
256,192,155752,12,6,158462,0:0:0:0:
