osu file format v13

[General]
AudioFilename: senya - Nureta kami ni furerare ta toki.mp3
AudioLeadIn: 2000
PreviewTime: 65269
Countdown: 0
SampleSet: Soft
StackLeniency: 0.6
Mode: 0
LetterboxInBreaks: 0
WidescreenStoryboard: 1

[Editor]
Bookmarks: 21429,52205
DistanceSpacing: 0.9
BeatDivisor: 4
GridSize: 4
TimelineZoom: 1

[Metadata]
Title:Nureta Kami ni Furerareta Toki
TitleUnicode:濡れた髪に触れられた時
Artist:senya
ArtistUnicode:senya
Creator:Smoothie
Version:Lunatic
Source:Touhou
Tags:Yuuhei Satellite Tatara Kogasa Beware The Umbrella Left There Forever kamase tora Iceon Nmaaaaa Comiket 83
BeatmapID:250103
BeatmapSetID:92507

[Difficulty]
HPDrainRate:7
CircleSize:4
OverallDifficulty:7
ApproachRate:8
SliderMultiplier:1.7
SliderTickRate:2

[Events]
//Background and Video events
0,0,"senya - Nureta Kami ni Furerareta Toki.jpg",0,0
//Break Periods
2,34791,40035
2,96726,101970
//Storyboard Layer 0 (Background)
//Storyboard Layer 1 (Fail)
//Storyboard Layer 2 (Pass)
//Storyboard Layer 3 (Foreground)
//Storyboard Sound Samples
//Background Colour Transformations
3,100,163,162,255

[TimingPoints]
-1021,387.096774193548,4,2,1,20,1,0
19108,-100,4,2,1,30,0,0
22108,-100,4,2,2,30,0,0
22301,-100,4,2,1,30,0,0
26849,-100,4,2,1,40,0,0
28785,-100,4,1,1,40,0,0
28882,-100,4,2,1,5,0,0
34591,-100,4,2,1,30,0,0
40785,-100,4,2,1,40,0,0
53172,-100,4,2,1,50,0,0
64011,-100,4,2,1,50,0,0
65559,-86.9565217391304,4,2,1,40,0,1
65946,-86.9565217391304,4,2,1,50,0,1
75624,-86.9565217391304,4,2,1,50,0,0
77946,-86.9565217391304,4,2,1,50,0,1
88011,-86.9565217391304,4,2,1,50,0,0
90333,-86.9565217391304,4,2,1,50,0,1
96527,-86.9565217391304,4,2,1,50,0,0
102720,-100,4,2,1,40,0,0
115108,-100,4,2,1,50,0,0
127495,-86.9565217391304,4,2,1,40,0,1
127882,-86.9565217391304,4,2,1,50,0,1
137559,-86.9565217391304,4,2,1,50,0,0
139882,-86.9565217391304,4,2,1,50,0,1
149946,-86.9565217391304,4,2,1,50,0,0
152269,-86.9565217391304,4,2,1,50,0,1
158462,-86.9565217391304,4,2,1,50,0,0

[Colours]
Combo1 : 230,183,228
Combo2 : 255,98,98
Combo3 : 149,197,255
Combo4 : 249,234,181

[HitObjects]
112,320,333,5,0,0:0:0:0:
112,320,430,1,0,0:0:0:0:
112,320,527,2,0,P|100:276|116:232,1,85,2|0,0:0|0:0,0:0:0:0:
204,196,914,2,0,P|216:240|200:284,1,85,0|0,0:0|0:0,0:0:0:0:
276,324,1301,2,0,B|336:324|380:376|380:376|424:352,1,170,2|0,0:0|0:0,0:0:0:0:
480,288,1881,1,0,0:0:0:0:
396,272,2075,6,0,P|320:240|212:240,1,170,2|0,0:0|0:0,0:0:0:0:
168,176,2656,2,0,P|128:100|176:20,1,170,2|0,0:0|0:0,0:0:0:0:
212,101,3236,2,0,L|312:120,1,85,2|0,0:0|0:0,0:0:0:0:
432,60,3623,1,0,0:0:0:0:
432,60,3720,1,0,0:0:0:0:
432,60,3817,2,0,B|380:44|380:44|328:44|328:44|264:32,1,170,2|0,0:0|0:0,0:0:0:0:
212,101,4398,6,0,B|220:149|184:185|184:185|204:201|212:225,2,127.5,2|2|2,0:0|0:0|0:0,0:0:0:0:
124,124,5172,2,0,P|104:164|104:224,1,85,2|0,0:0|0:0,0:0:0:0:
268,272,5559,2,0,P|288:232|288:172,1,85,2|0,0:0|0:0,0:0:0:0:
312,32,5946,2,0,P|292:72|288:128,1,85,2|0,0:0|0:0,0:0:0:0:
448,124,6333,2,0,P|468:84|468:24,1,85,2|0,0:0|0:0,0:0:0:0:
388,60,6720,6,0,P|368:140|420:208,1,170,2|0,0:0|0:0,0:0:0:0:
472,272,7301,2,0,P|392:296|328:376,1,170,2|0,0:0|0:0,0:0:0:0:
268,308,7881,2,0,P|275:267|264:216,1,85,2|0,0:0|0:0,0:0:0:0:
160,180,8269,2,0,P|153:221|164:272,1,85,2|0,0:0|0:0,0:0:0:0:
312,376,8656,2,0,P|336:344|348:296,1,85,2|0,0:0|0:0,0:0:0:0:
115,109,9043,6,0,P|91:141|80:184,1,85,2|0,0:0|0:0,0:0:0:0:
124,256,9430,1,0,0:0:0:0:
160,180,9623,2,0,P|192:96|144:32,1,170,2|0,0:0|0:0,0:0:0:0:
115,109,10204,2,0,P|195:105|252:35,1,170,2|0,0:0|0:0,0:0:0:0:
336,32,10785,1,0,0:0:0:0:
300,108,10978,6,0,P|292:152|304:200,1,85,2|0,0:0|0:0,0:0:0:0:
404,236,11365,2,0,P|412:192|400:144,1,85,2|0,0:0|0:0,0:0:0:0:
212,184,11752,2,0,P|224:228|256:272,1,85,2|0,0:0|0:0,0:0:0:0:
484,160,12139,2,0,P|472:116|440:80,1,85,2|0,0:0|0:0,0:0:0:0:
364,64,12527,1,0,0:0:0:0:
428,248,12720,1,0,0:0:0:0:
404,152,12914,6,0,P|336:192|332:280,1,170,6|0,0:0|0:0,0:0:0:0:
280,344,13494,2,0,B|196:380|196:332|108:356,1,170,2|0,0:0|0:0,0:0:0:0:
228,196,14075,2,0,P|240:240|224:284,1,85,2|0,0:0|0:0,0:0:0:0:
160,160,14462,2,0,P|192:127|238:119,2,85,2|0|0,0:0|0:0|0:0,0:0:0:0:
300,156,15043,2,0,P|336:96|328:-4,1,170,2|0,0:0|0:0,0:0:0:0:
412,24,15623,2,0,P|424:64|456:108,1,85,2|0,0:0|0:0,0:0:0:0:
440,184,16010,1,0,0:0:0:0:
440,184,16107,1,0,0:0:0:0:
440,184,16204,2,0,P|368:232|340:312,1,170,2|0,0:0|0:0,0:0:0:0:
420,280,16785,2,0,P|372:240|288:236,2,127.5,2|2|2,0:0|0:0|0:0,0:0:0:0:
240,280,17559,6,0,P|228:236|236:188,1,85,2|0,0:0|0:0,0:0:0:0:
312,312,17946,2,0,P|279:344|234:361,1,85,2|0,0:0|0:0,0:0:0:0:
308,232,18333,2,0,P|352:244|389:275,1,85,2|0,0:0|0:0,0:0:0:0:
240,280,18720,2,0,P|228:236|236:188,1,85,2|0,0:0|0:0,0:0:0:0:
140,96,19107,6,0,B|156:164|156:164|160:208|104:268,1,170,12|0,0:0|0:0,0:0:0:0:
76,172,19688,2,0,B|60:104|60:104|56:52|120:4,1,170,2|0,0:0|0:0,0:0:0:0:
188,28,20269,2,0,L|292:48,1,85,2|0,0:0|0:0,0:0:0:0:
396,140,20656,2,0,L|292:120,1,85,2|0,0:0|0:0,0:0:0:0:
188,188,21043,2,0,L|292:208,1,85,2|0,0:0|0:0,0:0:0:0:
396,300,21430,2,0,L|292:280,2,85,2|0|0,0:0|0:0|0:0,0:0:0:0:
436,380,22010,2,0,P|476:336|448:228,1,170,2|0,0:0|0:0,0:0:0:0:
412,164,22591,2,0,P|404:120|420:76,1,85,2|0,0:0|0:0,0:0:0:0:
332,92,22978,2,0,P|288:136|212:128,2,127.5,2|2|2,0:0|0:0|0:0,0:0:0:0:
256,56,23752,5,8,0:0:0:0:
256,56,24527,1,8,0:0:0:0:
348,144,24817,1,8,0:0:0:0:
348,144,24914,2,0,P|376:112|388:60,1,85,8|8,0:0|0:0,0:0:0:0:
256,56,25301,6,0,P|224:88|212:128,2,85,14|0|0,0:0|0:0|0:0,0:0:0:0:
236,208,25881,2,0,P|172:204|128:104,1,170,2|0,0:0|0:0,0:0:0:0:
40,120,26462,2,0,P|52:172|44:212,1,85,2|0,0:0|0:0,0:0:0:0:
116,264,26849,2,0,B|94:291|92:320|92:320|64:320|31:336,2,127.5,4|8|8,0:0|0:0|0:0,0:0:0:0:
196,244,27623,1,8,0:0:0:0:
196,244,27720,1,8,0:0:0:0:
196,244,27817,2,0,P|176:208|132:184,1,85,8|8,0:0|0:0,0:0:0:0:
176,324,28204,2,0,P|216:324|268:288,1,85,8|8,0:0|0:0,0:0:0:0:
256,72,28591,1,0,1:0:0:0:
328,192,28785,1,4,2:0:0:0:
256,192,28881,12,4,34591,0:0:0:0:
28,280,40785,6,0,P|68:268|120:288,1,85,2|0,0:0|0:0,0:0:0:0:
176,332,41172,2,0,P|204:276|264:252,1,127.5,8|0,0:0|0:0,0:0:0:0:
300,272,41559,2,0,P|336:296|384:300,1,85,2|0,0:0|0:0,0:0:0:0:
432,168,41946,2,0,P|393:187|365:226,1,85,8|0,0:0|0:0,0:0:0:0:
456,332,42333,2,0,P|459:288|439:244,1,85,2|0,0:0|0:0,0:0:0:0:
336,100,42720,2,0,P|280:88|224:44,1,127.5,8|0,0:0|0:0,0:0:0:0:
184,48,43107,2,0,P|148:72|124:124,1,85,2|0,0:0|0:0,0:0:0:0:
140,192,43494,1,8,0:0:0:0:
140,192,43688,1,0,0:0:0:0:
172,272,43881,6,0,P|212:244|224:184,1,85,2|0,0:0|0:0,0:0:0:0:
88,256,44269,2,0,P|92:304|138:345,1,85,8|0,0:0|0:0,0:0:0:0:
140,192,44656,2,0,P|95:171|37:190,1,85,2|0,0:0|0:0,0:0:0:0:
172,272,45043,2,0,P|212:244|224:184,1,85,8|0,0:0|0:0,0:0:0:0:
300,250,45430,2,0,P|340:301|417:314,2,127.5,12|8|8,0:0|0:0|0:0,0:0:0:0:
472,292,46204,2,0,P|474:338|444:386,1,85,8|8,0:0|0:0,0:0:0:0:
408,236,46591,2,0,P|446:211|503:213,1,85,8|8,0:0|0:0,0:0:0:0:
460,128,46978,6,0,P|380:108|352:16,1,170,6|8,0:0|0:0,0:0:0:0:
436,44,47559,1,0,0:0:0:0:
324,164,47752,2,0,B|308:188|280:196|280:196|240:136|168:144,1,170,0|8,0:0|0:0,0:0:0:0:
96,144,48333,1,0,0:0:0:0:
96,144,48720,5,0,0:0:0:0:
68,224,48914,1,8,0:0:0:0:
92,304,49107,1,0,0:0:0:0:
160,356,49301,1,2,0:0:0:0:
244,352,49494,1,2,0:0:0:0:
312,300,49688,2,0,P|352:280|412:280,1,85,8|0,0:0|0:0,0:0:0:0:
476,256,50075,6,0,P|473:300|443:352,2,85,0|0|8,0:0|0:0|0:0,0:0:0:0:
416,196,50656,1,0,0:0:0:0:
368,128,50849,2,0,P|370:83|400:31,2,85,0|0|8,0:0|0:0|0:0,0:0:0:0:
416,196,51430,1,0,0:0:0:0:
340,268,51623,6,0,L|320:320,3,42.5,8|0|0|0,0:0|0:0|0:0|0:0,0:0:0:0:
260,216,52010,2,0,L|244:176,3,42.5,8|0|0|0,0:0|0:0|0:0|0:0,0:0:0:0:
208,296,52398,1,8,0:0:0:0:
191,309,52494,1,0,0:0:0:0:
172,319,52591,1,8,0:0:0:0:
152,324,52688,1,0,0:0:0:0:
131,323,52785,1,8,0:0:0:0:
110,318,52881,1,0,0:0:0:0:
91,308,52978,1,8,0:0:0:0:
32,188,53172,5,4,0:0:0:0:
32,188,53365,1,0,0:0:0:0:
80,120,53559,2,0,P|108:160|112:208,1,85,2|0,0:0|0:0,0:0:0:0:
284,84,53946,5,0,0:0:0:0:
284,84,54139,1,0,0:0:0:0:
232,20,54333,2,0,P|204:64|204:108,1,85,2|0,0:0|0:0,0:0:0:0:
388,232,54720,5,0,0:0:0:0:
388,232,54914,1,0,0:0:0:0:
320,184,55107,2,0,P|360:156|408:152,1,85,2|0,0:0|0:0,0:0:0:0:
456,280,55494,2,0,P|416:308|368:312,1,85,2|0,0:0|0:0,0:0:0:0:
320,184,55881,2,0,P|324:140|356:100,1,85,2|0,0:0|0:0,0:0:0:0:
456,280,56269,6,0,P|452:324|420:364,1,85,0|0,0:0|0:0,0:0:0:0:
344,348,56656,1,2,0:0:0:0:
344,348,56849,1,0,0:0:0:0:
280,288,57043,2,0,P|236:300|208:332,1,85
156,260,57430,2,0,P|128:312|128:360,1,85,2|0,0:0|0:0,0:0:0:0:
48,304,57817,2,0,B|20:220|76:220|48:132,2,170,0|2|0,0:0|0:0|0:0,0:0:0:0:
256,84,58978,1,4,0:0:0:0:
296,160,59172,5,2,0:0:0:0:
296,160,59269,1,0,0:0:0:0:
296,160,59365,2,0,P|332:124|340:80,1,85,10|0,0:0|0:0,0:0:0:0:
404,36,59752,2,0,L|436:128,1,85,0|0,0:0|0:0,0:0:0:0:
440,200,60139,2,0,P|396:220|364:336,1,170,10|0,0:0|0:0,0:0:0:0:
288,372,60720,1,0,0:0:0:0:
248,296,60914,2,0,P|224:260|184:240,1,85,10|0,0:0|0:0,0:0:0:0:
88,348,61301,2,0,P|131:345|168:320,1,85
156,156,61688,2,0,P|108:212|108:276,2,127.5,10|10|10,0:0|0:0|0:0,0:0:0:0:
224,104,62462,6,0,P|238:141|234:185,1,85,12|0,0:0|0:0,0:0:0:0:
284,332,62849,2,0,P|276:292|288:240,1,85,0|0,0:0|0:0,0:0:0:0:
316,80,63236,2,0,P|330:117|326:161,1,85,10|0,0:0|0:0,0:0:0:0:
376,308,63623,2,0,P|368:268|380:216,1,85,0|0,0:0|0:0,0:0:0:0:
432,92,64010,1,8,0:0:0:0:
432,92,64204,1,8,0:0:0:0:
460,208,64398,1,8,0:0:0:0:
460,208,64591,1,8,0:0:0:0:
376,308,64785,2,0,B|292:340|292:288|208:316,1,170,8|0,0:0|0:0,0:0:0:0:
40,312,65365,5,0,0:0:0:0:
40,312,65462,1,0,0:0:0:0:
40,312,65559,2,0,P|29:262|49:206,1,97.7500018644333,14|0,0:0|0:0,0:0:0:0:
208,220,65946,2,0,P|220:263|209:313,1,97.7500018644333,8|0,0:0|0:0,0:0:0:0:
124,268,66333,2,0,L|124:160,1,97.7500018644333
112,32,66720,5,8,0:0:0:0:
208,220,66914,1,0,0:0:0:0:
188,96,67107,2,0,P|248:80|288:56,1,97.7500018644333
372,8,67494,1,8,0:0:0:0:
504,56,67688,2,0,P|444:72|404:96,1,97.7500018644333
320,144,68075,1,0,0:0:0:0:
488,148,68269,1,8,0:0:0:0:
372,8,68462,1,0,0:0:0:0:
428,224,68656,1,0,0:0:0:0:
428,224,68752,1,0,0:0:0:0:
428,224,68849,2,0,P|396:272|388:336,1,97.7500018644333,0|8,0:0|0:0,0:0:0:0:
292,328,69236,1,0,0:0:0:0:
288,232,69430,6,0,B|216:200|216:263|129:228,2,146.62500279665,8|8|8,0:0|0:0|0:0,0:0:0:0:
235,302,70204,2,0,P|187:314|127:306,1,97.7500018644333,8|0,0:0|0:0,0:0:0:0:
207,150,70591,2,0,P|259:146|311:158,1,97.7500018644333,8|0,0:0|0:0,0:0:0:0:
312,320,70978,2,0,P|284:360|225:385,1,97.7500018644333,8|0,0:0|0:0,0:0:0:0:
127,130,71365,2,0,P|155:90|213:64,1,97.7500018644333,8|8,0:0|0:0,0:0:0:0:
207,150,71752,6,0,P|135:210|51:170,1,195.500003728867,12|0,0:0|0:0,0:0:0:0:
19,254,72333,2,0,P|99:298|163:378,1,195.500003728867,8|0,0:0|0:0,0:0:0:0:
223,314,72914,2,0,P|215:268|225:218,1,97.7500018644333,8|0,0:0|0:0,0:0:0:0:
330,179,73301,2,0,P|339:226|325:276,1,97.7500018644333,8|0,0:0|0:0,0:0:0:0:
179,382,73688,2,0,P|155:350|140:291,1,97.7500018644333,8|0,0:0|0:0,0:0:0:0:
376,115,74075,2,0,P|400:147|414:206,1,97.7500018644333,8|8,0:0|0:0,0:0:0:0:
367,262,74462,1,0,0:0:0:0:
330,179,74656,2,0,P|296:108|376:36,1,195.500003728867,8|0,0:0|0:0,0:0:0:0:
376,115,75236,2,0,P|327:102|291:50,1,97.7500018644333,8|0,0:0|0:0,0:0:0:0:
211,46,75623,2,0,B|163:30|163:30|119:54|67:54,2,146.62500279665,8|8|8,0:0|0:0|0:0,0:0:0:0:
239,130,76398,5,8,0:0:0:0:
244,156,76494,1,0,0:0:0:0:
248,180,76591,1,0,0:0:0:0:
151,142,76785,2,0,P|103:134|35:150,1,97.7500018644333,8|8,0:0|0:0,0:0:0:0:
19,222,77172,2,0,L|0:267,2,48.8750009322167,8|8|8,0:0|0:0|0:0,0:0:0:0:
103,250,77559,1,8,0:0:0:0:
107,274,77656,1,0,0:0:0:0:
111,298,77752,1,8,0:0:0:0:
115,322,77849,1,0,0:0:0:0:
119,346,77946,6,0,B|215:382|215:322|319:346,1,195.500003728867,12|8,0:0|0:0,0:0:0:0:
439,274,78527,2,0,B|343:310|343:250|223:274,1,195.500003728867,0|0,0:0|0:0,0:0:0:0:
382,201,79107,2,0,P|434:185|477:190,1,97.7500018644333,8|0,0:0|0:0,0:0:0:0:
347,126,79494,2,0,P|383:90|427:74,2,97.7500018644333,0|0|8,0:0|0:0|0:0,0:0:0:0:
275,178,80075,2,0,B|256:208|215:218|215:218|171:174|91:170,1,195.500003728867,0|0,0:0|0:0,0:0:0:0:
103,254,80656,2,0,P|151:270|179:314,1,97.7500018644333,8|0,0:0|0:0,0:0:0:0:
251,358,81043,1,0,0:0:0:0:
251,358,81139,1,0,0:0:0:0:
251,358,81236,2,0,P|292:320|336:312,1,97.7500018644333,0|8,0:0|0:0,0:0:0:0:
428,312,81623,1,0,0:0:0:0:
360,380,81817,6,0,P|332:304|364:240,2,146.62500279665,8|8|8,0:0|0:0|0:0,0:0:0:0:
396,348,82494,1,0,0:0:0:0:
428,312,82591,2,0,P|450:268|450:220,1,97.7500018644333,8|0,0:0|0:0,0:0:0:0:
336,88,82978,2,0,P|314:132|314:180,1,97.7500018644333,8|0,0:0|0:0,0:0:0:0:
428,312,83365,2,0,P|464:272|484:216,1,97.7500018644333,8|0,0:0|0:0,0:0:0:0:
336,88,83752,2,0,P|300:128|280:184,1,97.7500018644333,8|8,0:0|0:0,0:0:0:0:
260,252,84139,6,0,B|214:235|194:185|194:185|142:209|97:193,1,195.500003728867,4|8,0:0|0:0,0:0:0:0:
60,272,84720,2,0,P|156:284|236:344,1,195.500003728867,0|0,0:0|0:0,0:0:0:0:
320,316,85301,2,0,P|360:288|416:284,1,97.7500018644333,8|0,0:0|0:0,0:0:0:0:
512,176,85688,2,0,P|472:204|416:208,1,97.7500018644333,8|0,0:0|0:0,0:0:0:0:
268,208,86075,2,0,P|308:180|364:176,1,97.7500018644333,8|0,0:0|0:0,0:0:0:0:
484,76,86462,2,0,P|444:104|388:108,1,97.7500018644333,8|8,0:0|0:0,0:0:0:0:
316,76,86849,1,0,0:0:0:0:
232,44,87043,2,0,B|136:16|136:84|40:48,1,195.500003728867,8|0,0:0|0:0,0:0:0:0:
0,116,87623,2,0,P|48:132|104:136,1,97.7500018644333,8|0,0:0|0:0,0:0:0:0:
208,212,88010,2,0,B|160:196|160:196|116:228|64:220,2,146.62500279665,8|8|8,0:0|0:0|0:0,0:0:0:0:
280,264,88785,5,8,0:0:0:0:
280,264,88881,1,8,0:0:0:0:
280,264,88978,1,8,0:0:0:0:
320,344,89172,2,0,P|352:316|368:264,1,97.7500018644333,8|8,0:0|0:0,0:0:0:0:
436,320,89559,2,0,L|424:388,2,48.8750009322167,8|8|8,0:0|0:0|0:0,0:0:0:0:
448,232,89946,1,8,0:0:0:0:
440,208,90043,1,0,0:0:0:0:
436,184,90139,1,8,0:0:0:0:
436,160,90236,1,0,0:0:0:0:
440,136,90333,6,0,B|412:112|412:112|376:112|344:88,2,97.7500018644333,4|0|8,0:0|0:0|0:0,0:0:0:0:
412,32,90914,2,0,P|316:24|264:112,1,195.500003728867
188,60,91494,2,0,P|184:120|204:164,1,97.7500018644333,8|0,0:0|0:0,0:0:0:0:
172,240,91881,2,0,B|137:227|116:196|116:196|76:210|41:198,2,146.62500279665,8|8|8,0:0|0:0|0:0,0:0:0:0:
260,240,92656,2,0,P|300:208|368:208,1,97.7500018644333,8|8,0:0|0:0,0:0:0:0:
424,240,93043,1,8,0:0:0:0:
484,176,93236,5,8,0:0:0:0:
484,176,93333,1,8,0:0:0:0:
484,176,93430,1,12,0:0:0:0:
444,96,93623,1,8,0:0:0:0:
376,40,93817,1,8,0:0:0:0:
308,96,94010,1,8,0:0:0:0:
256,24,94204,1,8,0:0:0:0:
204,96,94398,1,8,0:0:0:0:
136,40,94591,1,8,0:0:0:0:
68,96,94785,1,8,0:0:0:0:
31,176,94978,6,0,L|12:228,3,48.8750009322167,8|8|10|8,0:0|0:0|0:0|0:0,0:0:0:0:
96,268,95365,2,0,L|116:316,3,48.8750009322167,8|8|8|8,0:0|0:0|0:0|0:0,0:0:0:0:
188,260,95752,1,8,0:0:0:0:
205,242,95848,1,8,0:0:0:0:
226,230,95945,1,8,0:0:0:0:
250,224,96042,1,8,0:0:0:0:
274,224,96139,1,8,0:0:0:0:
297,231,96237,1,8,0:0:0:0:
319,243,96332,1,8,0:0:0:0:
336,260,96429,1,8,0:0:0:0:
348,281,96526,1,4,0:0:0:0:
76,68,102720,6,0,B|84:112|84:112|76:152,1,85,4|0,0:0|0:0,0:0:0:0:
144,200,103107,2,0,L|172:64,1,127.5,8|0,0:0|0:0,0:0:0:0:
192,40,103494,2,0,P|236:32|276:40,1,85,2|0,0:0|0:0,0:0:0:0:
428,84,103881,2,0,P|384:92|344:84,1,85,8|0,0:0|0:0,0:0:0:0:
196,140,104269,2,0,P|240:132|280:140,1,85,2|0,0:0|0:0,0:0:0:0:
464,196,104656,2,0,B|404:216|404:172|336:196,1,127.5,8|0,0:0|0:0,0:0:0:0:
312,228,105043,2,0,P|304:264|316:320,1,85,2|0,0:0|0:0,0:0:0:0:
252,372,105430,1,8,0:0:0:0:
252,372,105623,1,0,0:0:0:0:
196,308,105817,6,0,B|188:268|188:268|152:228,1,85
32,296,106204,2,0,B|70:309|70:309|123:297,1,85,8|0,0:0|0:0,0:0:0:0:
124,160,106591,2,0,B|93:186|93:186|76:238,1,85
196,308,106978,2,0,B|188:268|188:268|152:228,1,85,8|0,0:0|0:0,0:0:0:0:
124,160,107365,2,0,B|104:100|136:100|124:32,2,127.5,8|8|8,0:0|0:0|0:0,0:0:0:0:
200,124,108139,2,0,P|240:136|276:168,1,85,8|8,0:0|0:0,0:0:0:0:
388,112,108527,2,0,P|344:104|304:76,1,85,8|8,0:0|0:0,0:0:0:0:
380,32,108914,6,0,P|456:72|448:164,1,170,4|8,0:0|0:0,0:0:0:0:
420,224,109494,1,0,0:0:0:0:
336,220,109688,2,0,B|336:276|392:304|392:304|356:320|344:364,1,170,0|8,0:0|0:0,0:0:0:0:
428,380,110269,1,0,0:0:0:0:
280,308,110656,6,0,P|264:272|256:208,2,85,0|8|0,0:0|0:0|0:0,0:0:0:0:
220,368,111236,1,0,0:0:0:0:
220,368,111430,1,0,0:0:0:0:
148,324,111623,2,0,P|104:316|56:328,1,85,8|0,0:0|0:0,0:0:0:0:
0,236,112010,2,0,P|44:244|92:232,2,85,0|0|8,0:0|0:0|0:0,0:0:0:0:
44,164,112591,1,0,0:0:0:0:
84,88,112785,2,0,P|40:80|-8:92,2,85,0|0|8,0:0|0:0|0:0,0:0:0:0:
124,164,113365,1,0,0:0:0:0:
188,108,113559,6,0,L|220:64,3,42.5,8|0|0|0,0:0|0:0|0:0|0:0,0:0:0:0:
256,168,113946,2,0,L|280:224,3,42.5,8|0|0|0,0:0|0:0|0:0|0:0,0:0:0:0:
312,96,114333,1,8,0:0:0:0:
332,81,114430,1,0,0:0:0:0:
357,73,114527,1,8,0:0:0:0:
382,73,114623,1,0,0:0:0:0:
406,80,114720,1,8,0:0:0:0:
428,93,114817,1,0,0:0:0:0:
444,113,114914,1,8,0:0:0:0:
456,232,115107,5,4,0:0:0:0:
456,232,115301,1,0,0:0:0:0:
372,218,115494,2,0,P|376:256|400:296,1,85,2|0,0:0|0:0,0:0:0:0:
196,344,115881,5,0,0:0:0:0:
196,344,116075,1,0,0:0:0:0:
279,357,116269,2,0,P|276:320|252:280,1,85,2|0,0:0|0:0,0:0:0:0:
124,152,116656,5,0,0:0:0:0:
124,152,116849,1,0,0:0:0:0:
192,200,117043,2,0,P|152:228|104:232,1,85,2|0,0:0|0:0,0:0:0:0:
56,104,117430,2,0,P|96:76|144:72,1,85,2|0,0:0|0:0,0:0:0:0:
192,200,117817,2,0,P|188:244|156:284,1,85,2|0,0:0|0:0,0:0:0:0:
56,104,118204,2,0,P|60:60|92:20,1,85,0|0,0:0|0:0,0:0:0:0:
168,36,118591,5,2,0:0:0:0:
168,36,118785,1,0,0:0:0:0:
224,100,118978,2,0,P|268:88|296:56,1,85
356,124,119365,2,0,P|384:72|384:24,1,85,2|0,0:0|0:0,0:0:0:0:
464,80,119752,2,0,B|492:164|436:164|464:252,2,170,0|2|0,0:0|0:0|0:0,0:0:0:0:
256,308,120914,1,2,0:0:0:0:
212,236,121107,5,2,0:0:0:0:
212,236,121204,1,0,0:0:0:0:
212,236,121301,2,0,P|180:272|172:320,1,85,12|0,0:0|0:0,0:0:0:0:
96,348,121688,2,0,L|64:268,1,85,2|0,0:0|0:0,0:0:0:0:
60,184,122075,2,0,P|104:120|52:28,1,170,8|0,0:0|0:0,0:0:0:0:
156,20,122656,1,0,0:0:0:0:
208,88,122849,2,0,L|240:168,1,85,8|0,0:0|0:0,0:0:0:0:
324,176,123236,2,0,L|292:96,1,85
396,224,123623,2,0,B|440:236|440:236|472:200|540:200,2,127.5,8|8|8,0:0|0:0|0:0,0:0:0:0:
348,296,124398,6,0,P|324:336|324:392,1,85,8|0,0:0|0:0,0:0:0:0:
276,256,124785,2,0,P|239:285|220:338,1,85,0|0,0:0|0:0,0:0:0:0:
224,192,125172,2,0,P|179:207|143:250,1,85,8|0,0:0|0:0,0:0:0:0:
204,112,125559,2,0,P|157:111|108:139,1,85,0|0,0:0|0:0,0:0:0:0:
76,200,125946,1,8,0:0:0:0:
76,200,126139,1,8,0:0:0:0:
108,44,126333,1,8,0:0:0:0:
108,44,126527,1,8,0:0:0:0:
204,112,126720,2,0,B|286:141|287:82|372:112,1,170,8|0,0:0|0:0,0:0:0:0:
472,156,127301,5,0,0:0:0:0:
472,156,127398,1,0,0:0:0:0:
472,156,127495,2,0,P|484:208|460:264,1,97.7500018644333,6|0,0:0|0:0,0:0:0:0:
295,230,127881,2,0,L|388:200,1,97.7500018644333,8|0,0:0|0:0,0:0:0:0:
208,276,128269,2,0,P|196:224|224:164,1,97.7500018644333,0|0,0:0|0:0,0:0:0:0:
112,172,128656,1,8,0:0:0:0:
295,230,128849,1,0,0:0:0:0:
116,284,129043,6,0,P|68:300|32:340,1,97.7500018644333
124,376,129430,1,8,0:0:0:0:
112,172,129623,2,0,P|92:132|32:108,1,97.7500018644333
116,284,130010,1,0,0:0:0:0:
20,204,130204,1,8,0:0:0:0:
148,64,130398,1,0,0:0:0:0:
240,128,130591,1,0,0:0:0:0:
240,128,130688,1,0,0:0:0:0:
240,128,130785,2,0,P|296:136|340:124,1,97.7500018644333,0|8,0:0|0:0,0:0:0:0:
384,40,131172,1,0,0:0:0:0:
424,128,131365,6,0,B|423:162|393:192|393:192|423:219|423:256,2,146.62500279665,8|8|8,0:0|0:0|0:0,0:0:0:0:
496,192,132139,2,0,P|511:244|504:309,1,97.7500018644333,8|0,0:0|0:0,0:0:0:0:
273,340,132527,2,0,P|297:298|346:262,1,97.7500018644333,8|0,0:0|0:0,0:0:0:0:
208,212,132914,2,0,P|250:188|310:180,1,97.7500018644333,8|0,0:0|0:0,0:0:0:0:
232,72,133301,2,0,P|282:72|336:96,1,97.7500018644333,8|8,0:0|0:0,0:0:0:0:
188,136,133688,6,0,B|94:189|94:96|-14:154,1,195.500003728867,12|0,0:0|0:0,0:0:0:0:
52,220,134269,2,0,P|132:264|168:368,1,195.500003728867,8|0,0:0|0:0,0:0:0:0:
256,352,134849,2,0,P|296:324|352:320,1,97.7500018644333,8|0,0:0|0:0,0:0:0:0:
456,212,135236,2,0,P|416:240|360:244,1,97.7500018644333,8|0,0:0|0:0,0:0:0:0:
240,212,135623,2,0,P|280:184|336:180,1,97.7500018644333,8|0,0:0|0:0,0:0:0:0:
456,80,136010,2,0,P|416:108|360:112,1,97.7500018644333,8|8,0:0|0:0,0:0:0:0:
280,96,136398,1,0,0:0:0:0:
208,44,136591,2,0,B|144:28|144:28|96:68|16:68,1,195.500003728867,8|0,0:0|0:0,0:0:0:0:
68,144,137172,2,0,P|120:132|172:108,1,97.7500018644333,8|0,0:0|0:0,0:0:0:0:
232,168,137559,2,0,P|168:204|92:228,2,146.62500279665,8|8|8,0:0|0:0|0:0,0:0:0:0:
316,196,138333,5,8,0:0:0:0:
316,196,138430,1,8,0:0:0:0:
316,196,138527,1,8,0:0:0:0:
252,256,138720,2,0,P|208:280|148:304,1,97.7500018644333,8|8,0:0|0:0,0:0:0:0:
76,316,139107,2,0,L|36:280,2,48.8750009322167,8|8|8,0:0|0:0|0:0,0:0:0:0:
144,376,139494,1,8,0:0:0:0:
167,368,139591,1,0,0:0:0:0:
191,365,139688,1,8,0:0:0:0:
215,364,139785,1,0,0:0:0:0:
240,367,139881,6,0,B|336:400|336:328|452:372,1,195.500003728867,12|8,0:0|0:0,0:0:0:0:
512,288,140462,2,0,B|440:320|416:256|300:304,1,195.500003728867,0|0,0:0|0:0,0:0:0:0:
352,212,141043,2,0,P|408:212|464:228,1,97.7500018644333,8|0,0:0|0:0,0:0:0:0:
280,152,141430,2,0,P|328:124|388:120,1,97.7500018644333
352,212,141817,1,8,0:0:0:0:
252,236,142010,2,0,B|160:280|160:212|60:244,1,195.500003728867
80,156,142591,2,0,P|136:156|200:176,1,97.7500018644333,8|0,0:0|0:0,0:0:0:0:
28,96,142978,1,0,0:0:0:0:
28,96,143075,1,0,0:0:0:0:
28,96,143172,2,0,P|76:68|141:53,1,97.7500018644333,0|8,0:0|0:0,0:0:0:0:
204,60,143559,1,0,0:0:0:0:
276,112,143752,6,0,B|348:136|348:88|424:112,2,146.62500279665,8|8|8,0:0|0:0|0:0,0:0:0:0:
296,72,144430,1,0,0:0:0:0:
312,40,144527,2,0,P|364:28|424:32,1,97.7500018644333,8|0,0:0|0:0,0:0:0:0:
452,256,144914,2,0,P|412:228|384:180,1,97.7500018644333,8|0,0:0|0:0,0:0:0:0:
336,312,145301,2,0,P|315:267|315:212,1,97.7500018644333,8|0,0:0|0:0,0:0:0:0:
208,292,145688,2,0,P|212:243|239:195,1,97.7500018644333,8|8,0:0|0:0,0:0:0:0:
192,376,146075,6,0,B|146:359|126:309|126:309|74:333|29:317,1,195.500003728867,4|8,0:0|0:0,0:0:0:0:
76,240,146656,2,0,P|124:180|84:76,1,195.500003728867,0|0,0:0|0:0,0:0:0:0:
164,36,147236,2,0,L|212:132,1,97.7500018644333,8|0,0:0|0:0,0:0:0:0:
360,60,147623,2,0,L|252:53,1,97.7500018644333,8|0,0:0|0:0,0:0:0:0:
244,220,148010,2,0,L|303:130,1,97.7500018644333,8|0,0:0|0:0,0:0:0:0:
164,36,148398,2,0,L|212:132,1,97.7500018644333,8|8,0:0|0:0,0:0:0:0:
244,220,148785,1,0,0:0:0:0:
236,308,148978,2,0,B|181:298|157:254|157:254|124:284|64:276,1,195.500003728867,8|0,0:0|0:0,0:0:0:0:
80,100,149559,2,0,L|100:196,1,97.7500018644333,8|0,0:0|0:0,0:0:0:0:
129,32,149946,2,8,P|56:20|4:64,2,146.62500279665,8|8|8,0:0|0:0|0:0,0:0:0:0:
208,72,150720,5,8,0:0:0:0:
208,72,150817,1,8,0:0:0:0:
208,72,150914,1,8,0:0:0:0:
292,96,151107,2,0,P|340:104|392:88,1,97.7500018644333,8|8,0:0|0:0,0:0:0:0:
404,176,151494,2,0,L|460:152,2,48.8750009322167,8|8|8,0:0|0:0|0:0,0:0:0:0:
324,212,151881,1,8,0:0:0:0:
301,221,151978,1,0,0:0:0:0:
279,231,152075,1,8,0:0:0:0:
256,241,152172,1,0,0:0:0:0:
234,250,152269,6,0,P|196:284|180:340,1,97.7500018644333,4|0,0:0|0:0,0:0:0:0:
92,340,152656,1,8,0:0:0:0:
120,256,152849,2,0,P|140:164|68:76,1,195.500003728867
164,48,153430,6,0,P|200:92|216:148,1,97.7500018644333,8|0,0:0|0:0,0:0:0:0:
296,104,153817,2,0,B|368:72|368:120|440:96,2,146.62500279665,8|8|8,0:0|0:0|0:0,0:0:0:0:
352,172,154591,2,0,P|404:180|460:168,1,97.7500018644333,8|8,0:0|0:0,0:0:0:0:
504,336,154978,1,8,0:0:0:0:
476,252,155171,1,8,0:0:0:0:
476,252,155268,1,8,0:0:0:0:
476,252,155365,2,0,P|432:284|416:332,1,97.7500018644333,8|8,0:0|0:0,0:0:0:0:
240,168,155752,5,8,0:0:0:0:
351,261,155946,1,8,0:0:0:0:
228,184,156139,1,8,0:0:0:0:
338,276,156333,1,8,0:0:0:0:
215,199,156527,1,8,0:0:0:0:
325,291,156720,1,8,0:0:0:0:
140,228,156914,6,0,L|132:168,3,48.8750009322167,8|8|8|8,0:0|0:0|0:0|0:0,0:0:0:0:
72,304,157301,2,0,L|56:360,3,48.8750009322167,8|8|8|8,0:0|0:0|0:0|0:0,0:0:0:0:
56,224,157688,1,8,0:0:0:0:
53,199,157784,1,8,0:0:0:0:
50,175,157881,1,8,0:0:0:0:
47,151,157978,1,8,0:0:0:0:
44,126,158075,1,8,0:0:0:0:
41,102,158171,1,8,0:0:0:0:
38,78,158268,1,8,0:0:0:0:
36,54,158365,1,8,0:0:0:0:
33,29,158462,1,4,0:0:0:0:
