osu file format v13

[General]
AudioFilename: senya - Nureta kami ni furerare ta toki.mp3
AudioLeadIn: 2000
PreviewTime: 65269
Countdown: 0
SampleSet: Soft
StackLeniency: 0.6
Mode: 0
LetterboxInBreaks: 0
WidescreenStoryboard: 1

[Editor]
Bookmarks: 21429,52205
DistanceSpacing: 1.1
BeatDivisor: 4
GridSize: 4
TimelineZoom: 1

[Metadata]
Title:Nureta Kami ni Furerareta Toki
TitleUnicode:濡れた髪に触れられた時
Artist:senya
ArtistUnicode:senya
Creator:Smoothie
Version:Hard
Source:Touhou
Tags:Yuuhei Satellite Tatara Kogasa Beware The Umbrella Left There Forever kamase tora Iceon Nmaaaaa Comiket 83
BeatmapID:250102
BeatmapSetID:92507

[Difficulty]
HPDrainRate:5
CircleSize:3.5
OverallDifficulty:6
ApproachRate:7
SliderMultiplier:1.6
SliderTickRate:2

[Events]
//Background and Video events
0,0,"senya - Nureta Kami ni Furerareta Toki.jpg",0,0
//Break Periods
2,34791,39885
2,96727,101820
//Storyboard Layer 0 (Background)
//Storyboard Layer 1 (Fail)
//Storyboard Layer 2 (Pass)
//Storyboard Layer 3 (Foreground)
//Storyboard Sound Samples
//Background Colour Transformations
3,100,163,162,255

[TimingPoints]
-1021,387.096774193548,4,2,1,20,1,0
19108,-100,4,2,1,30,0,0
22108,-100,4,2,2,30,0,0
22301,-100,4,2,1,30,0,0
25301,-100,4,2,1,40,0,0
28785,-100,4,2,1,30,0,0
28882,-100,4,2,1,5,0,0
34591,-100,4,2,1,30,0,0
40785,-100,4,2,1,40,0,0
53172,-100,4,2,1,50,0,0
64011,-100,4,2,1,50,0,0
65559,-100,4,2,1,50,0,1
65946,-100,4,2,1,50,0,1
75624,-100,4,2,1,50,0,0
77946,-100,4,2,1,50,0,1
88011,-100,4,2,1,50,0,0
90333,-100,4,2,1,50,0,1
93914,-100,4,2,1,5,0,1
96527,-100,4,2,1,50,0,0
102720,-100,4,2,1,40,0,0
115108,-100,4,2,1,50,0,0
127495,-100,4,2,1,50,0,1
127882,-100,4,2,1,50,0,1
137559,-100,4,2,1,50,0,0
139882,-100,4,2,1,50,0,1
149946,-100,4,2,1,50,0,0
152269,-100,4,2,1,50,0,1
155849,-100,4,2,1,5,0,1
158462,-100,4,2,1,30,0,0

[Colours]
Combo1 : 230,183,228
Combo2 : 255,98,98
Combo3 : 149,197,255
Combo4 : 249,234,181

[HitObjects]
64,328,333,5,0,0:0:0:0:
64,328,527,2,0,P|84:260|28:184,1,160,2|0,0:0|0:0,0:0:0:0:
4,268,1107,2,0,P|80:256|140:200,1,160,2|0,0:0|0:0,0:0:0:0:
200,268,1688,2,0,L|224:356,1,80,2|0,0:0|0:0,0:0:0:0:
308,340,2075,6,0,B|388:364|388:316|472:348,1,160,2|0,0:0|0:0,0:0:0:0:
512,272,2656,2,0,P|432:256|332:268,1,160,2|0,0:0|0:0,0:0:0:0:
372,176,3236,2,0,P|412:172|464:180,1,80,2|0,0:0|0:0,0:0:0:0:
496,100,3623,1,0,0:0:0:0:
496,100,3817,2,0,P|420:84|352:16,1,160,2|0,0:0|0:0,0:0:0:0:
292,88,4398,2,0,P|268:148|284:212,2,120,2|2|2,0:0|0:0|0:0,0:0:0:0:
240,16,5172,6,0,L|192:88,1,80,2|0,0:0|0:0,0:0:0:0:
192,168,5559,1,2,0:0:0:0:
192,168,5752,1,0,0:0:0:0:
196,256,5946,2,0,P|156:248|116:212,1,80,2|0,0:0|0:0,0:0:0:0:
64,292,6333,2,0,L|124:364,1,80,2|0,0:0|0:0,0:0:0:0:
204,340,6720,6,0,B|284:320|284:360|364:344,1,160,2|0,0:0|0:0,0:0:0:0:
488,276,7301,2,0,B|408:296|408:256|328:272,1,160,2|0,0:0|0:0,0:0:0:0:
280,200,7881,2,0,P|360:192|448:204,2,160,2|2|2,0:0|0:0|0:0,0:0:0:0:
132,288,9043,2,0,P|112:240|116:196,2,80,2|0|0,0:0|0:0|0:0,0:0:0:0:
64,344,9623,2,0,P|32:272|32:180,1,160,2|0,0:0|0:0,0:0:0:0:
88,124,10204,2,0,B|172:92|172:144|248:120,1,160,2|0,0:0|0:0,0:0:0:0:
372,240,10978,6,0,L|422:301,1,80,2|0,0:0|0:0,0:0:0:0:
476,232,11365,2,0,P|464:192|480:152,1,80,2|0,0:0|0:0,0:0:0:0:
504,76,11752,1,2,0:0:0:0:
504,76,11946,1,0,0:0:0:0:
416,68,12139,2,0,L|376:148,1,80,2|0,0:0|0:0,0:0:0:0:
308,192,12527,1,2,0:0:0:0:
308,192,12720,1,0,0:0:0:0:
220,192,12914,6,0,B|140:168|140:212|62:187,1,160,4|0,0:0|0:0,0:0:0:0:
20,260,13494,2,0,P|100:276|176:264,1,160,2|0,0:0|0:0,0:0:0:0:
252,308,14075,2,0,L|224:384,1,80,2|0,0:0|0:0,0:0:0:0:
312,368,14462,2,0,P|368:324|460:332,1,160,2|0,0:0|0:0,0:0:0:0:
472,244,15043,2,0,L|516:76,1,160,2|0,0:0|0:0,0:0:0:0:
428,112,15623,2,0,L|404:200,1,80,2|0,0:0|0:0,0:0:0:0:
328,224,16010,1,0,0:0:0:0:
328,224,16107,1,0,0:0:0:0:
328,224,16204,2,0,B|280:228|256:256|256:256|232:228|180:224,1,160,2|0,0:0|0:0,0:0:0:0:
132,156,16785,2,0,P|104:208|120:284,2,120,2|2|2,0:0|0:0|0:0,0:0:0:0:
56,112,17559,6,0,L|16:200,1,80,2|0,0:0|0:0,0:0:0:0:
16,272,17946,2,0,P|44:312|44:364,1,80,2|0,0:0|0:0,0:0:0:0:
128,376,18333,2,0,P|164:356|220:356,1,80,2|0,0:0|0:0,0:0:0:0:
284,320,18720,1,0,0:0:0:0:
284,320,18914,1,0,0:0:0:0:
356,272,19107,6,0,B|436:240|436:296|512:276,1,160,4|0,0:0|0:0,0:0:0:0:
480,192,19688,2,0,P|412:176|316:192,1,160,2|0,0:0|0:0,0:0:0:0:
264,252,20269,2,0,P|236:180|284:112,2,160,2|2|2,0:0|0:0|0:0,0:0:0:0:
92,280,21430,2,0,L|133:348,2,80,2|0|0,0:0|0:0|0:0,0:0:0:0:
8,260,22010,2,0,P|56:204|140:208,1,160,2|0,0:0|0:0,0:0:0:0:
196,276,22591,2,0,P|252:332|340:332,1,160,0|2,0:0|0:0,0:0:0:0:
256,40,23752,5,8,0:0:0:0:
327,93,24527,2,0,P|256:124|180:88,1,160,8|8,0:0|0:0,0:0:0:0:
116,252,25301,6,0,P|184:296|212:372,1,160,6|0,0:0|0:0,0:0:0:0:
300,367,25881,2,0,P|328:296|396:252,1,160,2|0,0:0|0:0,0:0:0:0:
332,192,26462,2,0,B|288:196|256:224|256:224|228:196|184:192,2,160,2|4|8,0:0|0:0|0:0,0:0:0:0:
216,60,27623,2,0,P|256:52|293:60,2,80,8|0|8,0:0|0:0|0:0,0:0:0:0:
148,116,28204,2,0,P|104:184|136:264,1,160,8|8,0:0|0:0,0:0:0:0:
188,192,28785,1,4,0:0:0:0:
256,192,28881,12,4,34591,0:0:0:0:
36,328,40785,6,0,B|52:308|76:304|76:304|120:344|180:344,1,160,2|8,0:0|0:0,0:0:0:0:
256,304,41365,1,0,0:0:0:0:
332,344,41559,2,0,B|392:344|436:304|436:304|456:308|476:328,1,160,2|8,0:0|0:0,0:0:0:0:
340,212,42333,2,0,P|312:140|344:64,1,160,2|8,0:0|0:0,0:0:0:0:
256,40,42914,1,0,0:0:0:0:
172,68,43107,2,0,P|202:142|174:214,1,160,2|8,0:0|0:0,0:0:0:0:
104,368,43881,5,2,0:0:0:0:
256,276,44269,1,8,0:0:0:0:
408,368,44656,1,2,0:0:0:0:
256,276,45043,1,8,0:0:0:0:
132,152,45430,6,0,B|72:132|72:160|8:152,2,120,4|8|8,0:0|0:0|0:0,0:0:0:0:
212,188,46204,2,0,P|232:144|220:96,1,80,8|0,0:0|0:0,0:0:0:0:
300,60,46591,2,0,L|320:148,1,80,8|0,0:0|0:0,0:0:0:0:
336,224,46978,6,0,P|416:240|480:184,1,160,4|8,0:0|0:0,0:0:0:0:
508,276,47559,1,0,0:0:0:0:
508,276,47752,2,0,L|364:356,1,160,0|8,0:0|0:0,0:0:0:0:
284,332,48333,1,0,0:0:0:0:
92,352,48720,5,0,0:0:0:0:
92,352,48914,2,0,L|60:268,1,80,8|0,0:0|0:0,0:0:0:0:
124,212,49301,2,0,L|156:296,1,80,2|2,0:0|0:0,0:0:0:0:
284,211,49688,2,0,P|248:206|208:220,1,80,8|0,0:0|0:0,0:0:0:0:
372,208,50075,6,0,L|420:52,1,160,0|8,0:0|0:0,0:0:0:0:
488,108,50656,1,0,0:0:0:0:
488,108,50849,2,0,L|440:268,1,160,0|8,0:0|0:0,0:0:0:0:
412,344,51430,1,0,0:0:0:0:
412,344,51623,2,0,P|340:312|264:332,1,160,8|8,0:0|0:0,0:0:0:0:
92,360,52398,1,8,0:0:0:0:
92,360,52591,1,8,0:0:0:0:
72,272,52785,2,0,L|48:176,1,80,8|8,0:0|0:0,0:0:0:0:
92,116,53172,5,4,0:0:0:0:
92,116,53365,1,0,0:0:0:0:
164,68,53559,2,0,P|200:56|248:64,1,80,2|0,0:0|0:0,0:0:0:0:
304,124,53946,1,0,0:0:0:0:
304,124,54139,1,0,0:0:0:0:
256,200,54333,2,0,P|228:172|216:128,1,80,2|0,0:0|0:0,0:0:0:0:
246,52,54720,1,0,0:0:0:0:
246,52,54914,1,0,0:0:0:0:
341,53,55107,6,0,L|302:127,1,80,2|0,0:0|0:0,0:0:0:0:
388,144,55494,2,0,L|432:64,1,80,2|0,0:0|0:0,0:0:0:0:
484,140,55881,2,0,L|440:220,1,80,2|0,0:0|0:0,0:0:0:0:
384,288,56269,6,0,B|348:260|340:224|340:224|298:232|252:211,1,160,0|2,0:0|0:0,0:0:0:0:
172,204,56849,1,0,0:0:0:0:
132,284,57043,2,0,L|161:358,1,80
72,356,57430,2,0,L|40:272,1,80,2|0,0:0|0:0,0:0:0:0:
44,192,57817,2,0,P|84:128|172:120,2,160,0|2|0,0:0|0:0|0:0,0:0:0:0:
132,200,58785,1,0,0:0:0:0:
216,228,58978,2,0,L|304:248,1,80,2|0,0:0|0:0,0:0:0:0:
368,296,59365,6,0,P|384:252|376:212,1,80,12|0,0:0|0:0,0:0:0:0:
412,372,59753,2,0,P|444:384|508:372,1,80,2|0,0:0|0:0,0:0:0:0:
464,296,60139,2,0,B|480:256|480:256|444:208|448:136,1,160,8|0,0:0|0:0,0:0:0:0:
464,60,60720,1,0,0:0:0:0:
380,28,60914,2,0,P|376:72|384:120,1,80,8|0,0:0|0:0,0:0:0:0:
312,164,61301,2,0,P|300:124|296:72,1,80
220,40,61688,2,0,P|164:24|100:44,2,120,8|8|8,0:0|0:0|0:0,0:0:0:0:
220,128,62462,6,0,P|168:144|96:124,1,120,8|0,0:0|0:0,0:0:0:0:
64,112,62849,2,0,P|36:152|36:188,1,80,0|0,0:0|0:0,0:0:0:0:
100,240,63236,2,0,P|140:232|184:244,1,80,8|0,0:0|0:0,0:0:0:0:
176,384,63623,2,0,P|149:353|137:309,1,80,0|0,0:0|0:0,0:0:0:0:
224,312,64010,1,8,0:0:0:0:
224,312,64204,1,8,0:0:0:0:
284,248,64398,2,0,P|312:296|312:328,1,80,8|8,0:0|0:0,0:0:0:0:
380,376,64785,1,8,0:0:0:0:
500,248,65172,5,0,0:0:0:0:
452,176,65365,1,0,0:0:0:0:
452,176,65462,1,0,0:0:0:0:
452,176,65559,2,0,P|420:104|460:24,1,160,12|0,0:0|0:0,0:0:0:0:
500,104,66139,2,0,P|424:112|352:72,1,160,8|0,0:0|0:0,0:0:0:0:
280,20,66720,2,0,L|244:96,1,80,8|0,0:0|0:0,0:0:0:0:
204,172,67107,2,0,B|128:204|128:152|48:176,1,160,8|0,0:0|0:0,0:0:0:0:
92,252,67688,2,0,P|160:264|260:232,1,160,8|0,0:0|0:0,0:0:0:0:
332,260,68269,2,0,P|348:300|336:344,1,80,8|0,0:0|0:0,0:0:0:0:
252,336,68656,5,0,0:0:0:0:
416,380,68849,2,0,L|460:216,1,160,8|0,0:0|0:0,0:0:0:0:
380,184,69430,2,0,P|360:132|392:60,2,120,8|8|8,0:0|0:0|0:0,0:0:0:0:
332,260,70204,6,0,P|336:304|312:348,1,80,8|0,0:0|0:0,0:0:0:0:
252,284,70591,1,8,0:0:0:0:
252,284,70785,1,0,0:0:0:0:
184,228,70978,2,0,P|164:272|168:316,1,80,8|0,0:0|0:0,0:0:0:0:
96,360,71365,2,0,P|56:352|12:364,1,80,8|8,0:0|0:0,0:0:0:0:
4,272,71752,6,0,P|28:224|-16:112,1,160,12|0,0:0|0:0,0:0:0:0:
88,116,72333,2,0,P|168:128|216:60,1,160,8|0,0:0|0:0,0:0:0:0:
300,48,72914,2,0,P|300:132|364:184,2,160,8|8|8,0:0|0:0|0:0,0:0:0:0:
236,212,74075,2,0,P|220:252|228:296,1,80,8|0,0:0|0:0,0:0:0:0:
172,360,74462,1,0,0:0:0:0:
172,360,74656,2,0,P|120:304|24:312,1,160,8|0,0:0|0:0,0:0:0:0:
40,208,75236,2,0,P|72:184|88:144,1,80,8|0,0:0|0:0,0:0:0:0:
128,72,75623,6,0,P|172:120|156:200,2,120,8|8|8,0:0|0:0|0:0,0:0:0:0:
220,40,76398,2,0,B|272:12|272:12|300:20|348:20,2,120,8|8|8,0:0|0:0|0:0,0:0:0:0:
292,92,77172,2,0,P|336:96|396:76,1,80,8|8,0:0|0:0,0:0:0:0:
372,176,77559,2,0,P|412:164|448:128,1,80,8|8,0:0|0:0,0:0:0:0:
492,212,77946,6,0,P|428:264|436:336,1,160,12|0,0:0|0:0,0:0:0:0:
504,292,78527,2,0,P|448:264|352:292,1,160,8|0,0:0|0:0,0:0:0:0:
284,336,79107,2,0,P|248:352|188:344,1,80,8|0,0:0|0:0,0:0:0:0:
132,312,79494,2,0,B|100:296|84:272|84:272|60:324|-4:332,1,160,8|0,0:0|0:0,0:0:0:0:
4,240,80075,2,0,P|72:188|148:216,1,160,8|0,0:0|0:0,0:0:0:0:
212,160,80656,2,0,P|228:120|204:56,1,80,8|0,0:0|0:0,0:0:0:0:
140,108,81043,1,0,0:0:0:0:
288,24,81236,2,0,L|344:180,1,160,8|0,0:0|0:0,0:0:0:0:
380,256,81817,2,0,B|403:244|414:227|414:227|431:264|478:270,2,120,8|8|8,0:0|0:0|0:0,0:0:0:0:
296,280,82591,6,0,P|264:304|240:356,1,80,8|0,0:0|0:0,0:0:0:0:
160,360,82978,2,0,B|120:368|120:348|76:360,1,80,8|0,0:0|0:0,0:0:0:0:
36,284,83365,2,0,L|12:192,1,80,8|0,0:0|0:0,0:0:0:0:
80,148,83752,2,0,L|100:228,1,80,8|8,0:0|0:0,0:0:0:0:
180,256,84139,6,0,P|232:200|316:200,1,160,12|0,0:0|0:0,0:0:0:0:
400,216,84720,2,0,L|360:56,1,160,8|0,0:0|0:0,0:0:0:0:
444,88,85301,2,0,L|488:260,2,160,8|8|8,0:0|0:0|0:0,0:0:0:0:
408,260,86462,2,0,P|416:308|404:348,1,80,8|0,0:0|0:0,0:0:0:0:
248,336,86849,1,0,0:0:0:0:
328,296,87043,2,0,P|256:256|176:280,1,160,8|0,0:0|0:0,0:0:0:0:
116,328,87623,2,0,L|92:244,1,80,8|0,0:0|0:0,0:0:0:0:
8,232,88010,6,0,L|44:352,2,120,8|8|8,0:0|0:0|0:0,0:0:0:0:
0,144,88785,2,0,B|8:112|28:92|28:92|8:72|-4:28,2,120,8|8|8,0:0|0:0|0:0,0:0:0:0:
88,152,89559,2,0,P|132:148|168:120,1,80,8|0,0:0|0:0,0:0:0:0:
188,212,89946,2,0,P|220:188|248:132,1,80,8|0,0:0|0:0,0:0:0:0:
296,84,90333,6,0,B|374:49|374:108|452:84,1,160,12|0,0:0|0:0,0:0:0:0:
496,156,90914,2,0,P|424:172|324:148,1,160,8|0,0:0|0:0,0:0:0:0:
260,192,91494,1,8,0:0:0:0:
260,192,91881,6,0,P|232:272|276:344,1,160,8|8,0:0|0:0,0:0:0:0:
88,340,92656,2,0,L|48:264,2,80,8|8|8,0:0|0:0|0:0,0:0:0:0:
140,268,93236,2,0,P|168:196|132:112,1,160,8|0,0:0|0:0,0:0:0:0:
72,64,93817,1,8,0:0:0:0:
256,192,93914,12,4,96527,0:0:0:0:
176,160,102720,6,0,B|148:240|196:240|176:316,1,160,2|8,0:0|0:0,0:0:0:0:
256,352,103301,1,0,0:0:0:0:
336,316,103494,2,0,B|316:240|364:240|336:160,1,160,2|8,0:0|0:0,0:0:0:0:
476,52,104269,2,0,P|396:24|320:64,1,160,2|8,0:0|0:0,0:0:0:0:
256,100,104849,1,0,0:0:0:0:
181,52,105043,2,0,P|116:24|36:52,1,160,2|8,0:0|0:0,0:0:0:0:
144,192,105817,5,2,0:0:0:0:
256,328,106204,1,8,0:0:0:0:
368,192,106591,1,2,0:0:0:0:
256,328,106978,1,8,0:0:0:0:
144,192,107365,6,0,B|84:172|84:200|20:192,2,120,4|8|8,0:0|0:0|0:0,0:0:0:0:
232,180,108139,2,0,P|252:136|240:88,1,80,8|0,0:0|0:0,0:0:0:0:
316,48,108527,2,0,L|336:136,1,80,8|0,0:0|0:0,0:0:0:0:
404,72,108914,6,0,L|440:228,1,160,4|8,0:0|0:0,0:0:0:0:
312,336,109494,1,0,0:0:0:0:
256,269,109688,2,0,P|340:256|396:312,1,160,0|8,0:0|0:0,0:0:0:0:
312,336,110269,1,0,0:0:0:0:
128,376,110656,5,0,0:0:0:0:
128,376,110849,2,0,L|96:292,1,80,8|0,0:0|0:0,0:0:0:0:
160,240,111236,2,0,L|188:314,1,80,2|2,0:0|0:0,0:0:0:0:
264,272,111623,2,0,P|304:258|356:271,1,80,8|0,0:0|0:0,0:0:0:0:
412,212,112010,6,0,L|440:32,1,160,0|8,0:0|0:0,0:0:0:0:
352,32,112591,1,0,0:0:0:0:
352,32,112785,2,0,P|288:72|192:68,1,160,0|8,0:0|0:0,0:0:0:0:
120,84,113365,1,0,0:0:0:0:
120,84,113559,2,0,B|116:140|72:164|72:164|104:188|120:224,1,160,8|8,0:0|0:0,0:0:0:0:
256,328,114333,1,8,0:0:0:0:
256,328,114527,1,8,0:0:0:0:
340,348,114720,2,0,L|388:272,1,80,8|8,0:0|0:0,0:0:0:0:
436,208,115107,5,4,0:0:0:0:
436,208,115301,1,0,0:0:0:0:
504,152,115494,2,0,P|472:128|404:128,1,80,2|0,0:0|0:0,0:0:0:0:
356,164,115881,1,0,0:0:0:0:
356,164,116075,1,0,0:0:0:0:
288,220,116269,2,0,P|320:244|388:244,1,80,2|0,0:0|0:0,0:0:0:0:
432,300,116656,1,0,0:0:0:0:
432,300,116849,1,0,0:0:0:0:
360,352,117043,6,0,L|272:352,1,80,2|0,0:0|0:0,0:0:0:0:
220,288,117430,2,0,P|200:324|196:368,1,80,2|0,0:0|0:0,0:0:0:0:
116,328,117817,2,0,L|100:244,1,80,2|0,0:0|0:0,0:0:0:0:
164,188,118204,6,0,P|84:164|16:220,1,160,0|2,0:0|0:0,0:0:0:0:
0,120,118785,1,0,0:0:0:0:
0,120,118978,2,0,P|40:100|76:92,1,80
164,96,119365,2,0,L|196:20,1,80,2|0,0:0|0:0,0:0:0:0:
276,60,119752,2,0,B|268:112|312:148|312:148|260:196,2,160,0|2|0,0:0|0:0|0:0,0:0:0:0:
364,72,120720,1,0,0:0:0:0:
424,8,120914,2,0,P|448:44|448:88,1,80,2|0,0:0|0:0,0:0:0:0:
484,160,121301,6,0,L|512:244,1,80,8|0,0:0|0:0,0:0:0:0:
452,304,121688,2,0,L|424:220,1,80
340,236,122075,2,0,P|292:288|184:288,1,160,8|0,0:0|0:0,0:0:0:0:
120,284,122656,1,0,0:0:0:0:
120,284,122849,2,0,L|140:376,1,80,8|0,0:0|0:0,0:0:0:0:
52,336,123236,2,0,L|32:244,1,80
36,172,123623,6,0,B|44:144|68:120|68:120|44:100|36:72,2,120,8|8|8,0:0|0:0|0:0,0:0:0:0:
124,184,124398,2,0,P|200:196|252:112,1,160,8|0,0:0|0:0,0:0:0:0:
288,60,124978,1,0,0:0:0:0:
288,60,125172,2,0,P|320:88|340:140,1,80,8|0,0:0|0:0,0:0:0:0:
416,84,125559,2,0,P|424:124|412:176,1,80
340,204,125946,1,8,0:0:0:0:
340,204,126139,1,8,0:0:0:0:
260,240,126333,2,0,P|292:276|348:292,1,80,8|8,0:0|0:0,0:0:0:0:
404,312,126720,1,8,0:0:0:0:
232,356,127107,5,0,0:0:0:0:
156,316,127301,1,0,0:0:0:0:
156,316,127398,1,0,0:0:0:0:
156,316,127494,2,0,B|80:288|80:340|0:316,1,160,12|0,0:0|0:0,0:0:0:0:
44,240,128075,2,0,P|124:228|216:256,1,160,8|0,0:0|0:0,0:0:0:0:
264,188,128656,6,0,P|272:152|244:100,1,80,8|0,0:0|0:0,0:0:0:0:
304,36,129043,2,0,P|348:112|352:192,1,160,8|0,0:0|0:0,0:0:0:0:
364,268,129623,2,0,P|416:324|496:328,1,160,8|0,0:0|0:0,0:0:0:0:
456,248,130204,2,0,L|488:160,1,80,8|0,0:0|0:0,0:0:0:0:
512,88,130591,1,0,0:0:0:0:
512,88,130688,1,0,0:0:0:0:
512,88,130785,2,0,P|456:40|348:40,1,160,8|0,0:0|0:0,0:0:0:0:
288,52,131365,2,0,B|228:76|228:36|164:56,2,120,8|8|8,0:0|0:0|0:0,0:0:0:0:
352,112,132139,6,0,P|392:108|444:124,1,80,8|0,0:0|0:0,0:0:0:0:
384,192,132527,2,0,P|344:196|304:212,1,80,8|0,0:0|0:0,0:0:0:0:
368,276,132914,2,0,P|404:276|448:292,1,80,8|0,0:0|0:0,0:0:0:0:
388,356,133301,2,0,P|344:356|288:380,1,80,8|8,0:0|0:0,0:0:0:0:
228,332,133688,6,0,B|148:300|148:344|68:328,1,160,12|0,0:0|0:0,0:0:0:0:
108,248,134269,2,0,P|128:176|64:120,1,160,8|0,0:0|0:0,0:0:0:0:
132,56,134849,2,0,L|296:16,2,160,8|8|8,0:0|0:0|0:0,0:0:0:0:
228,204,136010,2,0,P|244:244|236:288,1,80,8|0,0:0|0:0,0:0:0:0:
380,372,136398,1,0,0:0:0:0:
292,352,136591,2,0,P|344:296|440:296,1,160,8|0,0:0|0:0,0:0:0:0:
432,200,137172,2,0,L|372:136,1,80,8|0,0:0|0:0,0:0:0:0:
328,68,137559,6,0,P|292:124|304:192,2,120,8|8|8,0:0|0:0|0:0,0:0:0:0:
244,32,138333,2,0,B|192:4|192:4|164:12|116:12,2,120,8|8|8,0:0|0:0|0:0,0:0:0:0:
172,84,139107,2,0,P|128:88|72:72,1,80,8|8,0:0|0:0,0:0:0:0:
112,164,139494,2,0,P|68:156|24:128,1,80,8|8,0:0|0:0,0:0:0:0:
4,220,139881,6,0,P|-28:292|16:372,1,160,12|0,0:0|0:0,0:0:0:0:
52,292,140462,2,0,P|128:288|200:348,1,160,8|0,0:0|0:0,0:0:0:0:
280,356,141043,2,0,P|320:364|364:352,1,80,8|0,0:0|0:0,0:0:0:0:
320,276,141430,2,0,P|396:252|488:292,1,160,8|0,0:0|0:0,0:0:0:0:
484,188,142010,2,0,L|328:144,1,160,8|0,0:0|0:0,0:0:0:0:
248,112,142591,2,0,P|240:76|252:28,1,80,8|0,0:0|0:0,0:0:0:0:
336,32,142978,5,0,0:0:0:0:
168,0,143172,2,0,L|104:172,1,160,8|0,0:0|0:0,0:0:0:0:
108,236,143752,2,0,B|60:232|36:196|36:196|0:216,2,120,8|8|8,0:0|0:0|0:0,0:0:0:0:
188,260,144527,6,0,P|220:284|244:336,1,80,8|0,0:0|0:0,0:0:0:0:
324,340,144914,2,0,B|364:348|364:328|408:340,1,80,8|0,0:0|0:0,0:0:0:0:
448,264,145301,2,0,L|472:172,1,80,8|0,0:0|0:0,0:0:0:0:
404,128,145688,2,0,L|384:208,1,80,8|8,0:0|0:0,0:0:0:0:
300,176,146075,6,0,P|328:104|284:36,1,160,12|0,0:0|0:0,0:0:0:0:
244,112,146656,2,0,P|164:124|117:68,1,160,8|0,0:0|0:0,0:0:0:0:
52,128,147236,2,0,B|76:188|28:236|28:236|52:269,2,160,8|8|8,0:0|0:0|0:0,0:0:0:0:
136,288,148398,2,0,P|148:324|128:372,1,80,8|0,0:0|0:0,0:0:0:0:
312,380,148785,1,0,0:0:0:0:
224,360,148978,2,0,P|264:316|376:316,1,160,8|0,0:0|0:0,0:0:0:0:
444,308,149559,2,0,L|468:224,1,80,8|0,0:0|0:0,0:0:0:0:
360,308,149946,6,0,L|393:193,2,120,8|8|8,0:0|0:0|0:0,0:0:0:0:
348,120,150720,2,0,P|400:108|459:138,2,120,8|8|8,0:0|0:0|0:0,0:0:0:0:
260,128,151494,2,0,L|224:36,1,80,8|0,0:0|0:0,0:0:0:0:
168,116,151881,2,0,L|139:41,1,80,8|0,0:0|0:0,0:0:0:0:
60,76,152269,6,0,B|56:104|16:140|16:140|52:176|52:216,1,160,12|0,0:0|0:0,0:0:0:0:
80,292,152849,2,0,P|148:244|224:268,1,160,8|0,0:0|0:0,0:0:0:0:
280,324,153430,1,8,0:0:0:0:
280,324,153817,6,0,P|349:342|417:294,1,160,8|8,0:0|0:0,0:0:0:0:
460,124,154591,2,0,L|488:32,2,80,8|8|0,0:0|0:0|0:0,0:0:0:0:
392,180,155172,2,0,P|322:161|252:224,1,160,8|0,0:0|2:0,0:0:0:0:
336,252,155752,1,8,0:0:0:0:
256,192,155849,12,6,158462,0:0:0:0:
