osu file format v12

[General]
AudioFilename: Little Ringo.mp3
AudioLeadIn: 0
PreviewTime: 98860
Countdown: 0
SampleSet: Soft
StackLeniency: 0.7
Mode: 0
LetterboxInBreaks: 1
WidescreenStoryboard: 0

[Editor]
DistanceSpacing: 0.8
BeatDivisor: 4
GridSize: 4
TimelineZoom: 1

[Metadata]
Title:Little Ringo
TitleUnicode:Little Ringo
Artist:senya
ArtistUnicode:senya
Creator:LunarSakuya
Version:Normal
Source:Touhou
Tags:senka ryouran elly koakuma devil bad apple ZUN 東方幻想郷 Lotus Land Story Kamasetora Iceon Autobahn 894G Yuuhei Satellite C82
BeatmapID:370552
BeatmapSetID:150112

[Difficulty]
HPDrainRate:4
CircleSize:3
OverallDifficulty:4
ApproachRate:4
SliderMultiplier:1.3
SliderTickRate:1

[Events]
//Background and Video events
0,0,"ellybg.jpg",0,0
//Break Periods
//Storyboard Layer 0 (Background)
//Storyboard Layer 1 (Fail)
//Storyboard Layer 2 (Pass)
//Storyboard Layer 3 (Foreground)
//Storyboard Sound Samples
//Background Colour Transformations
3,100,163,162,255

[TimingPoints]
1469,434.782608695652,4,1,1,60,1,0
56251,-100,4,2,1,60,0,0
57121,-117.647058823529,4,1,1,60,0,0
57773,-117.647058823529,4,2,1,60,0,0
71034,-100,4,1,1,60,0,0
71469,-100,4,2,1,60,0,0
84947,-100,4,1,1,60,0,0
125599,-100,4,2,1,60,0,0
126686,-100,4,1,1,60,0,1
154512,-100,4,1,1,60,0,0
154730,-117.647058823529,4,1,1,60,0,0
168425,-100,4,1,1,60,0,0

[Colours]
Combo1 : 170,85,255
Combo2 : 244,0,0
Combo3 : 235,71,186
Combo4 : 251,241,121

[HitObjects]
100,272,15382,6,0,P|148:232|216:224,1,130,4|8,0:0|0:0,0:0:0:0:
300,164,16251,2,0,P|365:155|413:115,2,130,0|8|0,0:0|0:0|0:0,0:0:0:0:
324,64,17555,1,8,0:0:0:0:
224,100,17990,2,0,L|180:232,1,130,0|8,0:0|0:0,0:0:0:0:
100,284,18860,6,0,P|40:244|20:188,2,130,0|8|0,0:0|0:0|0:0,0:0:0:0:
204,284,20164,1,8,0:0:0:0:
308,296,20599,2,0,P|368:284|436:280,1,130,0|8,0:0|0:0,0:0:0:0:
448,176,21468,2,0,P|440:108|392:64,2,130,0|8|0,0:0|0:0|0:0,0:0:0:0:
344,160,22773,1,8,0:0:0:0:
256,192,22882,12,4,27555,0:0:0:0:
256,196,29295,6,0,L|256:332,2,130,4|2|0,0:0|0:2|0:0,0:0:0:0:
328,124,30599,2,0,P|384:112|456:128,2,130,2|0|2,0:2|0:0|0:2,0:0:0:0:
224,104,31903,1,0,0:0:0:0:
152,180,32338,1,2,0:2:0:0:
172,284,32773,6,0,P|136:284|96:276,2,65,0|2|2,0:0|2:0|0:2,0:0:0:0:
264,336,33642,2,0,P|336:324|400:304,1,130,0|2,0:0|0:2,0:0:0:0:
444,216,34512,2,0,P|488:260|496:328,2,130,0|2|0,0:0|0:2|0:0,0:0:0:0:
328,44,36251,6,0,L|344:176,1,130,0|2,0:0|0:2,0:0:0:0:
304,268,37121,1,0,0:0:0:0:
200,252,37555,2,0,P|156:204|152:140,1,130,2|0,0:2|0:0,0:0:0:0:
252,164,38425,1,2,0:2:0:0:
200,252,38860,2,0,P|144:288|80:288,1,130,0|2,0:0|0:2,0:0:0:0:
28,200,39729,5,0,0:0:0:0:
56,100,40164,1,2,0:2:0:0:
152,56,40599,1,0,0:0:0:0:
240,112,41034,2,0,L|284:168,1,65,2|2,0:2|2:0,0:0:0:0:
328,184,41468,2,0,B|360:188|392:180|428:172|460:172,2,130,0|2|0,0:0|0:2|0:0,0:0:0:0:
140,268,43208,6,0,P|200:284|272:264,1,130,4|8,0:0|0:0,0:0:0:0:
328,184,44077,1,0,0:0:0:0:
337,84,44512,2,0,P|396:108|428:164,2,130,8|0|8,0:0|0:0|0:0,0:0:0:0:
236,68,45816,2,0,L|100:88,1,130,0|8,0:0|0:0,0:0:0:0:
56,176,46686,5,0,0:0:0:0:
96,272,47121,1,8,0:0:0:0:
196,296,47555,2,0,P|256:272|296:204,1,130,0|8,0:0|0:0,0:0:0:0:
396,200,48425,2,0,L|464:320,2,130,0|8|0,0:0|0:0|0:0,0:0:0:0:
352,104,49729,1,8,0:0:0:0:
396,200,50164,6,0,P|332:204|276:172,1,130,0|8,0:0|0:0,0:0:0:0:
248,72,51034,1,0,0:0:0:0:
144,84,51468,2,0,P|108:136|112:208,2,130,8|0|8,0:0|0:0|0:0,0:0:0:0:
208,168,52773,2,0,L|232:232,2,65,0|2|8,0:0|2:0|0:0,0:0:0:0:
248,72,53642,5,0,0:0:0:0:
320,148,54077,1,8,0:0:0:0:
420,124,54512,2,0,L|460:260,1,130,0|8,0:0|0:0,0:0:0:0:
388,328,55382,2,0,L|260:304,1,130,0|8,0:0|2:1,0:0:0:0:
308,212,56251,2,0,P|244:204|184:236,1,130,2|0,0:0|0:0,0:0:0:0:
96,280,57121,1,4,0:0:0:0:
80,148,57773,6,0,P|132:140|188:104,1,110.50000210762,2|0,0:0|0:0,0:0:0:0:
212,80,58425,2,0,L|264:184,1,110.50000210762,0|2,0:0|0:0,0:0:0:0:
392,204,59512,2,0,P|369:280|295:311,1,165.75000316143
220,264,60599,6,0,L|44:300,2,165.75000316143,2|0|0,0:0|0:0|0:0,0:0:0:0:
192,180,62338,2,0,P|156:132|192:32,2,165.75000316143,2|0|0,0:0|0:0|0:0,0:0:0:0:
268,224,64077,6,0,P|328:168|228:112,1,221.000004215241,2|0,0:0|0:0,0:0:0:0:
192,180,65382,2,0,P|184:240|204:284,1,110.50000210762,0|2,0:0|0:0,0:0:0:0:
324,340,66468,2,0,P|400:324|448:248,1,165.75000316143
376,204,67555,6,0,B|364:160|336:136|336:136|348:88|328:48,2,165.75000316143,2|0|0,0:0|0:0|0:0,0:0:0:0:
312,264,69295,2,0,B|268:252|244:224|244:224|196:236|156:216,2,165.75000316143,2|0|0,0:0|0:0|0:0,0:0:0:0:
332,160,71034,6,0,P|352:96|328:28,1,130,4|8,0:0|0:1,0:0:0:0:
248,96,71903,2,0,P|176:104|112:92,1,130,0|8,0:0|0:1,0:0:0:0:
72,188,72773,2,0,L|132:308,1,130,0|8,0:0|0:1,0:0:0:0:
232,332,73642,6,0,P|232:260|272:212,1,130,0|8,0:0|0:1,0:0:0:0:
324,300,74512,2,0,P|388:316|456:304,1,130,0|8,0:0|0:1,0:0:0:0:
476,260,75164,2,0,P|498:211|400:148,1,195,0|8,0:0|0:1,0:0:0:0:
300,124,76251,2,0,P|296:168|324:216,2,97.5
284,76,77121,2,0,P|224:52|160:76,1,130,2|8,0:0|0:1,0:0:0:0:
100,152,77990,6,0,P|96:224|208:296,2,195,2|0|8,0:0|0:0|0:1,0:0:0:0:
196,192,79729,2,0,P|264:188|404:204,2,195,2|0|8,0:0|0:0|0:1,0:0:0:0:
256,192,81468,12,4,83208,0:0:0:0:
256,304,84947,6,0,L|256:168,1,130,4|8,0:0|0:0,0:0:0:0:
168,116,85816,2,0,B|112:152|112:152|36:152,1,130
76,252,86686,2,0,L|4:252,2,65,0|2|0,0:0|2:0|0:0,0:0:0:0:
160,312,87555,2,0,P|235:295|271:239,1,130
364,296,88425,5,0,0:0:0:0:
456,248,88860,2,0,L|436:112,1,130,8|0,0:0|0:0,0:0:0:0:
344,76,89729,2,0,L|352:160,1,65,0|2,0:0|2:0,0:0:0:0:
328,188,90164,2,0,P|264:212|200:184,1,130
136,116,91034,2,0,P|108:172|128:260,2,130
232,72,92338,5,8,0:0:0:0:
296,156,92773,2,0,L|424:176,1,130
456,276,93642,2,0,L|476:352,2,65,0|2|0,0:0|2:0|0:0,0:0:0:0:
356,312,94512,1,0,0:0:0:0:
252,312,94947,2,0,P|192:280|128:288,2,130,0|0|8,0:0|0:0|0:0,0:0:0:0:
308,224,96251,6,0,L|328:84,1,130
244,32,97121,1,4,2:0:0:0:
120,280,98860,6,0,P|80:240|76:152,1,130,4|2,0:0|0:2,0:0:0:0:
180,188,99729,1,0,0:0:0:0:
248,108,100164,2,0,P|284:152|280:232,2,130,2|0|2,0:2|0:0|0:2,0:0:0:0:
348,84,101468,2,0,L|484:116,1,130,0|2,0:0|0:2,0:0:0:0:
492,216,102338,5,0,0:0:0:0:
448,312,102773,1,2,0:2:0:0:
348,292,103208,2,0,L|212:260,1,130,0|2,0:0|0:2,0:0:0:0:
128,308,104077,2,0,P|116:248|148:184,1,130,0|2,0:0|0:2,0:0:0:0:
244,152,104947,2,0,P|204:100|140:80,2,130,0|2|0,0:0|0:2|0:0,0:0:0:0:
332,204,106251,6,0,P|396:204|452:160,1,130,2|0,0:2|0:0,0:0:0:0:
364,104,107121,1,2,0:2:0:0:
268,144,107555,2,0,P|244:200|268:264,2,130,0|2|0,0:0|0:2|0:0,0:0:0:0:
200,64,108860,1,2,0:2:0:0:
148,156,109295,6,0,L|16:176,1,130,0|2,0:0|0:2,0:0:0:0:
20,280,110164,2,0,L|152:300,1,130,0|2,0:0|0:2,0:0:0:0:
252,312,111034,2,0,P|320:312|372:268,1,130,0|2,0:0|0:2,0:0:0:0:
284,212,111903,2,0,L|300:140,2,65,0|2|2,0:0|2:0|0:2,0:0:0:0:
192,160,112773,6,0,P|144:140|60:168,2,130,4|8|0,0:0|0:0|0:0,0:0:0:0:
256,80,114077,1,8,0:0:0:0:
320,160,114512,2,0,P|368:140|452:168,1,130,0|8,0:0|0:0,0:0:0:0:
384,244,115382,2,0,L|396:320,2,65,0|2|8,0:0|2:0|0:0,0:0:0:0:
284,274,116251,6,0,P|281:210|320:160,1,130,0|8,0:0|0:0,0:0:0:0:
252,80,117121,2,0,P|188:72|112:56,1,130,0|8,0:0|0:0,0:0:0:0:
136,164,117990,2,0,P|68:184|4:192,2,130,0|8|0,0:0|0:0|0:0,0:0:0:0:
212,236,119295,1,8,0:0:0:0:
176,332,119729,6,0,P|244:332|296:288,2,130,0|8|0,0:0|0:0|0:0,0:0:0:0:
212,236,121034,1,8,0:0:0:0:
256,144,121468,2,0,L|380:88,1,130,0|8,0:0|0:0,0:0:0:0:
408,188,122338,1,0,0:0:0:0:
444,284,122773,1,8,0:0:0:0:
340,264,123208,6,0,P|312:220|316:144,2,130,0|8|0,0:0|0:0|0:0,0:0:0:0:
256,324,124512,1,8,0:0:0:0:
172,264,124947,2,0,P|200:220|196:144,2,130,4|0|0,0:2|0:0|0:0,0:0:0:0:
172,264,126686,6,0,P|52:216|48:96,1,260,4|0,0:0|0:0,0:0:0:0:
148,72,127990,1,8,0:0:0:0:
228,140,128425,2,0,P|312:164|400:96,2,195,0|0|8,0:0|0:0|0:0,0:0:0:0:
300,64,130164,6,0,L|332:260,2,195,0|0|8,0:0|0:0|0:0,0:0:0:0:
196,60,131903,2,0,P|160:112|92:128,1,130,0|8,0:0|0:0,0:0:0:0:
48,116,132555,2,0,P|56:208|76:328,1,195,0|8,0:0|0:0,0:0:0:0:
176,328,133642,6,0,P|232:328|312:336,1,130,4|8,0:2|0:0,0:0:0:0:
388,272,134512,2,0,P|432:264|460:256,2,65,0|0|8,0:0|0:0|0:0,0:0:0:0:
324,188,135382,2,0,B|356:108|356:108|396:68|464:92,2,195,0|0|8,0:0|0:0|0:0,0:0:0:0:
260,272,137121,6,0,P|224:224|224:148,1,130,0|8,0:0|0:0,0:0:0:0:
232,104,137773,2,0,L|32:128,1,195,0|8,0:0|0:0,0:0:0:0:
16,228,138860,2,0,P|48:304|164:308,2,195,0|0|8,0:0|0:0|0:0,0:0:0:0:
32,180,140382,1,0,0:0:0:0:
72,148,140599,6,0,L|204:104,1,130,4|4,0:0|0:2,0:0:0:0:
256,192,141468,2,0,L|256:268,2,65,0|0|8,0:0|0:0|0:0,0:0:0:0:
316,106,142338,2,0,L|440:148,1,130,0|8,0:0|0:0,0:0:0:0:
468,192,142990,2,0,P|448:280|352:312,1,195,0|8,0:0|0:0,0:0:0:0:
252,308,144077,6,0,B|196:320|160:288|160:288|112:296|72:256,2,195,0|0|8,0:0|0:0|0:0,0:0:0:0:
232,204,145816,2,0,P|260:168|240:72,1,130,0|8,0:0|0:0,0:0:0:0:
228,40,146468,2,0,L|420:76,1,195,0|8,0:0|0:0,0:0:0:0:
460,171,147555,1,4,0:0:0:0:
427,269,147990,1,8,0:0:0:0:
323,261,148425,6,0,L|254:293,2,65,0|0|8,0:0|0:0|0:0,0:0:0:0:
336,156,149295,2,0,P|256:104|180:152,2,195,0|0|8,0:0|0:0|0:0,0:0:0:0:
256,224,151034,2,0,L|256:360,1,130,0|8,0:0|0:0,0:0:0:0:
256,192,151686,12,4,154512,0:0:0:0:
356,256,155382,6,0,B|296:264|256:300|256:300|212:264|152:252,1,221.000004215241
128,220,156468,2,0,P|120:152|144:104,1,110.50000210762,2|0,2:0|0:0,0:0:0:0:
216,76,157338,1,0,0:0:0:0:
292,124,157773,1,0,0:0:0:0:
292,124,157990,6,0,P|368:144|448:84,2,165.75000316143
240,196,159729,2,0,P|161:215|93:172,2,165.75000316143,4|4|0,0:2|0:2|0:0,0:0:0:0:
320,232,161468,6,0,P|352:280|360:336,2,110.50000210762
244,280,162773,2,0,L|112:300,1,110.50000210762
92,280,163425,2,0,P|60:224|72:168,1,110.50000210762,2|0,2:0|0:0,0:0:0:0:
156,180,164295,2,0,P|208:156|236:88,1,110.50000210762,0|0,0:0|0:0,0:0:0:0:
244,68,164947,6,0,B|294:63|317:92|339:122|400:114,2,165.75000316143,0|2|0,0:0|2:0|0:0,0:0:0:0:
200,144,166686,2,0,B|149:148|126:119|104:89|43:97,2,165.75000316143,4|4|8,0:2|0:2|0:0,0:0:0:0:
292,196,168425,1,4,0:0:0:0:
336,104,168860,6,0,P|408:96|472:92,2,130,8|0|8,0:0|0:0|0:0,0:0:0:0:
256,36,170164,1,0,0:0:0:0:
176,104,170599,2,0,P|104:96|40:92,2,130,8|0|8,0:0|0:0|0:0,0:0:0:0:
152,204,171903,6,0,P|228:276|308:256,2,195,0|2|8,0:0|2:0|0:0,0:0:0:0:
252,168,173642,2,0,P|300:144|412:220,2,195,4|4|8,0:2|0:2|0:0,0:0:0:0:
192,80,175382,6,0,B|168:64|136:64|104:76|88:128|88:128|76:184|108:224|140:256|140:256|188:292|208:352,1,390,4|8,0:2|0:0,0:0:0:0:
308,341,177121,2,0,B|325:291|373:255|373:255|405:223|437:183|425:127|425:127|409:75|377:63|345:63|321:79,1,390,4|8,0:2|0:0,0:0:0:0:
320,184,178860,2,0,P|256:196|184:180,1,130,4|8,0:2|0:0,0:0:0:0:
256,192,179512,12,4,182338,0:0:0:0:
