osu file format v13

[General]
AudioFilename: ~1.mp3
AudioLeadIn: 0
PreviewTime: 62128
Countdown: 0
SampleSet: None
StackLeniency: 0.7
Mode: 0
LetterboxInBreaks: 1
WidescreenStoryboard: 1

[Editor]
Bookmarks: 67415,130981,199833
DistanceSpacing: 2
BeatDivisor: 4
GridSize: 4
TimelineZoom: 1

[Metadata]
Title:Kodoku Tsuki
TitleUnicode:孤独月
Artist:senya
ArtistUnicode:senya
Creator:Number5
Version:Lunatic Collab
Source:Touhou
Tags:u.n. owen was her? Yuuhei Satellite Flandre Scarlet 幽閉サテライト 森永真由美 ItItS
BeatmapID:437205
BeatmapSetID:171607

[Difficulty]
HPDrainRate:6
CircleSize:4
OverallDifficulty:7
ApproachRate:8
SliderMultiplier:1.8
SliderTickRate:1

[Events]
//Background and Video events
0,0,"a5d2c32235ec9fbeb26691d9e6e412a3.jpg",0,0
//Break Periods
2,176426,181378
//Storyboard Layer 0 (Background)
//Storyboard Layer 1 (Fail)
//Storyboard Layer 2 (Pass)
//Storyboard Layer 3 (Foreground)
//Storyboard Sound Samples
//Background Colour Transformations
3,100,163,162,255

[TimingPoints]
1145,491.803278688525,4,3,1,50,1,0
9013,-100,4,3,1,50,0,1
24751,-75.0000187500047,4,3,1,35,0,0
31636,-75.0000187500047,4,3,1,40,0,0
66063,-100,4,3,1,50,0,1
97538,-149.253731343284,4,3,1,40,0,0
130981,-100,4,3,1,50,0,1
137251,-100,4,3,1,5,0,1
137374,-100,4,3,1,50,0,1
137743,-100,4,3,1,5,0,1
137866,-100,4,3,1,50,0,1
138235,-100,4,3,1,5,0,1
138358,-100,4,3,1,50,0,1
145120,-100,4,3,1,5,0,1
145243,-100,4,3,1,50,0,1
145612,-100,4,3,1,5,0,1
145735,-100,4,3,1,50,0,1
146104,-100,4,3,1,5,0,1
146226,-100,4,3,1,50,0,1
146718,-133.333333333333,4,3,1,50,0,0
176226,-149.253731343284,4,3,1,30,0,0
184095,-149.253731343284,4,3,1,35,0,0
190981,-149.253731343284,4,3,1,30,0,0
191718,-149.253731343284,4,3,1,20,0,0
191964,-100,4,3,1,50,0,1
206104,-100,4,3,1,5,0,1
206226,-100,4,3,1,50,0,1
206595,-100,4,3,1,5,0,1
206718,-100,4,3,1,50,0,1
207087,-100,4,3,1,5,0,1
207210,-100,4,3,1,50,0,1
207702,-149.253731343284,4,3,1,50,0,0
215571,-149.253731343284,4,3,0,35,0,0
219505,-149.253731343284,4,3,1,50,0,0
221841,-149.253731343284,4,3,1,5,0,0
221964,-149.253731343284,4,3,1,50,0,0
222333,-149.253731343284,4,3,1,5,0,0
222456,-149.253731343284,4,3,1,50,0,0
222825,-149.253731343284,4,3,1,5,0,0
222948,-149.253731343284,4,3,1,50,0,0
223440,-149.253731343284,4,3,1,30,0,0

[Colours]
Combo1 : 255,0,0
Combo2 : 0,0,255
Combo3 : 255,255,0
Combo4 : 255,128,0

[HitObjects]
464,140,7046,6,0,P|480:244|416:292,1,180,2|8,0:0|0:0,0:0:0:0:
240,232,8030,2,0,L|272:232,2,22.5,2|2|2,0:0|0:0|0:0,0:0:0:0:
184,240,8276,1,2,0:0:0:0:
184,240,8399,1,2,0:0:0:0:
184,240,8522,1,2,0:0:0:0:
60,224,8767,2,0,L|48:164,1,45,2|2,0:0|0:0,0:0:0:0:
40,120,9013,5,6,0:0:0:0:
128,80,9259,1,0,0:0:0:0:
216,48,9505,2,0,L|248:152,1,90,8|0,0:0|0:0,0:0:0:0:
472,264,9997,5,2,0:0:0:0:
384,304,10243,1,0,0:0:0:0:
296,336,10489,2,0,L|264:232,1,90,8|0,0:0|0:0,0:0:0:0:
108,240,10981,5,2,0:0:0:0:
300,148,11226,1,0,0:0:0:0:
156,96,11472,1,8,0:0:0:0:
252,288,11718,1,0,0:0:0:0:
252,288,11964,6,0,L|340:320,1,90,2|0,0:0|0:0,0:0:0:0:
188,188,12456,2,0,L|100:156,1,90,8|0,0:0|0:0,0:0:0:0:
316,120,12948,6,0,L|268:28,1,90,2|0,0:0|0:0,0:0:0:0:
344,200,13440,1,8,0:0:0:0:
372,280,13685,1,0,0:0:0:0:
460,276,13931,5,2,0:0:0:0:
424,168,14177,1,0,0:0:0:0:
424,168,14300,1,0,0:0:0:0:
424,168,14423,2,0,L|382:88,1,90,8|0,0:0|0:0,0:0:0:0:
228,36,14915,5,6,0:0:0:0:
256,208,15161,1,0,0:0:0:0:
84,320,15407,1,12,0:0:0:0:
256,208,15653,1,0,0:0:0:0:
424,320,15899,1,6,0:0:0:0:
256,208,16145,1,0,0:0:0:0:
282,213,16267,1,8,0:0:0:0:
309,213,16390,1,8,0:0:0:0:
335,209,16513,1,0,0:0:0:0:
361,199,16636,1,8,0:0:0:0:
384,185,16759,1,0,0:0:0:0:
400,164,16882,6,0,P|408:120|400:64,1,90,2|2,0:0|0:0,0:0:0:0:
286,124,17374,2,0,P|278:188|298:248,1,90,8|8,0:0|0:0,0:0:0:0:
296,248,17743,1,0,0:0:0:0:
304,284,17866,2,0,P|264:260|224:268,1,90,2|2,0:0|0:0,0:0:0:0:
376,328,18358,2,0,P|422:307|460:268,1,90,8|0,0:0|0:0,0:0:0:0:
468,128,18849,6,0,L|324:108,1,135,2|0,0:0|0:0,0:0:0:0:
308,96,19341,1,8,0:0:0:0:
160,192,19587,1,8,0:0:0:0:
188,188,19710,1,8,0:0:0:0:
216,184,19833,2,0,P|252:224|244:272,1,90,2|2,0:0|0:0,0:0:0:0:
76,244,20325,2,0,L|104:124,1,90,8|8,0:0|0:0,0:0:0:0:
120,40,20817,5,2,0:0:0:0:
212,160,21063,1,0,0:0:0:0:
212,160,21185,1,0,0:0:0:0:
212,160,21308,2,0,P|264:144|332:148,1,90,8|2,0:0|0:0,0:0:0:0:
428,72,21800,2,0,L|408:168,1,90,2|0,0:0|0:0,0:0:0:0:
392,168,22169,1,8,0:0:0:0:
376,176,22292,2,0,L|352:296,1,90,8|8,0:0|0:0,0:0:0:0:
60,192,22784,5,2,0:0:0:0:
76,172,22907,1,2,0:0:0:0:
96,156,23030,1,2,0:0:0:0:
120,144,23153,1,2,0:0:0:0:
148,136,23276,2,0,P|204:136|252:160,1,90,4|0,0:0|0:0,0:0:0:0:
172,328,23767,1,0,0:0:0:0:
172,328,23890,1,0,0:0:0:0:
172,328,24013,2,0,L|180:200,1,90,0|4,0:0|0:0,0:0:0:0:
256,72,24505,1,4,0:0:0:0:
416,136,24751,6,0,P|408:208|364:236,1,119.999975585942,2|0,0:0|0:0,0:0:0:0:
276,144,25243,2,0,B|252:136|252:136|148:140,1,119.999975585942,8|0,0:0|0:0,0:0:0:0:
56,292,25735,1,2,0:0:0:0:
56,292,25858,1,0,0:0:0:0:
56,292,25981,1,0,0:0:0:0:
56,292,26104,1,0,0:0:0:0:
56,292,26226,2,0,P|108:248|164:248,1,119.999975585942,8|0,0:0|0:0,0:0:0:0:
356,316,26718,6,0,P|392:268|372:212,1,119.999975585942,2|0,0:0|0:0,0:0:0:0:
284,92,27210,2,0,L|416:104,1,119.999975585942,8|0,0:0|0:0,0:0:0:0:
224,176,27702,1,4,0:0:0:0:
192,172,27825,2,0,L|128:164,1,59.9999877929712
100,172,28071,1,0,0:0:0:0:
72,184,28194,2,0,P|52:256|88:284,1,119.999975585942,12|0,0:0|0:0,0:0:0:0:
376,300,28685,6,0,P|376:236|316:204,1,119.999975585942,2|0,0:0|0:0,0:0:0:0:
160,276,29177,2,0,P|248:292|308:284,1,119.999975585942,8|0,0:0|0:0,0:0:0:0:
444,172,29669,2,0,B|444:144|444:144|360:144|332:192,1,119.999975585942,2|0,0:0|0:0,0:0:0:0:
224,200,30161,1,8,0:0:0:0:
128,76,30407,1,0,0:0:0:0:
128,76,30530,1,0,0:0:0:0:
128,76,30653,2,0,P|124:140|96:196,1,119.999975585942,4|0,0:0|0:0,0:0:0:0:
224,112,31145,1,0,0:0:0:0:
40,132,31390,1,4,0:0:0:0:
372,116,31636,2,0,L|376:160,2,29.9999938964856,4|0|0,0:0|0:0|0:0,0:0:0:0:
372,116,31882,1,0,0:0:0:0:
372,116,32005,1,0,0:0:0:0:
372,116,32128,2,0,P|312:96|228:108,1,119.999975585942,4|0,0:0|0:0,0:0:0:0:
240,124,32497,1,0,0:0:0:0:
224,152,32620,6,0,P|160:148|92:128,1,119.999975585942,6|0,0:0|0:0,0:0:0:0:
316,64,33112,2,0,L|296:224,1,119.999975585942,8|0,0:0|0:0,0:0:0:0:
204,328,33604,2,0,P|160:280|208:188,1,179.999963378914,2|0,0:0|0:0,0:0:0:0:
206,188,34095,2,0,L|346:184,1,119.999975585942,8|0,0:0|0:0,0:0:0:0:
436,180,34587,6,0,P|448:112|344:96,1,179.999963378914,2|0,0:0|0:0,0:0:0:0:
357,84,35079,2,0,L|229:56,1,119.999975585942,8|0,0:0|0:0,0:0:0:0:
268,216,35571,2,0,P|268:288|244:352,1,119.999975585942,2|0,0:0|0:0,0:0:0:0:
253,333,35940,1,0,0:0:0:0:
253,333,36063,1,8,0:0:0:0:
248,120,36308,1,0,0:0:0:0:
470,148,36554,6,0,B|390:160|372:146|362:132|362:132|342:148|342:148|310:116|238:120,1,239.999951171885,2|8,0:0|0:0,0:0:0:0:
132,228,37292,1,0,0:0:0:0:
148,232,37415,1,0,0:0:0:0:
164,236,37538,2,0,P|204:188|196:104,1,119.999975585942,2|0,0:0|0:0,0:0:0:0:
8,140,38030,2,0,P|39:151|128:156,1,119.999975585942,8|0,0:0|0:0,0:0:0:0:
125,156,38399,1,0,0:0:0:0:
125,156,38522,2,0,P|128:72|128:28,1,119.999975585942,4|0,0:0|0:0,0:0:0:0:
276,144,39013,5,4,0:0:0:0:
284,152,39136,2,0,P|272:216|212:228,1,119.999975585942
212,208,39505,2,0,L|184:336,1,119.999975585942,4|0,0:0|0:0,0:0:0:0:
44,156,39997,2,0,P|108:136|172:160,1,119.999975585942,4|0,0:0|0:0,0:0:0:0:
272,304,40489,6,0,P|332:308|392:256,1,119.999975585942,6|0,0:0|0:0,0:0:0:0:
440,76,40981,2,0,L|316:144,1,119.999975585942,8|0,0:0|0:0,0:0:0:0:
320,136,41349,1,0,0:0:0:0:
308,136,41472,2,0,P|240:144|208:248,1,179.999963378914,2|0,0:0|0:0,0:0:0:0:
212,224,41964,2,0,L|68:216,1,119.999975585942,8|0,0:0|0:0,0:0:0:0:
248,56,42456,6,0,L|264:196,1,119.999975585942,2|0,0:0|0:0,0:0:0:0:
261,175,42825,1,0,0:0:0:0:
261,175,42948,1,8,0:0:0:0:
360,288,43194,1,0,0:0:0:0:
480,144,43440,2,0,L|348:128,1,119.999975585942,2|0,0:0|0:0,0:0:0:0:
360,129,43808,1,0,0:0:0:0:
360,129,43931,2,0,P|336:196|368:264,1,119.999975585942,8|0,0:0|0:0,0:0:0:0:
440,104,44423,6,0,P|408:56|272:148,1,239.999951171885,2|8,0:0|0:0,0:0:0:0:
144,224,45161,1,0,0:0:0:0:
144,224,45284,1,0,0:0:0:0:
144,224,45407,2,0,P|240:216|276:216,1,119.999975585942,2|0,0:0|0:0,0:0:0:0:
416,296,45899,2,0,P|332:296|300:236,1,119.999975585942,8|0,0:0|0:0,0:0:0:0:
384,92,46390,6,0,P|372:176|336:208,1,119.999975585942,4|4,0:0|0:0,0:0:0:0:
280,144,46882,1,0,0:0:0:0:
280,144,47005,1,4,0:0:0:0:
212,232,47251,1,0,0:0:0:0:
212,232,47374,1,4,0:0:0:0:
380,200,47620,1,0,0:0:0:0:
380,200,47743,1,0,0:0:0:0:
380,200,47866,2,0,P|404:128|364:88,1,119.999975585942,4|0,0:0|0:0,0:0:0:0:
381,97,48235,1,0,0:0:0:0:
381,97,48358,2,0,L|240:80,1,119.999975585942,6|0,0:0|0:0,0:0:0:0:
144,144,48849,6,0,P|192:180|260:144,1,119.999975585942,8|0,0:0|0:0,0:0:0:0:
84,60,49341,1,2,0:0:0:0:
60,248,49587,2,0,L|184:212,1,119.999975585942,0|8,0:0|0:0,0:0:0:0:
312,148,50079,1,0,0:0:0:0:
312,148,50202,1,0,0:0:0:0:
312,148,50325,2,0,P|280:204|216:204,1,119.999975585942,2|0,0:0|0:0,0:0:0:0:
276,56,50817,1,8,0:0:0:0:
408,136,51063,1,0,0:0:0:0:
388,328,51308,6,0,P|376:256|392:196,1,119.999975585942,2|0,0:0|0:0,0:0:0:0:
176,140,51800,2,0,P|212:200|220:280,1,119.999975585942,8|0,0:0|0:0,0:0:0:0:
221,248,52169,1,0,0:0:0:0:
221,248,52292,2,0,B|176:268|176:268|148:268|148:268|76:308,2,119.999975585942,2|0|8,0:0|0:0|0:0,0:0:0:0:
304,84,53030,5,0,0:0:0:0:
304,84,53153,1,0,0:0:0:0:
304,84,53276,2,0,P|324:144|304:212,1,119.999975585942,2|0,0:0|0:0,0:0:0:0:
180,152,53767,1,8,0:0:0:0:
412,144,54013,1,0,0:0:0:0:
412,144,54136,1,0,0:0:0:0:
412,144,54259,2,0,P|380:236|388:296,1,119.999975585942,2|0,0:0|0:0,0:0:0:0:
472,64,54751,2,0,L|316:36,1,119.999975585942,8|0,0:0|0:0,0:0:0:0:
148,124,55243,2,0,P|172:240|296:188,1,239.999951171885,2|8,0:0|0:0,0:0:0:0:
232,64,55981,1,0,0:0:0:0:
128,200,56226,6,0,L|4:228,1,119.999975585942,2|0,0:0|0:0,0:0:0:0:
296,124,56718,2,0,P|352:84|348:216,1,239.999951171885,8|2,0:0|0:0,0:0:0:0:
216,192,57456,1,0,0:0:0:0:
172,68,57702,1,8,0:0:0:0:
132,280,57948,1,0,0:0:0:0:
132,280,58071,1,0,0:0:0:0:
132,280,58194,2,0,P|196:260|292:292,1,119.999975585942,2|0,0:0|0:0,0:0:0:0:
360,316,58685,1,8,0:0:0:0:
412,144,58931,1,0,0:0:0:0:
412,144,59054,1,0,0:0:0:0:
412,144,59177,2,0,L|284:136,1,119.999975585942,2|0,0:0|0:0,0:0:0:0:
120,160,59669,2,0,P|160:220|212:208,1,119.999975585942,8|0,0:0|0:0,0:0:0:0:
360,48,60161,6,0,P|376:160|356:252,2,179.999963378914,6|4|4,0:0|0:0|0:0,0:0:0:0:
176,120,61145,2,0,L|328:152,1,119.999975585942,2|0,0:0|0:0,0:0:0:0:
480,204,61636,2,0,L|352:240,1,119.999975585942,6|0,0:0|0:0,0:0:0:0:
364,236,62005,1,0,0:0:0:0:
364,236,62128,2,0,P|304:204|248:236,1,119.999975585942,6|0,0:0|0:0,0:0:0:0:
184,320,62620,2,0,L|320:300,1,119.999975585942,6|0,0:0|0:0,0:0:0:0:
444,284,63112,5,6,0:0:0:0:
457,250,63235,1,0,0:0:0:0:
461,214,63358,1,2,0:0:0:0:
458,178,63481,1,0,0:0:0:0:
444,144,63604,1,14,0:0:0:0:
423,114,63726,1,0,0:0:0:0:
393,92,63849,1,8,0:0:0:0:
359,79,63972,1,0,0:0:0:0:
323,75,64095,2,0,P|256:104|172:86,2,119.999975585942,2|2|8,0:0|0:0|0:0,0:0:0:0:
164,30,64833,5,2,0:0:0:0:
164,30,64956,1,2,0:0:0:0:
165,231,65202,1,2,0:0:0:0:
165,231,65325,1,2,0:0:0:0:
372,144,65571,1,8,0:0:0:0:
215,164,65817,1,2,0:0:0:0:
372,144,66063,6,0,P|448:120|476:80,1,90,2|0,0:0|0:0,0:0:0:0:
215,164,66554,2,0,P|243:224|223:276,1,90,8|0,0:0|0:0,0:0:0:0:
384,232,67046,1,2,0:0:0:0:
168,40,67292,1,0,0:0:0:0:
164,232,67538,1,8,0:0:0:0:
372,36,67784,1,0,0:0:0:0:
160,120,68030,6,0,B|216:120|240:72|240:72|328:72,1,180,2|8,0:0|0:0,0:0:0:0:
168,40,68767,1,0,0:0:0:0:
164,232,69013,2,0,P|224:264|288:180,1,180,2|8,0:0|0:0,0:0:0:0:
332,128,69751,1,0,0:0:0:0:
344,52,69997,6,0,P|392:80|404:132,1,90,2|0,0:0|0:0,0:0:0:0:
260,152,70489,2,0,P|260:96|299:60,1,90,8|0,0:0|0:0,0:0:0:0:
392,176,70981,2,0,P|343:203|292:187,1,90,2|0,0:0|0:0,0:0:0:0:
320,164,71349,1,0,0:0:0:0:
328,128,71472,5,8,0:0:0:0:
148,200,71718,1,0,0:0:0:0:
148,200,71964,6,0,P|128:140|88:104,1,90,6|0,0:0|0:0,0:0:0:0:
276,260,72456,2,0,P|312:320|352:324,1,90,12|0,0:0|0:0,0:0:0:0:
356,332,72948,6,0,L|412:328,1,45,6|0,0:0|0:0,0:0:0:0:
504,284,73194,2,0,L|452:292,1,45,0|8,0:0|0:0,0:0:0:0:
433,266,73440,1,12,0:0:0:0:
449,234,73563,1,0,0:0:0:0:
471,205,73686,1,8,0:0:0:0:
500,185,73809,1,0,0:0:0:0:
492,144,73931,6,0,B|456:96|416:96|372:128|372:128|304:136,1,180,2|8,0:0|0:0,0:0:0:0:
428,176,74669,1,0,0:0:0:0:
356,200,74915,6,0,P|348:272|320:296,1,90,2|0,0:0|0:0,0:0:0:0:
207,230,75407,2,0,P|249:244|292:232,1,90,8|0,0:0|0:0,0:0:0:0:
116,276,75899,6,0,P|72:228|100:156,1,135
88,165,76390,1,8,0:0:0:0:
140,212,76636,1,0,0:0:0:0:
140,212,76882,6,0,L|236:212,1,90,2|0,0:0|0:0,0:0:0:0:
300,288,77374,2,0,L|204:288,1,90,8|0,0:0|0:0,0:0:0:0:
292,204,77866,5,2,0:0:0:0:
292,204,78358,1,8,0:0:0:0:
432,180,78604,1,0,0:0:0:0:
368,224,78849,6,0,P|412:256|472:244,2,90,2|0|8,0:0|0:0|0:0,0:0:0:0:
192,172,79587,1,0,0:0:0:0:
264,56,79833,5,6,0:0:0:0:
208,312,80079,1,0,0:0:0:0:
264,56,80325,1,12,0:0:0:0:
420,252,80571,1,0,0:0:0:0:
264,56,80817,1,6,0:0:0:0:
492,56,81063,1,0,0:0:0:0:
264,56,81308,1,12,0:0:0:0:
56,200,81554,1,0,0:0:0:0:
56,200,81677,1,0,0:0:0:0:
56,200,81800,6,0,P|120:216|156:196,1,90,2|0,0:0|0:0,0:0:0:0:
140,40,82292,1,8,0:0:0:0:
268,240,82538,1,0,0:0:0:0:
332,84,82784,6,0,B|320:124|272:132|272:132|272:160,1,90,2|0,0:0|0:0,0:0:0:0:
336,184,83276,2,0,B|360:172|372:156|372:156|432:156,1,90,8|0,0:0|0:0,0:0:0:0:
400,256,83767,6,0,P|356:316|300:328,1,135,2|0,0:0|0:0,0:0:0:0:
299,327,84259,1,8,0:0:0:0:
180,168,84505,1,0,0:0:0:0:
316,252,84751,5,2,0:0:0:0:
316,252,85243,2,0,P|356:196|348:152,1,90
316,56,85735,5,2,0:0:0:0:
100,128,85981,1,0,0:0:0:0:
324,52,86226,1,8,0:0:0:0:
92,132,86472,1,0,0:0:0:0:
328,48,86718,5,2,0:0:0:0:
84,136,86964,2,0,L|32:168,1,45
100,216,87210,2,0,L|8:268,2,90,8|0|4,0:0|0:0|0:0,0:0:0:0:
356,132,87948,5,0,0:0:0:0:
184,252,88194,1,4,0:0:0:0:
320,200,88440,1,0,0:0:0:0:
264,256,88685,5,6,0:0:0:0:
293,268,88807,1,0,0:0:0:0:
325,272,88930,1,0,0:0:0:0:
355,263,89053,1,8,0:0:0:0:
378,242,89176,1,12,0:0:0:0:
391,212,89299,1,0,0:0:0:0:
403,186,89422,1,8,0:0:0:0:
423,160,89545,1,8,0:0:0:0:
428,124,89669,6,0,P|364:60|356:60,1,90,2|0,0:0|0:0,0:0:0:0:
168,172,90161,2,0,P|232:236|240:236,1,90,8|0,0:0|0:0,0:0:0:0:
300,68,90653,2,0,P|364:132|372:132,1,90,2|0,0:0|0:0,0:0:0:0:
244,160,91145,2,0,P|180:96|172:96,1,90,2|0,0:0|0:0,0:0:0:0:
104,64,91636,6,0,B|80:152|80:152|96:216,1,135,2|0,0:0|0:0,0:0:0:0:
168,172,92128,2,0,P|164:232|128:264,1,90,8|0,0:0|0:0,0:0:0:0:
272,184,92620,5,2,0:0:0:0:
280,184,93112,1,8,0:0:0:0:
288,184,93604,6,0,L|384:184,1,90,2|0,0:0|0:0,0:0:0:0:
332,108,94095,2,0,L|236:108,1,90,8|0,0:0|0:0,0:0:0:0:
288,32,94587,2,0,L|400:32,1,90,2|0,0:0|0:0,0:0:0:0:
404,32,94956,1,0,0:0:0:0:
428,32,95079,2,0,L|428:148,2,90,8|0|6,0:0|0:0|0:0,0:0:0:0:
320,168,96063,1,12,0:0:0:0:
232,20,96554,1,6,0:0:0:0:
124,156,97046,1,12,0:0:0:0:
176,248,97538,6,0,B|264:252|312:264,2,120.599994295349,6|2|2,0:0|0:0|0:0,0:0:0:0:
128,144,99013,1,0,0:0:0:0:
192,64,99259,1,0,0:0:0:0:
296,56,99505,6,0,P|308:120|296:164,1,90.4499957215121,2|0,0:0|0:0,0:0:0:0:
292,200,99997,1,2,0:0:0:0:
420,256,100243,1,0,0:0:0:0:
480,136,100489,1,2,0:0:0:0:
296,56,100858,1,0,0:0:0:0:
296,56,100981,2,0,P|228:32|216:32,1,60.2999971476747,2|0,0:0|0:0,0:0:0:0:
120,144,101472,5,2,0:0:0:0:
56,184,101718,2,0,P|92:216|128:216,1,60.2999971476747,0|2,0:0|0:0,0:0:0:0:
168,208,102210,1,0,0:0:0:0:
168,208,102333,1,0,0:0:0:0:
168,208,102456,1,2,0:0:0:0:
248,152,102702,1,0,0:0:0:0:
256,244,102948,1,2,0:0:0:0:
336,192,103194,1,0,0:0:0:0:
336,192,103317,6,0,P|392:176|416:144,1,90.4499957215121
344,120,103931,1,2,0:0:0:0:
224,88,104177,1,0,0:0:0:0:
216,92,104300,1,0,0:0:0:0:
208,96,104423,1,2,0:0:0:0:
256,168,104669,1,0,0:0:0:0:
264,172,104792,1,0,0:0:0:0:
272,176,104915,1,2,0:0:0:0:
216,244,105161,1,2,0:0:0:0:
144,256,105407,6,0,P|172:304|240:312,2,120.599994295349,2|2|2,0:0|0:0|0:0,0:0:0:0:
72,144,106636,1,0,0:0:0:0:
204,140,106882,1,2,0:0:0:0:
332,176,107128,1,0,0:0:0:0:
332,176,107251,1,0,0:0:0:0:
332,176,107374,6,0,P|388:168|424:136,1,90.4499957215121,2|0,0:0|0:0,0:0:0:0:
380,84,107866,2,0,P|336:52|328:40,1,60.2999971476747,2|0,0:0|0:0,0:0:0:0:
240,44,108358,6,0,P|184:52|148:84,1,90.4499957215121,2|0,0:0|0:0,0:0:0:0:
192,136,108850,2,0,P|236:168|244:180,1,60.2999971476747,2|0,0:0|0:0,0:0:0:0:
292,248,109341,6,0,P|272:292|244:320,2,60.2999971476747,2|0|2,0:0|0:0|0:0,0:0:0:0:
352,188,110079,1,0,0:0:0:0:
352,188,110202,1,0,0:0:0:0:
352,188,110325,2,0,L|420:192,1,60.2999971476747,2|0,0:0|0:0,0:0:0:0:
392,264,110817,2,0,L|476:268,2,60.2999971476747,2|0|0,0:0|0:0|0:0,0:0:0:0:
280,284,111554,5,0,0:0:0:0:
280,288,111677,1,0,0:0:0:0:
280,292,111800,1,2,0:0:0:0:
188,258,112046,1,0,0:0:0:0:
184,260,112169,1,0,0:0:0:0:
181,262,112292,1,2,0:0:0:0:
164,166,112538,1,0,0:0:0:0:
160,164,112661,1,0,0:0:0:0:
157,162,112784,1,2,0:0:0:0:
232,100,113030,1,2,0:0:0:0:
232,96,113153,1,0,0:0:0:0:
232,92,113276,5,6,0:0:0:0:
232,84,113767,2,0,P|280:64|304:68,1,60.2999971476747,6|0,0:0|0:0,0:0:0:0:
324,176,114259,2,0,P|282:144|274:121,1,60.2999971476747,6|0,0:0|0:0,0:0:0:0:
360,48,114751,2,0,P|353:99|337:118,1,60.2999971476747,6|0,0:0|0:0,0:0:0:0:
148,156,115243,5,2,0:0:0:0:
348,260,115489,1,0,0:0:0:0:
352,48,115735,1,6,0:0:0:0:
356,264,115981,2,0,P|384:312|384:332,2,60.2999971476747,0|6|0,0:0|0:0|0:0,0:0:0:0:
148,156,116718,1,6,0:0:0:0:
364,268,116964,1,0,0:0:0:0:
140,152,117210,6,0,P|100:132|80:104,1,60.2999971476747,2|0,0:0|0:0,0:0:0:0:
192,260,117702,1,2,0:0:0:0:
232,120,117948,1,0,0:0:0:0:
288,228,118194,1,2,0:0:0:0:
324,88,118440,1,0,0:0:0:0:
388,196,118685,1,2,0:0:0:0:
416,60,118931,1,0,0:0:0:0:
480,164,119177,6,0,L|480:288,1,120.599994295349,2|2,0:0|0:0,0:0:0:0:
312,320,119915,1,0,0:0:0:0:
144,236,120161,2,0,P|136:176|140:152,1,60.2999971476747,2|0,0:0|0:0,0:0:0:0:
212,192,120653,2,0,P|216:148|224:128,1,60.2999971476747,2|0,0:0|0:0,0:0:0:0:
288,168,121145,6,0,P|360:144|416:160,1,120.599994295349,6|6,0:0|0:0,0:0:0:0:
312,288,122128,1,6,0:0:0:0:
232,296,122374,1,0,0:0:0:0:
152,304,122620,2,0,B|124:252|128:224|124:228,1,60.2999971476747,2|0,0:0|0:0,0:0:0:0:
124,220,122989,1,0,0:0:0:0:
128,196,123112,5,2,0:0:0:0:
136,176,123235,1,0,0:0:0:0:
144,156,123358,2,0,L|172:88,1,60.2999971476747,0|2,0:0|0:0,0:0:0:0:
236,116,123849,1,0,0:0:0:0:
288,240,124095,1,2,0:0:0:0:
328,96,124341,1,0,0:0:0:0:
384,220,124587,1,2,0:0:0:0:
416,76,124833,1,0,0:0:0:0:
476,204,125079,6,0,B|488:248|488:248|476:316,2,90.4499957215121,2|0|0,0:0|0:0|0:0,0:0:0:0:
416,76,126063,1,0,0:0:0:0:
268,44,126308,1,0,0:0:0:0:
428,80,126554,1,0,0:0:0:0:
256,40,126800,1,0,0:0:0:0:
436,84,127046,6,0,B|440:120|440:120|428:164,1,60.2999971476747,6|0,0:0|0:0,0:0:0:0:
360,136,127538,2,0,L|340:196,2,60.2999971476747,6|0|6,0:0|0:0|0:0,0:0:0:0:
272,112,128276,1,0,0:0:0:0:
160,152,128522,1,6,0:0:0:0:
320,120,128767,1,0,0:0:0:0:
96,104,129013,5,2,0:0:0:0:
90,120,129135,1,0,0:0:0:0:
85,136,129258,1,2,0:0:0:0:
80,153,129381,1,0,0:0:0:0:
76,169,129504,1,2,0:0:0:0:
81,186,129627,1,0,0:0:0:0:
85,202,129750,1,2,0:0:0:0:
90,219,129873,1,0,0:0:0:0:
149,288,129997,5,2,0:0:0:0:
154,272,130119,1,0,0:0:0:0:
160,256,130242,1,2,0:0:0:0:
165,239,130365,1,0,0:0:0:0:
169,223,130488,1,2,0:0:0:0:
164,206,130611,1,0,0:0:0:0:
160,189,130734,1,0,0:0:0:0:
155,173,130857,1,2,0:0:0:0:
146,157,130981,6,0,P|204:159|271:136,1,90,6|0,0:0|0:0,0:0:0:0:
396,66,131472,2,0,L|395:199,1,90,8|0,0:0|0:0,0:0:0:0:
445,314,131964,1,2,0:0:0:0:
335,216,132210,1,0,0:0:0:0:
460,170,132456,1,8,0:0:0:0:
362,307,132702,1,0,0:0:0:0:
260,171,132948,6,0,P|254:100|258:64,1,90,2|0,0:0|0:0,0:0:0:0:
267,68,133317,1,0,0:0:0:0:
279,54,133440,1,8,0:0:0:0:
400,96,133685,1,0,0:0:0:0:
479,243,133931,2,0,L|368:211,1,90,2|0,0:0|0:0,0:0:0:0:
220,144,134423,2,0,P|162:169|149:268,1,135,8|0,0:0|0:0,0:0:0:0:
148,247,134915,1,2,0:0:0:0:
275,286,135161,5,0,0:0:0:0:
148,247,135407,2,0,P|103:233|39:237,1,90,8|0,0:0|0:0,0:0:0:0:
125,78,135899,1,2,0:0:0:0:
222,172,136145,1,0,0:0:0:0:
231,182,136267,1,0,0:0:0:0:
238,190,136390,2,0,P|282:179|337:146,1,90,8|0,0:0|0:0,0:0:0:0:
468,64,136882,6,0,P|407:49|356:114,1,135,4|0,0:0|0:0,0:0:0:0:
384,118,137374,2,0,B|319:101|319:101|213:107,1,135,4|0,0:0|0:0,0:0:0:0:
208,77,137866,2,0,P|228:140|147:158,1,135,4|0,0:0|0:0,0:0:0:0:
144,175,138358,1,4,0:0:0:0:
70,57,138604,1,0,0:0:0:0:
64,232,138849,6,0,P|106:263|160:269,1,90,2|0,0:0|0:0,0:0:0:0:
241,149,139341,1,8,0:0:0:0:
255,311,139587,1,0,0:0:0:0:
364,176,139833,2,0,P|378:120|374:58,1,90,2|0,0:0|0:0,0:0:0:0:
152,134,140325,2,0,L|268:154,1,90,8|0,0:0|0:0,0:0:0:0:
437,138,140817,6,0,P|436:206|399:248,1,90,2|0,0:0|0:0,0:0:0:0:
412,235,141185,1,0,0:0:0:0:
397,245,141308,1,8,0:0:0:0:
264,241,141554,1,0,0:0:0:0:
69,197,141800,2,0,L|199:174,1,90,2|0,0:0|0:0,0:0:0:0:
321,62,142292,2,0,P|334:113|319:174,1,90,8|0,0:0|0:0,0:0:0:0:
188,311,142784,5,2,0:0:0:0:
188,311,143030,1,0,0:0:0:0:
188,311,143276,2,0,P|164:266|194:200,1,90,8|0,0:0|0:0,0:0:0:0:
280,185,143767,1,2,0:0:0:0:
318,318,144013,1,0,0:0:0:0:
318,318,144136,1,0,0:0:0:0:
318,318,144259,1,8,0:0:0:0:
342,137,144505,1,0,0:0:0:0:
169,265,144751,6,0,L|315:245,1,135,4|0,0:0|0:0,0:0:0:0:
337,239,145243,2,0,B|311:208|311:208|253:184|269:101,1,135,4|0,0:0|0:0,0:0:0:0:
297,117,145735,2,0,P|309:57|222:39,1,135,4|0,0:0|0:0,0:0:0:0:
221,37,146226,1,4,0:0:0:0:
198,223,146472,1,0,0:0:0:0:
154,116,146718,5,6,0:0:0:0:
44,136,146964,1,0,0:0:0:0:
198,223,147210,2,0,B|208:216|208:216|224:220|224:220|276:216,1,67.5000025749208,8|0,0:0|0:0,0:0:0:0:
304,280,147702,6,0,P|328:248|336:216,1,67.5000025749208,2|0,0:0|0:0,0:0:0:0:
336,208,148071,1,0,0:0:0:0:
336,196,148194,2,0,B|340:148|344:144|368:136,1,67.5000025749208,8|0,0:0|0:0,0:0:0:0:
424,164,148685,6,0,P|428:124|416:100,2,67.5000025749208,2|0|8,0:0|0:0|0:0,0:0:0:0:
408,256,149423,1,0,0:0:0:0:
412,264,149546,1,0,0:0:0:0:
416,272,149669,2,0,P|440:324|440:348,1,67.5000025749208,2|0,0:0|0:0,0:0:0:0:
360,316,150161,2,0,P|336:264|336:240,1,67.5000025749208,8|0,0:0|0:0,0:0:0:0:
284,208,150653,6,0,B|260:240|260:268|288:340,1,135.000005149842,2|8,0:0|0:0,0:0:0:0:
164,320,151390,1,0,0:0:0:0:
56,244,151636,2,0,L|64:192,1,33.7500012874604,2|0,0:0|0:0,0:0:0:0:
144,96,152005,2,0,L|136:136,1,33.7500012874604,0|8,0:0|0:0,0:0:0:0:
164,320,152374,2,0,L|216:336,1,33.7500012874604
228,328,152620,5,0,0:0:0:0:
245,320,152742,1,0,0:0:0:0:
263,312,152865,1,0,0:0:0:0:
280,303,152988,1,0,0:0:0:0:
295,291,153111,1,0,0:0:0:0:
305,275,153234,1,0,0:0:0:0:
309,256,153357,1,0,0:0:0:0:
306,237,153480,1,0,0:0:0:0:
300,216,153604,6,0,L|316:188,2,16.8750006437302,0|0|0,0:0|0:0|0:0,0:0:0:0:
284,200,153849,2,0,L|236:164,2,33.7500012874604,0|0|0,0:0|0:0|0:0,0:0:0:0:
196,244,154341,1,0,0:0:0:0:
180,256,154464,1,0,0:0:0:0:
160,268,154587,6,0,P|116:300|88:308,1,67.5000025749208,2|0,0:0|0:0,0:0:0:0:
100,184,154956,2,0,P|83:132|84:104,1,67.5000025749208
184,120,155325,2,0,P|238:120|266:130,1,67.5000025749208,0|2,0:0|0:0,0:0:0:0:
224,204,155694,2,0,P|207:256|189:279,1,67.5000025749208
132,204,156063,2,0,P|88:172|71:148,1,67.5000025749208,2|0,0:0|0:0,0:0:0:0:
8,40,156431,5,0,0:0:0:0:
8,40,156554,2,0,P|12:92|28:124,1,67.5000025749208,2|0,0:0|0:0,0:0:0:0:
72,124,157046,1,2,0:0:0:0:
72,132,157169,1,0,0:0:0:0:
72,140,157292,1,0,0:0:0:0:
72,148,157415,1,0,0:0:0:0:
72,160,157538,6,0,L|76:208,1,33.7500012874604,2|0,0:0|0:0,0:0:0:0:
144,184,157784,2,0,L|144:144,1,33.7500012874604
212,184,158030,2,0,L|216:264,1,67.5000025749208,2|0,0:0|0:0,0:0:0:0:
284,180,158522,6,0,L|272:104,1,67.5000025749208,2|0,0:0|0:0,0:0:0:0:
272,84,158890,1,0,0:0:0:0:
289,65,159012,1,2,0:0:0:0:
311,54,159135,1,0,0:0:0:0:
337,53,159258,1,0,0:0:0:0:
361,60,159381,1,0,0:0:0:0:
332,128,159505,1,2,0:0:0:0:
364,133,159627,1,0,0:0:0:0:
396,123,159750,1,0,0:0:0:0:
420,99,159873,1,0,0:0:0:0:
428,32,159997,5,2,0:0:0:0:
447,36,160078,1,0,0:0:0:0:
465,46,160160,1,0,0:0:0:0:
478,61,160242,1,0,0:0:0:0:
486,80,160324,1,0,0:0:0:0:
489,100,160406,1,0,0:0:0:0:
488,116,160489,6,0,L|488:160,1,33.7500012874604,2|0,0:0|0:0,0:0:0:0:
424,176,160735,2,0,L|424:216,1,33.7500012874604
352,224,160981,1,2,0:0:0:0:
352,232,161104,2,0,L|352:288,1,33.7500012874604
272,240,161349,1,0,0:0:0:0:
272,232,161472,2,0,L|272:192,1,33.7500012874604,2|0,0:0|0:0,0:0:0:0:
208,184,161718,2,0,L|208:128,1,33.7500012874604
136,172,161964,2,0,L|136:220,1,33.7500012874604,2|0,0:0|0:0,0:0:0:0:
64,184,162210,2,0,L|64:232,1,33.7500012874604
64,232,162456,6,0,P|72:292|88:324,1,67.5000025749208,2|0,0:0|0:0,0:0:0:0:
156,268,162825,1,0,0:0:0:0:
176,276,162948,2,0,P|220:288|252:288,1,67.5000025749208,2|0,0:0|0:0,0:0:0:0:
236,192,163317,1,0,0:0:0:0:
252,184,163440,2,0,B|300:152|308:128|308:128,1,67.5000025749208,2|0,0:0|0:0,0:0:0:0:
224,108,163808,1,0,0:0:0:0:
213,90,163930,1,2,0:0:0:0:
200,75,164053,1,0,0:0:0:0:
185,61,164176,1,0,0:0:0:0:
168,51,164299,1,0,0:0:0:0:
148,44,164423,6,0,P|104:68|72:96,2,67.5000025749208,2|0|2,0:0|0:0|0:0,0:0:0:0:
264,32,165161,1,0,0:0:0:0:
272,32,165284,1,0,0:0:0:0:
280,32,165407,2,0,L|328:32,3,33.7500012874604,2|0|0|0,0:0|0:0|0:0|0:0,0:0:0:0:
340,32,165899,1,2,0:0:0:0:
362,56,166021,1,0,0:0:0:0:
371,89,166144,1,0,0:0:0:0:
366,122,166267,1,0,0:0:0:0:
356,148,166390,6,0,P|344:216|352:240,1,67.5000025749208,2|0,0:0|0:0,0:0:0:0:
364,240,166759,1,0,0:0:0:0:
368,273,166881,1,2,0:0:0:0:
361,305,167004,1,0,0:0:0:0:
336,328,167127,1,0,0:0:0:0:
303,335,167250,1,0,0:0:0:0:
270,332,167373,1,2,0:0:0:0:
238,322,167496,1,0,0:0:0:0:
206,309,167619,1,0,0:0:0:0:
174,300,167742,1,0,0:0:0:0:
141,298,167865,1,2,0:0:0:0:
108,305,167988,1,0,0:0:0:0:
77,319,168111,1,0,0:0:0:0:
48,337,168234,1,0,0:0:0:0:
16,336,168358,6,0,P|0:276|4:244,1,67.5000025749208,2|0,0:0|0:0,0:0:0:0:
152,272,168849,2,0,P|124:228|124:196,1,67.5000025749208,2|0,0:0|0:0,0:0:0:0:
200,100,169341,2,0,P|175:146|148:162,1,67.5000025749208,2|0,0:0|0:0,0:0:0:0:
20,152,169833,2,0,P|72:149|99:165,1,67.5000025749208,2|0,0:0|0:0,0:0:0:0:
188,160,170325,6,0,P|216:200|248:220,1,67.5000025749208,2|0,0:0|0:0,0:0:0:0:
324,132,170694,2,0,P|275:136|242:153,1,67.5000025749208
280,264,171063,2,0,P|300:219|301:182,1,67.5000025749208,0|2,0:0|0:0,0:0:0:0:
188,160,171554,1,0,0:0:0:0:
324,132,171800,1,2,0:0:0:0:
280,264,172046,1,0,0:0:0:0:
188,288,172292,6,0,P|160:248|128:228,1,67.5000025749208,2|0,0:0|0:0,0:0:0:0:
52,316,172661,2,0,P|100:311|133:294,1,67.5000025749208
96,184,173030,2,0,P|75:228|74:265,1,67.5000025749208,0|2,0:0|0:0,0:0:0:0:
146,237,173521,1,0,0:0:0:0:
118,305,173767,1,2,0:0:0:0:
74,247,174013,1,0,0:0:0:0:
146,237,174259,5,2,0:0:0:0:
160,239,174381,1,0,0:0:0:0:
176,240,174504,1,0,0:0:0:0:
188,239,174627,1,0,0:0:0:0:
204,240,174750,1,2,0:0:0:0:
216,238,174873,1,0,0:0:0:0:
230,237,174996,1,0,0:0:0:0:
244,238,175119,1,0,0:0:0:0:
258,237,175242,1,2,0:0:0:0:
272,238,175365,1,0,0:0:0:0:
286,237,175488,1,0,0:0:0:0:
300,238,175611,1,0,0:0:0:0:
314,237,175734,1,2,0:0:0:0:
328,238,175857,1,0,0:0:0:0:
342,237,175980,1,0,0:0:0:0:
356,238,176103,1,0,0:0:0:0:
370,237,176226,5,2,0:0:0:0:
171,109,182128,5,2,0:0:0:0:
167,123,182251,1,2,0:0:0:0:
163,137,182374,1,2,0:0:0:0:
159,151,182497,1,2,0:0:0:0:
155,165,182620,1,2,0:0:0:0:
300,106,182866,5,2,0:0:0:0:
287,97,182989,1,2,0:0:0:0:
274,88,183112,1,2,0:0:0:0:
365,197,183358,1,2,0:0:0:0:
177,225,183604,1,2,0:0:0:0:
360,306,183849,5,2,0:0:0:0:
360,306,183972,1,2,0:0:0:0:
360,306,184095,2,0,L|441:295,1,60.2999971476747,4|0,0:0|0:0,0:0:0:0:
278,211,184587,2,0,P|277:248|282:274,1,60.2999971476747
395,151,185079,2,0,L|329:157,1,60.2999971476747,2|0,0:0|0:0,0:0:0:0:
238,109,185571,2,0,L|227:36,1,60.2999971476747
108,320,186063,5,4,0:0:0:0:
202,334,186308,1,0,0:0:0:0:
274,279,186554,2,0,P|304:271|339:266,1,60.2999971476747
451,201,187046,2,0,P|417:192|379:186,1,60.2999971476747,2|0,0:0|0:0,0:0:0:0:
291,56,187538,2,0,L|298:137,1,60.2999971476747
36,179,188030,6,0,P|65:191|101:193,1,60.2999971476747,4|0,0:0|0:0,0:0:0:0:
180,128,188522,1,0,0:0:0:0:
254,216,188767,1,0,0:0:0:0:
433,51,189013,2,0,P|425:107|416:132,1,60.2999971476747,4|0,0:0|0:0,0:0:0:0:
419,122,189382,1,0,0:0:0:0:
415,131,189505,2,0,P|408:163|406:212,1,60.2999971476747
287,347,189997,5,4,0:0:0:0:
272,257,190243,1,0,0:0:0:0:
176,144,190489,1,4,0:0:0:0:
134,227,190735,1,0,0:0:0:0:
287,347,190981,1,4,0:0:0:0:
319,156,191226,1,4,0:0:0:0:
134,227,191472,1,4,0:0:0:0:
314,258,191718,5,4,0:0:0:0:
334,261,191841,1,4,0:0:0:0:
351,262,191964,2,0,P|399:250|440:211,1,90,6|0,0:0|0:0,0:0:0:0:
463,97,192456,1,8,0:0:0:0:
371,43,192702,1,0,0:0:0:0:
267,159,192948,2,0,L|246:284,1,90,2|2,0:0|0:0,0:0:0:0:
384,268,193440,1,8,0:0:0:0:
387,125,193685,1,0,0:0:0:0:
218,74,193931,5,2,0:0:0:0:
336,196,194177,1,0,0:0:0:0:
336,196,194300,1,0,0:0:0:0:
336,196,194423,1,8,0:0:0:0:
491,161,194669,1,0,0:0:0:0:
317,31,194915,2,0,P|293:83|293:138,1,90,2|2,0:0|0:0,0:0:0:0:
480,268,195407,2,0,L|391:264,1,90,8|0,0:0|0:0,0:0:0:0:
217,244,195899,6,0,P|229:193|337:197,1,180,2|8,0:0|0:0,0:0:0:0:
305,318,196636,1,0,0:0:0:0:
150,208,196882,2,0,L|54:197,1,90,2|2,0:0|0:0,0:0:0:0:
42,178,197251,1,0,0:0:0:0:
25,153,197374,2,0,B|19:129|19:129|44:38,1,90,8|0,0:0|0:0,0:0:0:0:
239,70,197866,5,4,0:0:0:0:
303,131,198112,1,0,0:0:0:0:
230,228,198358,1,4,0:0:0:0:
170,118,198604,1,0,0:0:0:0:
412,72,198849,2,0,L|390:182,1,90,4|0,0:0|0:0,0:0:0:0:
324,264,199341,1,4,0:0:0:0:
303,132,199587,1,0,0:0:0:0:
432,272,199833,5,2,0:0:0:0:
252,312,200079,1,0,0:0:0:0:
389,202,200325,2,0,P|435:191|480:209,1,90,8|0,0:0|0:0,0:0:0:0:
328,359,200817,2,0,L|312:254,1,90,2|2,0:0|0:0,0:0:0:0:
247,132,201308,1,8,0:0:0:0:
170,239,201554,1,0,0:0:0:0:
383,269,201800,6,0,P|423:230|411:169,1,90,2|0,0:0|0:0,0:0:0:0:
425,198,202169,1,0,0:0:0:0:
425,198,202292,1,8,0:0:0:0:
351,65,202538,1,0,0:0:0:0:
195,132,202784,2,0,L|318:148,1,90,2|2,0:0|0:0,0:0:0:0:
169,239,203276,2,0,L|52:273,1,90,8|0,0:0|0:0,0:0:0:0:
177,336,203767,6,0,P|257:306|271:222,1,180,2|8,0:0|0:0,0:0:0:0:
73,193,204505,1,0,0:0:0:0:
250,143,204751,1,2,0:0:0:0:
102,102,204997,1,0,0:0:0:0:
102,102,205120,1,0,0:0:0:0:
102,102,205243,2,0,P|64:78|39:40,1,90,8|0,0:0|0:0,0:0:0:0:
246,32,205735,6,0,B|253:112|211:182|212:195,1,135,4|0,0:0|0:0,0:0:0:0:
177,189,206226,2,0,B|228:181|271:207|271:207|334:195,1,135,4|0,0:0|0:0,0:0:0:0:
362,184,206718,2,0,P|322:236|380:314,1,135,4|0,0:0|0:0,0:0:0:0:
376,321,207210,1,4,0:0:0:0:
424,136,207456,1,0,0:0:0:0:
245,225,207702,6,0,L|191:242,2,40.1999980984498,2|0|0,0:0|0:0|0:0,0:0:0:0:
293,155,208194,2,0,L|336:141,2,40.1999980984498,2|0|0,0:0|0:0|0:0,0:0:0:0:
179,113,208685,1,2,0:0:0:0:
179,113,208808,2,0,P|140:92|73:103,1,90.4499957215121,0|2,0:0|0:0,0:0:0:0:
28,167,209423,1,0,0:0:0:0:
228,183,209669,6,0,L|220:245,1,60.2999971476747,2|0,0:0|0:0,0:0:0:0:
310,73,210161,1,2,0:0:0:0:
310,73,210407,2,0,B|297:138|297:138|306:187|306:187|290:267,1,180.899991443024,0|2,0:0|0:0,0:0:0:0:
84,223,211636,2,0,P|137:214|182:229,2,90.4499957215121,2|0|0,0:0|0:0|0:0,0:0:0:0:
255,113,212743,2,0,L|242:207,1,90.4499957215121,0|2,0:0|0:0,0:0:0:0:
228,314,213358,1,0,0:0:0:0:
329,172,213604,6,0,P|370:160|413:154,1,60.2999971476747,2|0,0:0|0:0,0:0:0:0:
431,327,214095,2,0,P|392:307|384:280,1,60.2999971476747,2|2,0:0|0:0,0:0:0:0:
372,236,214464,2,0,L|480:148,1,120.599994295349
417,69,215079,2,0,L|376:76,1,30.1499985738374,2|0,0:0|0:0,0:0:0:0:
328,84,215325,1,0,0:0:0:0:
198,143,215571,5,0,0:0:0:0:
191,156,215694,1,0,0:0:0:0:
185,169,215817,1,0,0:0:0:0:
179,182,215940,1,0,0:0:0:0:
173,195,216063,1,0,0:0:0:0:
76,101,216308,1,0,0:0:0:0:
90,105,216431,1,0,0:0:0:0:
104,109,216554,1,0,0:0:0:0:
118,113,216677,1,0,0:0:0:0:
132,117,216800,1,0,0:0:0:0:
331,84,217046,2,0,P|289:73|259:80,1,60.2999971476747,2|4,0:0|0:0,0:0:0:0:
392,153,217538,5,0,0:0:0:0:
401,164,217661,1,0,0:0:0:0:
410,175,217784,1,0,0:0:0:0:
419,186,217907,1,0,0:0:0:0:
428,197,218030,1,0,0:0:0:0:
305,269,218276,1,0,0:0:0:0:
313,256,218399,1,0,0:0:0:0:
321,243,218522,1,0,0:0:0:0:
329,230,218645,1,0,0:0:0:0:
337,217,218767,1,0,0:0:0:0:
471,320,219013,2,0,P|420:326|399:323,1,60.2999971476747,2|0,0:0|0:0,0:0:0:0:
229,226,219505,5,2,0:0:0:0:
125,123,219751,1,0,0:0:0:0:
262,102,219997,1,2,0:0:0:0:
259,116,220120,1,0,0:0:0:0:
256,130,220243,1,0,0:0:0:0:
347,191,220489,1,2,0:0:0:0:
344,177,220612,1,0,0:0:0:0:
341,163,220735,1,0,0:0:0:0:
478,184,220981,1,2,0:0:0:0:
374,287,221227,1,0,0:0:0:0:
228,214,221472,6,0,P|187:195|162:129,1,90.4499957215121,4|2,0:0|0:0,0:0:0:0:
253,37,221964,2,0,L|241:146,1,90.4499957215121,4|2,0:0|0:0,0:0:0:0:
400,176,222456,2,0,P|363:189|305:187,1,90.4499957215121,4|2,0:0|0:0,0:0:0:0:
301,179,222948,1,4,0:0:0:0:
343,85,223194,1,2,0:0:0:0:
224,76,223440,6,0,L|220:124,3,30.1499985738374,0|0|0|0,0:0|0:0|0:0|0:0,0:0:0:0:
112,160,224054,2,0,L|96:116,2,30.1499985738374,0|0|0,0:0|0:0|0:0,0:0:0:0:
160,272,224546,2,0,L|120:312,2,30.1499985738374,0|0|0,0:0|0:0|0:0,0:0:0:0:
280,268,225038,2,0,L|324:292,2,30.1499985738374,0|0|0,0:0|0:0|0:0,0:0:0:0:
328,156,225530,6,0,L|280:160,1,30.1499985738374,0|0,0:0|0:0,0:0:0:0:
272,176,225776,1,0,0:0:0:0:
440,200,226022,2,0,L|464:148,1,30.1499985738374
448,144,226267,1,0,0:0:0:0:
320,72,226513,2,0,L|296:124,1,30.1499985738374
312,128,226758,1,0,0:0:0:0:
340,296,227005,2,0,L|344:248,1,30.1499985738374
320,228,227251,1,0,0:0:0:0:
216,196,227497,5,0,0:0:0:0:
216,196,227620,2,0,L|204:244,1,30.1499985738374
88,172,227989,1,0,0:0:0:0:
96,168,228112,2,0,L|104:120,1,30.1499985738374
216,64,228481,1,0,0:0:0:0:
244,80,228604,2,0,L|244:120,1,30.1499985738374
328,228,228972,1,0,0:0:0:0:
348,208,229095,2,0,L|380:176,1,30.1499985738374
476,208,229464,5,0,0:0:0:0:
480,178,229586,1,0,0:0:0:0:
476,148,229709,1,0,0:0:0:0:
320,48,229957,1,0,0:0:0:0:
312,77,230079,1,0,0:0:0:0:
312,107,230202,1,0,0:0:0:0:
184,268,230448,1,0,0:0:0:0:
185,237,230570,1,0,0:0:0:0:
187,207,230693,1,0,0:0:0:0:
189,177,230817,2,0,L|193:105|193:105,2,60.2999971476747,0|0|0,0:0|0:0|0:0,0:0:0:0:
