osu file format v13

[General]
AudioFilename: ~1.mp3
AudioLeadIn: 0
PreviewTime: 62128
Countdown: 0
SampleSet: None
StackLeniency: 0.7
Mode: 0
LetterboxInBreaks: 1
WidescreenStoryboard: 1

[Editor]
Bookmarks: 67415,91145,130981,199833
DistanceSpacing: 1
BeatDivisor: 4
GridSize: 4
TimelineZoom: 1

[Metadata]
Title:Kodoku Tsuki
TitleUnicode:孤独月
Artist:senya
ArtistUnicode:senya
Creator:Number5
Version:F.L.A.N.D.R.E
Source:Touhou
Tags:u.n. owen was her? Yuuhei Satellite Flandre Scarlet 幽閉サテライト 森永真由美 ItItS
BeatmapID:462573
BeatmapSetID:171607

[Difficulty]
HPDrainRate:4
CircleSize:4
OverallDifficulty:9
ApproachRate:9
SliderMultiplier:2.4
SliderTickRate:1

[Events]
//Background and Video events
0,0,"a5d2c32235ec9fbeb26691d9e6e412a3.jpg",0,0
//Break Periods
//Storyboard Layer 0 (Background)
//Storyboard Layer 1 (Fail)
//Storyboard Layer 2 (Pass)
//Storyboard Layer 3 (Foreground)
//Storyboard Sound Samples
//Background Colour Transformations
3,100,163,162,255

[TimingPoints]
1145,491.803278688525,4,3,1,50,1,0
9013,-100,4,3,1,50,0,1
24751,-149.253731343284,4,3,1,40,0,0
31636,-149.253731343284,4,3,1,40,0,0
66063,-100,4,3,1,50,0,1
97538,-133.333333333333,4,3,1,40,0,0
113767,-83.3333333333333,4,3,1,40,0,0
115243,-100,4,3,1,40,0,0
130981,-100,4,3,1,50,0,1
142907,-100,4,3,1,25,0,1
143030,-100,4,3,1,50,0,1
143153,-100,4,3,1,25,0,1
143276,-100,4,3,1,50,0,1
143399,-100,4,3,1,25,0,1
143522,-100,4,3,1,50,0,1
146226,-100,4,3,1,50,0,1
146718,-66.6666666666667,4,3,1,50,0,0
147210,-83.3333333333333,4,3,1,50,0,0
149915,-100,4,3,1,50,0,0
150161,-125,4,3,1,50,0,0
150653,-100,4,3,1,50,0,0
154095,-90.9090909090909,4,3,1,50,0,0
154341,-83.3333333333333,4,3,1,50,0,0
154587,-100,4,3,1,50,0,0
191964,-100,4,3,1,50,0,1
206104,-100,4,3,1,5,0,1
206226,-100,4,3,1,50,0,1
206595,-100,4,3,1,5,0,1
206718,-100,4,3,1,50,0,1
207087,-100,4,3,1,5,0,1
207210,-100,4,3,1,50,0,1
207579,-100,4,3,1,5,0,1
207702,-100,4,3,1,50,0,0
219505,-100,4,3,1,50,0,0
221841,-100,4,3,1,5,0,0
221964,-100,4,3,1,50,0,0
222333,-100,4,3,1,5,0,0
222456,-100,4,3,1,50,0,0
222825,-100,4,3,1,5,0,0
222948,-100,4,3,1,50,0,0
223317,-100,4,3,1,5,0,0
223440,-100,4,3,1,30,0,0

[Colours]
Combo1 : 255,0,0
Combo2 : 0,0,255
Combo3 : 255,255,0
Combo4 : 255,128,0

[HitObjects]
144,184,1145,5,0,0:0:0:0:
58,156,1390,1,0,0:0:0:0:
58,66,1636,1,0,0:0:0:0:
144,38,1882,1,0,0:0:0:0:
196,111,2128,2,0,P|296:100|424:200,1,240
409,173,3112,1,0,0:0:0:0:
494,201,3357,1,0,0:0:0:0:
494,291,3603,1,0,0:0:0:0:
409,319,3849,1,0,0:0:0:0:
356,248,4095,2,0,P|256:259|128:159,1,240
136,60,5079,6,0,P|235:48|363:148,1,240
480,212,6063,2,0,P|380:223|252:123,1,240
92,132,7046,5,6,0:0:0:0:
148,244,7292,1,0,0:0:0:0:
176,248,7415,1,0,0:0:0:0:
200,252,7538,1,8,0:0:0:0:
300,276,7784,1,0,0:0:0:0:
312,252,7907,1,0,0:0:0:0:
324,224,8030,2,0,L|368:232,2,30,2|0|8,0:0|0:0|0:0,0:0:0:0:
316,194,8275,1,2,0:0:0:0:
309,165,8398,1,2,0:0:0:0:
301,136,8521,1,8,0:0:0:0:
372,48,8767,1,8,0:0:0:0:
400,52,8890,1,8,0:0:0:0:
428,56,9013,6,0,P|460:120|452:188,1,120,2|0,0:0|0:0,0:0:0:0:
436,184,9382,1,0,0:0:0:0:
408,192,9505,2,0,L|396:280,1,60,8|0,0:0|0:0,0:0:0:0:
308,328,9751,2,0,L|320:240,1,60
304,112,9997,6,0,P|224:136|172:120,1,120,2|0,0:0|0:0,0:0:0:0:
160,144,10366,1,0,0:0:0:0:
140,168,10489,2,0,B|124:228|124:228|136:312,1,120,8|0,0:0|0:0,0:0:0:0:
224,264,10981,6,0,P|296:264|356:248,1,120,2|0,0:0|0:0,0:0:0:0:
360,228,11349,1,0,0:0:0:0:
368,96,11472,2,0,L|364:176,1,60,8|0,0:0|0:0,0:0:0:0:
408,312,11718,2,0,B|404:288|404:288|444:260|432:200,1,120,0|2,0:0|0:0,0:0:0:0:
200,96,12210,1,0,0:0:0:0:
200,96,12456,2,0,P|172:196|184:224,1,120,8|0,0:0|0:0,0:0:0:0:
256,308,12948,5,2,0:0:0:0:
256,308,13194,1,0,0:0:0:0:
256,308,13317,1,0,0:0:0:0:
256,308,13440,2,0,P|296:260|292:196,1,120,8|0,0:0|0:0,0:0:0:0:
200,96,13931,2,0,L|208:168,1,60,2|0,0:0|0:0,0:0:0:0:
156,280,14177,2,0,L|148:208,1,60
224,256,14423,2,0,P|304:276|372:260,1,120,8|0,0:0|0:0,0:0:0:0:
296,156,14915,5,6,0:0:0:0:
296,156,15161,1,0,0:0:0:0:
324,160,15284,1,0,0:0:0:0:
352,160,15407,1,12,0:0:0:0:
424,240,15653,1,0,0:0:0:0:
408,264,15776,1,0,0:0:0:0:
384,280,15899,2,0,L|316:296,1,60,6|8,0:0|0:0,0:0:0:0:
184,244,16145,2,0,L|242:257,1,60,2|0,0:0|0:0,0:0:0:0:
280,244,16390,1,12,0:0:0:0:
416,144,16636,1,8,0:0:0:0:
416,144,16759,1,8,0:0:0:0:
416,144,16882,6,0,P|424:72|400:16,1,120,2|0,0:0|0:0,0:0:0:0:
312,92,17374,1,8,0:0:0:0:
312,92,17620,1,0,0:0:0:0:
308,120,17743,1,0,0:0:0:0:
300,144,17866,2,0,P|276:208|236:248,1,120,2|0,0:0|0:0,0:0:0:0:
180,144,18358,1,8,0:0:0:0:
208,264,18604,1,0,0:0:0:0:
180,144,18849,6,0,P|232:96|292:92,1,120,2|0,0:0|0:0,0:0:0:0:
472,144,19341,2,0,P|420:192|356:180,1,120,8|0,0:0|0:0,0:0:0:0:
208,264,19833,2,0,P|288:312|392:320,1,180,2|0,0:0|0:0,0:0:0:0:
308,148,20325,1,8,0:0:0:0:
373,322,20571,1,0,0:0:0:0:
308,180,20817,6,0,L|308:332,1,120
120,320,21308,2,0,P|104:252|136:188,2,120,8|0|2,0:0|0:0|0:0,0:0:0:0:
416,216,22046,1,0,0:0:0:0:
420,244,22169,1,0,0:0:0:0:
424,272,22292,2,0,P|432:208|408:152,2,120,8|0|2,0:0|0:0|0:0,0:0:0:0:
212,196,23030,5,0,0:0:0:0:
240,208,23153,1,0,0:0:0:0:
272,220,23276,1,8,0:0:0:0:
360,184,23522,1,0,0:0:0:0:
381,205,23644,1,0,0:0:0:0:
402,226,23767,1,2,0:0:0:0:
424,248,23890,1,8,0:0:0:0:
404,272,24013,1,2,0:0:0:0:
382,293,24136,1,0,0:0:0:0:
361,314,24259,1,8,0:0:0:0:
208,320,24505,1,8,0:0:0:0:
188,300,24628,1,8,0:0:0:0:
160,280,24751,6,0,P|132:192|136:184,1,80.3999961968996,2|0,0:0|0:0,0:0:0:0:
232,68,25243,2,0,L|248:136,1,40.1999980984498,8|0,0:0|0:0,0:0:0:0:
308,232,25489,2,0,L|292:164,1,40.1999980984498,2|2,0:0|0:0,0:0:0:0:
336,112,25735,5,2,0:0:0:0:
336,112,25981,1,2,0:0:0:0:
364,120,26104,1,2,0:0:0:0:
392,128,26226,2,0,L|488:156,1,80.3999961968996,8|0,0:0|0:0,0:0:0:0:
436,284,26718,5,2,0:0:0:0:
410,273,26840,1,0,0:0:0:0:
384,262,26963,1,0,0:0:0:0:
358,251,27086,1,0,0:0:0:0:
332,240,27209,1,8,0:0:0:0:
216,148,27456,1,2,0:0:0:0:
208,176,27579,1,0,0:0:0:0:
200,204,27702,1,2,0:0:0:0:
60,252,27948,1,2,0:0:0:0:
88,260,28071,1,0,0:0:0:0:
116,272,28194,2,0,P|176:304|208:304,1,80.3999961968996,8|8,0:0|0:0,0:0:0:0:
324,180,28685,6,0,P|308:252|288:272,2,80.3999961968996,2|0|8,0:0|0:0|0:0,0:0:0:0:
192,64,29423,1,2,0:0:0:0:
192,64,29546,1,2,0:0:0:0:
192,64,29669,1,2,0:0:0:0:
136,196,29915,1,2,0:0:0:0:
136,196,30038,1,0,0:0:0:0:
136,196,30161,2,0,P|220:208|240:204,1,80.3999961968996,8|8,0:0|0:0,0:0:0:0:
192,64,30653,6,0,L|188:124,1,40.1999980984498,6|0,0:0|0:0,0:0:0:0:
256,256,30899,2,0,L|264:180,1,40.1999980984498,2|0,0:0|0:0,0:0:0:0:
320,64,31145,1,12,0:0:0:0:
324,88,31267,1,0,0:0:0:0:
388,208,31390,1,2,0:0:0:0:
412,188,31513,1,2,0:0:0:0:
476,276,31636,5,6,0:0:0:0:
476,276,31698,1,2,0:0:0:0:
476,276,31759,1,8,0:0:0:0:
348,296,31882,2,0,L|400:284,1,40.1999980984498,2|2,0:0|0:0,0:0:0:0:
388,208,32128,2,0,P|320:188|316:188,1,60.2999971476747,12|0,0:0|0:0,0:0:0:0:
304,188,32374,1,8,0:0:0:0:
220,240,32497,1,8,0:0:0:0:
220,240,32620,6,0,P|152:252|112:240,1,80.3999961968996,6|0,0:0|0:0,0:0:0:0:
52,168,32989,1,0,0:0:0:0:
226,115,33112,2,0,P|182:168|144:184,1,80.3999961968996,8|0,0:0|0:0,0:0:0:0:
52,168,33481,1,0,0:0:0:0:
68,248,33604,2,0,L|72:300,1,40.1999980984498,2|8,0:0|0:0,0:0:0:0:
148,352,33849,2,0,L|144:296,1,40.1999980984498,2|0,0:0|0:0,0:0:0:0:
220,240,34095,2,0,P|272:224|300:200,1,80.3999961968996,8|0,0:0|0:0,0:0:0:0:
260,56,34587,6,0,L|260:160,1,80.3999961968996,2|0,0:0|0:0,0:0:0:0:
276,152,34956,1,0,0:0:0:0:
296,168,35079,2,0,L|288:236,1,40.1999980984498,8|0,0:0|0:0,0:0:0:0:
256,300,35325,2,0,L|204:320,1,40.1999980984498
120,300,35571,5,2,0:0:0:0:
112,272,35693,1,8,0:0:0:0:
104,244,35817,2,0,L|88:188,1,40.1999980984498,2|0,0:0|0:0,0:0:0:0:
160,68,36063,2,0,L|168:128,1,40.1999980984498,8|0,0:0|0:0,0:0:0:0:
174,136,36308,1,8,0:0:0:0:
179,162,36431,1,8,0:0:0:0:
188,192,36554,6,0,L|200:248,1,40.1999980984498,2|0,0:0|0:0,0:0:0:0:
264,340,36800,2,0,L|252:284,1,40.1999980984498,0|0,0:0|0:0,0:0:0:0:
308,184,37046,2,0,L|340:288,1,80.3999961968996,8|0,0:0|0:0,0:0:0:0:
356,276,37415,1,0,0:0:0:0:
380,292,37538,2,0,P|432:288|476:260,1,80.3999961968996,2|0,0:0|0:0,0:0:0:0:
488,144,38030,2,0,P|420:160|376:156,1,80.3999961968996,8|0,0:0|0:0,0:0:0:0:
376,160,38399,1,0,0:0:0:0:
344,160,38522,6,0,P|304:156|265:143,1,80.3999961968996,2|0,0:0|0:0,0:0:0:0:
128,244,39013,2,0,P|167:247|206:260,1,80.3999961968996,8|0,0:0|0:0,0:0:0:0:
403,276,39505,2,0,P|442:263|482:260,1,80.3999961968996,2|0,0:0|0:0,0:0:0:0:
344,159,39996,2,0,P|305:172|266:175,1,80.3999961968996,10|8,0:0|0:0,0:0:0:0:
152,120,40489,6,0,P|130:183|142:224,1,80.3999961968996,2|0,0:0|0:0,0:0:0:0:
140,264,40858,1,0,0:0:0:0:
300,244,40981,2,0,P|242:278|225:317,1,80.3999961968996,8|0,0:0|0:0,0:0:0:0:
216,352,41350,1,0,0:0:0:0:
332,332,41472,2,0,P|400:332|436:320,2,80.3999961968996,2|2|8,0:0|0:0|0:0,0:0:0:0:
300,244,42210,1,2,0:0:0:0:
304,220,42333,1,2,0:0:0:0:
304,196,42456,6,0,P|308:144|292:100,1,80.3999961968996,2|0,0:0|0:0,0:0:0:0:
272,104,42825,1,0,0:0:0:0:
240,96,42948,1,8,0:0:0:0:
136,168,43194,1,0,0:0:0:0:
136,168,43440,6,0,L|156:232,1,40.1999980984498,2|8,0:0|0:0,0:0:0:0:
196,324,43685,2,0,L|204:272,1,40.1999980984498,2|0,0:0|0:0,0:0:0:0:
260,172,43931,2,0,P|320:200|360:200,2,80.3999961968996,8|0|2,0:0|0:0|0:0,0:0:0:0:
256,164,44669,5,0,0:0:0:0:
252,156,44915,1,8,0:0:0:0:
200,48,45161,2,0,L|200:108,1,40.1999980984498
284,236,45407,2,0,P|320:208|332:160,1,80.3999961968996,2|0,0:0|0:0,0:0:0:0:
488,184,45899,1,8,0:0:0:0:
336,144,46145,1,0,0:0:0:0:
288,72,46390,6,0,L|216:72,3,40.1999980984498,2|0|0|0,0:0|0:0|0:0|0:0,0:0:0:0:
216,88,46882,2,0,L|164:108,3,40.1999980984498,8|0|0|0,0:0|0:0|0:0|0:0,0:0:0:0:
144,120,47374,2,0,L|136:196,1,40.1999980984498,2|8,0:0|0:0,0:0:0:0:
280,168,47620,2,0,L|336:164,1,40.1999980984498,2|0,0:0|0:0,0:0:0:0:
208,216,47866,2,0,L|212:280,1,40.1999980984498,8|0,0:0|0:0,0:0:0:0:
80,276,48112,2,0,L|72:340,1,40.1999980984498,8|8,0:0|0:0,0:0:0:0:
232,328,48358,5,6,0:0:0:0:
232,328,48849,1,12,0:0:0:0:
232,328,49341,1,6,0:0:0:0:
232,328,49587,2,0,L|284:328,1,40.1999980984498
304,280,49833,2,0,L|392:280,1,80.3999961968996,12|0,0:0|0:0,0:0:0:0:
408,80,50325,6,0,L|384:176,1,80.3999961968996,2|0,0:0|0:0,0:0:0:0:
304,280,50817,2,0,L|292:184,1,80.3999961968996,8|0,0:0|0:0,0:0:0:0:
136,84,51308,1,2,0:0:0:0:
164,316,51554,1,0,0:0:0:0:
288,172,51800,1,8,0:0:0:0:
164,316,52046,1,0,0:0:0:0:
164,316,52292,6,0,P|172:248|132:188,1,120.599994295349,2|0,0:0|0:0,0:0:0:0:
136,172,52784,1,8,0:0:0:0:
248,72,53030,1,0,0:0:0:0:
279,219,53276,1,2,0:0:0:0:
136,172,53522,1,0,0:0:0:0:
278,219,53767,1,8,0:0:0:0:
248,72,54013,1,0,0:0:0:0:
248,72,54136,1,0,0:0:0:0:
248,72,54259,5,2,0:0:0:0:
396,104,54505,1,0,0:0:0:0:
396,104,54628,1,0,0:0:0:0:
396,104,54751,1,8,0:0:0:0:
408,248,54997,1,0,0:0:0:0:
408,248,55120,1,0,0:0:0:0:
408,248,55243,2,0,L|340:284,1,40.1999980984498,2|8,0:0|0:0,0:0:0:0:
212,284,55489,2,0,L|272:260,1,40.1999980984498,2|0,0:0|0:0,0:0:0:0:
328,148,55735,2,0,L|228:188,1,80.3999961968996,8|0,0:0|0:0,0:0:0:0:
108,240,56226,6,0,L|208:200,1,80.3999961968996,6|0,0:0|0:0,0:0:0:0:
116,124,56718,1,12,0:0:0:0:
328,148,57210,1,6,0:0:0:0:
328,148,57456,2,0,L|244:136,2,80.3999961968996,0|12|0,0:0|0:0|0:0,0:0:0:0:
352,164,58071,1,0,0:0:0:0:
376,184,58194,6,0,P|376:244|364:276,1,80.3999961968996,2|0,0:0|0:0,0:0:0:0:
268,344,58685,2,0,P|268:284|280:252,1,80.3999961968996,8|0,0:0|0:0,0:0:0:0:
256,240,59054,1,0,0:0:0:0:
232,216,59177,1,2,0:0:0:0:
177,64,59423,1,0,0:0:0:0:
328,9,59669,1,8,0:0:0:0:
383,161,59915,1,0,0:0:0:0:
232,216,60161,6,0,P|156:232|92:216,1,120.599994295349,2|0,0:0|0:0,0:0:0:0:
108,192,60653,1,8,0:0:0:0:
100,160,60776,1,0,0:0:0:0:
92,128,60899,1,0,0:0:0:0:
180,56,61145,2,0,P|256:72|284:64,2,80.3999961968996,2|0|8,0:0|0:0|0:0,0:0:0:0:
344,84,61882,6,0,L|356:144,1,40.1999980984498
428,188,62128,2,0,L|400:292,1,80.3999961968996,2|0,0:0|0:0,0:0:0:0:
292,336,62620,2,0,L|264:256,1,80.3999961968996,8|0,0:0|0:0,0:0:0:0:
164,152,63112,2,0,L|148:260,1,80.3999961968996,2|0,0:0|0:0,0:0:0:0:
72,364,63604,2,0,L|52:256,1,80.3999961968996,8|0,0:0|0:0,0:0:0:0:
65,144,64095,5,2,0:0:0:0:
90,138,64217,1,0,0:0:0:0:
115,138,64341,1,0,0:0:0:0:
140,144,64463,1,0,0:0:0:0:
163,151,64586,1,8,0:0:0:0:
187,143,64709,1,0,0:0:0:0:
211,139,64832,1,0,0:0:0:0:
236,138,64955,1,0,0:0:0:0:
336,128,65078,1,2,0:0:0:0:
362,137,65202,1,8,0:0:0:0:
464,200,65325,2,0,L|404:216,1,40.1999980984498,2|0,0:0|0:0,0:0:0:0:
316,248,65571,2,0,L|364:280,1,40.1999980984498,8|0,0:0|0:0,0:0:0:0:
256,324,65817,1,8,0:0:0:0:
232,328,65940,1,8,0:0:0:0:
100,348,66063,6,0,P|80:276|112:224,1,120,6|0,0:0|0:0,0:0:0:0:
116,136,66431,1,0,0:0:0:0:
332,36,66554,2,0,P|352:108|320:160,1,120,8|0,0:0|0:0,0:0:0:0:
316,248,66922,1,0,0:0:0:0:
48,224,67046,2,0,L|132:224,1,60,2|8,0:0|0:0,0:0:0:0:
316,248,67292,2,0,L|240:248,1,60,2|0,0:0|0:0,0:0:0:0:
192,280,67538,2,0,B|176:248|192:216|192:216|168:164,1,120,8|0,0:0|0:0,0:0:0:0:
332,36,68030,6,0,P|316:96|356:152,1,120,2|0,0:0|0:0,0:0:0:0:
408,208,68399,1,0,0:0:0:0:
316,248,68522,2,0,P|240:224|196:244,2,120,8|0|2,0:0|0:0|0:0,0:0:0:0:
256,132,69259,1,0,0:0:0:0:
104,72,69505,2,0,P|128:144|100:192,1,120,8|0,0:0|0:0,0:0:0:0:
255,256,69997,6,0,P|207:220|271:132,1,180,2|0,0:0|0:0,0:0:0:0:
344,108,70489,1,8,0:0:0:0:
456,212,70735,1,0,0:0:0:0:
348,324,70981,1,0,0:0:0:0:
108,264,71226,2,0,L|84:200,1,60
185,91,71472,2,0,P|265:115|329:103,2,120,8|0|6,0:0|0:0|0:0,0:0:0:0:
72,148,72210,5,0,0:0:0:0:
56,220,72333,1,0,0:0:0:0:
40,292,72456,1,12,0:0:0:0:
196,320,72702,2,0,L|260:360,1,60
280,88,72948,1,6,0:0:0:0:
324,152,73070,1,8,0:0:0:0:
352,228,73193,1,0,0:0:0:0:
436,232,73316,1,0,0:0:0:0:
452,152,73440,2,0,L|464:72,1,60,12|0,0:0|0:0,0:0:0:0:
280,88,73685,2,0,L|292:8,1,60,8|8,0:0|0:0,0:0:0:0:
116,36,73931,6,0,P|80:108|100:164,1,120,2|0,0:0|0:0,0:0:0:0:
172,108,74300,1,0,0:0:0:0:
436,232,74423,2,0,P|381:209|324:240,1,120,8|0,0:0|0:0,0:0:0:0:
284,304,74792,1,0,0:0:0:0:
80,304,74915,2,0,L|64:232,1,60,2|8,0:0|0:0,0:0:0:0:
192,184,75161,2,0,L|180:248,1,60,2|0,0:0|0:0,0:0:0:0:
388,288,75407,2,0,L|388:156,1,120,8|0,0:0|0:0,0:0:0:0:
248,52,75899,6,0,B|256:148|256:148|276:192|248:232,1,180,2|0,0:0|0:0,0:0:0:0:
72,296,76390,2,0,B|148:320|148:320|220:304,1,120,8|0,0:0|0:0,0:0:0:0:
344,128,76882,2,0,P|324:200|344:272,1,120,2|0,0:0|0:0,0:0:0:0:
452,344,77374,2,0,P|472:272|452:200,1,120,8|0,0:0|0:0,0:0:0:0:
388,64,77866,6,0,B|352:64|352:64|344:44|344:44|330:64|330:64|224:64,1,180,2|0,0:0|0:0,0:0:0:0:
148,120,78358,2,0,P|188:152|280:152,1,120,8|0,0:0|0:0,0:0:0:0:
408,152,78849,1,2,0:0:0:0:
188,248,79095,1,0,0:0:0:0:
116,268,79218,1,0,0:0:0:0:
44,284,79341,1,8,0:0:0:0:
320,344,79587,1,0,0:0:0:0:
408,152,79833,6,0,P|392:220|408:284,1,120,2|0,0:0|0:0,0:0:0:0:
476,344,80202,1,0,0:0:0:0:
408,152,80325,2,0,P|352:193|323:253,1,120,8|0,0:0|0:0,0:0:0:0:
320,344,80694,1,0,0:0:0:0:
224,272,80817,2,0,P|160:284|144:280,1,60,2|8,0:0|0:0,0:0:0:0:
76,224,81063,2,0,L|60:144,1,60,2|0,0:0|0:0,0:0:0:0:
168,88,81308,2,0,L|176:160,1,60,8|0,0:0|0:0,0:0:0:0:
280,140,81554,2,0,L|288:212,1,60,8|8,0:0|0:0,0:0:0:0:
416,272,81800,6,0,L|408:152,1,120,2|0,0:0|0:0,0:0:0:0:
280,140,82292,2,0,P|240:216|176:240,1,120,8|0,0:0|0:0,0:0:0:0:
67,271,82661,1,0,0:0:0:0:
84,152,82784,2,0,L|64:284,1,120,2|0,0:0|0:0,0:0:0:0:
112,188,83276,2,0,P|188:156|252:204,1,120,8|0,0:0|0:0,0:0:0:0:
472,164,83767,6,0,P|424:220|476:312,1,180,2|0,0:0|0:0,0:0:0:0:
344,320,84259,2,0,P|284:292|220:328,1,120,8|0,0:0|0:0,0:0:0:0:
96,244,84751,2,0,P|168:212|216:228,1,120,2|0,0:0|0:0,0:0:0:0:
392,124,85243,2,0,P|324:136|252:116,1,120,8|0,0:0|0:0,0:0:0:0:
88,48,85735,6,0,P|56:116|88:160,1,120,2|0,0:0|0:0,0:0:0:0:
272,312,86226,2,0,P|304:256|280:196,1,120,8|0,0:0|0:0,0:0:0:0:
74,150,86718,1,2,0:0:0:0:
268,172,86964,1,0,0:0:0:0:
244,108,87087,1,0,0:0:0:0:
228,40,87210,1,8,0:0:0:0:
74,150,87456,1,0,0:0:0:0:
100,272,87702,6,0,P|168:276|196:348,1,120,2|0,0:0|0:0,0:0:0:0:
452,208,88194,2,0,P|384:192|328:232,1,120,8|0,0:0|0:0,0:0:0:0:
128,108,88685,2,0,L|200:128,1,60,2|8,0:0|0:0,0:0:0:0:
448,72,88931,2,0,L|364:92,1,60,2|0,0:0|0:0,0:0:0:0:
264,140,89177,2,0,P|312:160|328:240,1,120,8|8,0:0|0:0,0:0:0:0:
260,288,89546,1,8,0:0:0:0:
348,328,89669,6,0,P|420:320|464:264,1,120,2|0,0:0|0:0,0:0:0:0:
460,154,90038,1,0,0:0:0:0:
328,120,90161,2,0,P|317:191|359:248,1,120,8|0,0:0|0:0,0:0:0:0:
453,289,90530,1,0,0:0:0:0:
460,154,90653,2,0,L|402:170,1,60,2|8,0:0|0:0,0:0:0:0:
168,192,90899,2,0,L|226:176,1,60,2|0,0:0|0:0,0:0:0:0:
444,89,91145,2,0,L|327:119,1,120,8|0,0:0|0:0,0:0:0:0:
248,72,91636,6,0,P|168:44|80:96,1,180,2|0,0:0|0:0,0:0:0:0:
72,156,92128,2,0,L|60:280,1,120,8|0,0:0|0:0,0:0:0:0:
320,248,92620,2,0,P|248:272|172:248,1,120,2|0,0:0|0:0,0:0:0:0:
312,152,93112,2,0,P|384:128|460:152,1,120,8|0,0:0|0:0,0:0:0:0:
296,48,93604,2,0,P|224:72|148:48,1,120,2|0,0:0|0:0,0:0:0:0:
120,164,94095,6,0,P|88:232|116:308,2,120,8|0|2,0:0|0:0|0:0,0:0:0:0:
268,256,94833,1,0,0:0:0:0:
344,252,94956,1,0,0:0:0:0:
416,228,95079,2,0,P|484:184|508:148,1,120,8|0,0:0|0:0,0:0:0:0:
304,32,95571,6,0,L|216:56,1,60,6|0,0:0|0:0,0:0:0:0:
176,160,95816,1,0,0:0:0:0:
176,160,95817,2,0,L|100:192,1,60
204,272,96063,1,8,0:0:0:0:
260,300,96185,1,0,0:0:0:0:
324,304,96308,1,0,0:0:0:0:
380,284,96431,1,0,0:0:0:0:
432,252,96554,1,2,0:0:0:0:
456,196,96676,1,8,0:0:0:0:
452,136,96799,1,2,0:0:0:0:
432,80,96922,1,0,0:0:0:0:
391,32,97046,2,0,P|343:44|312:36,1,60,8|0,0:0|0:0,0:0:0:0:
188,128,97292,1,8,0:0:0:0:
188,128,97415,1,8,0:0:0:0:
188,128,97538,6,0,B|128:144|92:184|92:184|88:188,1,90.0000034332277,2|0,0:0|0:0,0:0:0:0:
60,228,97907,1,0,0:0:0:0:
351,148,98030,2,0,B|297:116|243:119|243:119|237:119,1,90.0000034332277,8|0,0:0|0:0,0:0:0:0:
188,128,98399,1,0,0:0:0:0:
167,232,98522,2,0,L|230:238,1,45.0000017166138,2|8,0:0|0:0,0:0:0:0:
304,256,98767,2,0,L|367:262,1,45.0000017166138,2|0,0:0|0:0,0:0:0:0:
440,272,99013,2,0,P|424:308|400:336,1,67.5000025749207,8|0,0:0|0:0,0:0:0:0:
376,344,99259,2,0,L|320:352,1,45.0000017166138,8|8,0:0|0:0,0:0:0:0:
208,308,99505,6,0,P|144:320|136:320,1,67.5000025749207
104,324,99751,2,0,L|92:272,1,45.0000017166138
100,164,99997,1,8,0:0:0:0:
136,148,100120,1,0,0:0:0:0:
176,132,100243,2,0,L|232:128|232:128,1,45.0000017166138,0|0,0:0|0:0,0:0:0:0:
360,92,100489,6,0,P|344:156|368:204,1,90.0000034332277,2|0,0:0|0:0,0:0:0:0:
408,232,100858,1,0,0:0:0:0:
324,256,100981,2,0,L|388:232,1,45.0000017166138,8|0,0:0|0:0,0:0:0:0:
232,276,101226,2,0,L|296:252,1,45.0000017166138
288,206,101472,6,0,P|296:142|292:126,1,67.5000025749207,2|0,0:0|0:0,0:0:0:0:
226,101,101718,2,0,P|218:157|226:177,1,67.5000025749207
142,179,101964,2,0,P|146:131|142:107,1,67.5000025749207,8|0,0:0|0:0,0:0:0:0:
136,76,102210,2,0,L|80:88,1,45.0000017166138
40,160,102456,2,0,P|36:220|56:264,2,90.0000034332277,2|0|8,0:0|0:0|0:0,0:0:0:0:
156,292,103194,1,0,0:0:0:0:
196,288,103317,1,0,0:0:0:0:
240,284,103440,5,2,0:0:0:0:
440,108,103685,1,0,0:0:0:0:
420,140,103808,1,0,0:0:0:0:
400,176,103931,1,8,0:0:0:0:
256,88,104177,1,0,0:0:0:0:
216,100,104300,1,0,0:0:0:0:
176,112,104423,1,2,0:0:0:0:
140,124,104546,1,8,0:0:0:0:
104,136,104669,1,2,0:0:0:0:
68,152,104792,1,0,0:0:0:0:
32,164,104915,1,8,0:0:0:0:
284,208,105161,1,8,0:0:0:0:
304,244,105284,1,8,0:0:0:0:
320,276,105407,6,0,P|388:308|436:296,1,90.0000034332277,2|0,0:0|0:0,0:0:0:0:
448,64,105899,2,0,L|436:164,1,90.0000034332277,8|0,0:0|0:0,0:0:0:0:
116,128,106390,1,2,0:0:0:0:
116,128,106513,2,0,L|120:184,1,45.0000017166138,8|2,0:0|0:0,0:0:0:0:
132,208,106759,1,0,0:0:0:0:
152,240,106882,2,0,P|208:288|256:296,1,90.0000034332277,8|0,0:0|0:0,0:0:0:0:
256,284,107251,1,0,0:0:0:0:
288,272,107374,6,0,L|352:240,2,45.0000017166138,2|0|0,0:0|0:0|0:0,0:0:0:0:
268,60,107743,2,0,L|204:56,2,45.0000017166138,0|8|0,0:0|0:0|0:0,0:0:0:0:
412,140,108112,2,0,L|408:200,1,45.0000017166138
364,264,108358,2,0,L|380:328,2,45.0000017166138,2|8|2,0:0|0:0|0:0,0:0:0:0:
244,188,108726,2,0,L|200:152,2,45.0000017166138,0|8|0,0:0|0:0|0:0,0:0:0:0:
156,284,109095,2,0,L|96:292,1,45.0000017166138,8|8,0:0|0:0,0:0:0:0:
76,288,109341,6,0,P|56:208|72:168,2,90.0000034332277,2|0|8,0:0|0:0|0:0,0:0:0:0:
304,256,110079,1,0,0:0:0:0:
328,280,110202,1,0,0:0:0:0:
360,300,110325,2,0,P|424:312|456:304,1,90.0000034332277,2|0,0:0|0:0,0:0:0:0:
304,88,110817,2,0,P|232:80|200:88,1,90.0000034332277,8|0,0:0|0:0,0:0:0:0:
20,0,111308,5,2,0:0:0:0:
32,44,111430,1,0,0:0:0:0:
43,87,111553,1,0,0:0:0:0:
54,131,111676,1,0,0:0:0:0:
151,54,111800,5,8,0:0:0:0:
162,97,111922,1,0,0:0:0:0:
173,141,112045,1,0,0:0:0:0:
184,184,112168,1,0,0:0:0:0:
279,118,112292,5,2,0:0:0:0:
290,161,112414,1,8,0:0:0:0:
301,205,112537,1,2,0:0:0:0:
312,248,112660,1,0,0:0:0:0:
411,186,112784,5,8,0:0:0:0:
422,229,112906,1,0,0:0:0:0:
433,273,113029,1,8,0:0:0:0:
444,316,113152,1,8,0:0:0:0:
424,348,113276,6,0,L|256:328,1,157.500006008148,6|0,0:0|0:0,0:0:0:0:
408,336,113767,6,0,L|152:304,1,251.999992309571,12|0,0:0|0:0,0:0:0:0:
140,288,114259,5,6,0:0:0:0:
180,128,114505,2,0,P|248:144|332:116,2,143.999995605469,0|12|0,0:0|0:0|0:0,0:0:0:0:
60,168,115243,6,0,L|224:336,1,210,2|0,0:0|0:0,0:0:0:0:
228,332,115735,2,0,P|296:336|352:304,1,120,8|0,0:0|0:0,0:0:0:0:
288,104,116226,1,2,0:0:0:0:
288,252,116472,1,0,0:0:0:0:
380,72,116718,1,8,0:0:0:0:
228,332,116964,1,0,0:0:0:0:
124,244,117210,6,0,P|208:204|168:112,1,180,2|0,0:0|0:0,0:0:0:0:
288,104,117702,2,0,P|284:164|328:204,1,120,8|0,0:0|0:0,0:0:0:0:
144,176,118194,1,2,0:0:0:0:
352,136,118440,1,0,0:0:0:0:
228,332,118685,1,8,0:0:0:0:
464,212,118931,1,0,0:0:0:0:
432,248,119054,1,0,0:0:0:0:
408,276,119177,6,0,P|396:312|376:344,1,60,2|0,0:0|0:0,0:0:0:0:
280,264,119423,2,0,P|316:288|364:296,1,60
236,192,119669,2,0,P|300:188|328:224,1,60,8|0,0:0|0:0,0:0:0:0:
376,172,119915,2,0,P|356:216|324:244,1,60
296,112,120161,2,0,P|304:72|336:40,1,60,2|8,0:0|0:0,0:0:0:0:
432,108,120407,2,0,L|360:100,1,60,2|0,0:0|0:0,0:0:0:0:
376,172,120653,2,0,L|448:180,1,60,8|0,0:0|0:0,0:0:0:0:
504,152,120899,2,0,P|508:196|500:224,1,60,8|8,0:0|0:0,0:0:0:0:
488,288,121145,6,0,P|404:316|276:244,1,240,2|8,0:0|0:0,0:0:0:0:
112,284,121882,1,0,0:0:0:0:
40,188,122128,2,0,P|44:104|88:48,1,120,2|0,0:0|0:0,0:0:0:0:
176,76,122620,1,8,0:0:0:0:
320,144,122866,1,0,0:0:0:0:
332,164,122989,1,0,0:0:0:0:
344,184,123112,5,2,0:0:0:0:
40,188,123358,1,0,0:0:0:0:
360,204,123604,1,8,0:0:0:0:
144,216,123849,1,0,0:0:0:0:
196,272,124095,2,0,L|284:280,1,60,2|8,0:0|0:0,0:0:0:0:
256,248,124341,2,0,L|344:256,1,60,2|0,0:0|0:0,0:0:0:0:
300,228,124587,2,0,L|388:236,1,60,8|0,0:0|0:0,0:0:0:0:
360,204,124833,2,0,L|448:212,1,60,8|8,0:0|0:0,0:0:0:0:
468,216,125079,6,0,P|468:280|444:352,1,120,2|0,0:0|0:0,0:0:0:0:
184,213,125448,2,0,L|200:293,2,60,0|8|0,0:0|0:0|0:0,0:0:0:0:
308,60,125817,1,0,0:0:0:0:
312,80,125940,1,0,0:0:0:0:
316,100,126063,2,0,P|328:164|320:224,2,120,2|0|8,0:0|0:0|0:0,0:0:0:0:
156,100,126800,1,0,0:0:0:0:
124,96,126923,1,0,0:0:0:0:
80,92,127046,6,0,L|12:84,1,60,2|0,0:0|0:0,0:0:0:0:
32,160,127292,2,0,L|91:167,1,60,0|0,0:0|0:0,0:0:0:0:
112,240,127538,2,0,L|44:232,1,60,8|0,0:0|0:0,0:0:0:0:
64,308,127784,2,0,L|123:315,1,60,0|0,0:0|0:0,0:0:0:0:
200,284,128030,2,0,L|260:252,1,60,2|0,0:0|0:0,0:0:0:0:
384,332,128276,2,0,L|324:364,1,60
208,360,128522,2,0,L|268:328,1,60,8|0,0:0|0:0,0:0:0:0:
372,256,128768,2,0,L|312:288,1,60
260,220,129013,5,2,0:0:0:0:
278,211,129135,1,0,0:0:0:0:
296,202,129258,1,2,0:0:0:0:
314,194,129381,1,0,0:0:0:0:
408,172,129505,5,8,0:0:0:0:
387,137,129628,1,0,0:0:0:0:
367,102,129751,1,2,0:0:0:0:
347,68,129873,1,8,0:0:0:0:
260,16,129997,5,2,0:0:0:0:
203,37,130119,1,8,0:0:0:0:
147,58,130242,1,2,0:0:0:0:
91,79,130366,1,2,0:0:0:0:
12,136,130489,5,8,0:0:0:0:
57,201,130611,1,0,0:0:0:0:
103,266,130734,1,8,0:0:0:0:
149,332,130857,1,8,0:0:0:0:
256,320,130981,6,0,P|340:280|352:232,1,120
168,128,131472,1,8,0:0:0:0:
268,240,131718,1,0,0:0:0:0:
280,120,131964,1,2,0:0:0:0:
284,76,132087,1,8,0:0:0:0:
284,32,132210,1,2,0:0:0:0:
422,147,132456,1,8,0:0:0:0:
268,240,132702,1,0,0:0:0:0:
236,240,132825,1,0,0:0:0:0:
208,240,132948,6,0,P|136:244|68:224,1,120,2|0,0:0|0:0,0:0:0:0:
68,204,133317,1,0,0:0:0:0:
84,172,133440,2,0,P|142:160|202:165,1,120,8|0,0:0|0:0,0:0:0:0:
436,32,133931,2,0,P|416:88|424:152,1,120,2|0,0:0|0:0,0:0:0:0:
328,324,134423,2,0,P|348:268|340:204,1,120,8|0,0:0|0:0,0:0:0:0:
248,92,134915,5,2,0:0:0:0:
88,136,135161,1,0,0:0:0:0:
104,164,135284,1,0,0:0:0:0:
120,192,135407,1,8,0:0:0:0:
240,280,135653,1,0,0:0:0:0:
268,256,135776,1,0,0:0:0:0:
292,228,135899,1,2,0:0:0:0:
368,76,136145,1,0,0:0:0:0:
392,112,136267,1,0,0:0:0:0:
416,148,136390,1,8,0:0:0:0:
292,228,136636,1,8,0:0:0:0:
128,32,136882,6,0,P|104:100|124:160,1,120,2|0,0:0|0:0,0:0:0:0:
136,176,137251,1,0,0:0:0:0:
168,196,137374,2,0,P|188:264|164:316,1,120,8|0,0:0|0:0,0:0:0:0:
196,336,137743,1,0,0:0:0:0:
232,348,137866,2,0,P|300:356|364:324,1,120,2|2,0:0|0:0,0:0:0:0:
364,304,138235,1,0,0:0:0:0:
300,168,138358,2,0,L|292:236,1,60,8|0,0:0|0:0,0:0:0:0:
364,268,138604,2,0,L|372:200,1,60,8|0,0:0|0:0,0:0:0:0:
376,168,138849,6,0,B|420:132|472:164|472:164|484:20,1,240,2|8,0:0|0:0,0:0:0:0:
88,88,139587,1,0,0:0:0:0:
124,108,139710,1,0,0:0:0:0:
260,148,139833,2,0,L|200:176,1,60,2|8,0:0|0:0,0:0:0:0:
20,224,140079,1,2,0:0:0:0:
56,244,140202,1,0,0:0:0:0:
176,280,140325,2,0,L|116:308,1,60,8|0,0:0|0:0,0:0:0:0:
272,260,140571,2,0,L|212:288,1,60,8|0,0:0|0:0,0:0:0:0:
332,320,140817,6,0,P|396:336|436:200,1,240,2|8,0:0|0:0,0:0:0:0:
100,64,141554,1,0,0:0:0:0:
384,260,141800,1,2,0:0:0:0:
340,48,142046,1,0,0:0:0:0:
152,164,142292,1,8,0:0:0:0:
140,204,142415,1,0,0:0:0:0:
132,244,142538,1,0,0:0:0:0:
120,284,142661,1,0,0:0:0:0:
324,263,142784,6,0,L|396:259,1,60,2|0,0:0|0:0,0:0:0:0:
228,252,143030,2,0,L|300:248,1,60,0|0,0:0|0:0,0:0:0:0:
132,244,143276,2,0,L|204:240,1,60,8|0,0:0|0:0,0:0:0:0:
244,76,143522,1,0,0:0:0:0:
276,104,143645,1,0,0:0:0:0:
308,128,143767,2,0,P|368:152|440:96,1,120,2|0,0:0|0:0,0:0:0:0:
488,76,144136,1,0,0:0:0:0:
504,172,144259,2,0,L|480:296,1,120,8|0,0:0|0:0,0:0:0:0:
320,304,144751,6,0,L|260:336,1,60,6|0,0:0|0:0,0:0:0:0:
36,256,144997,1,0,0:0:0:0:
68,228,145120,1,0,0:0:0:0:
144,68,145243,2,0,L|172:144,1,60,12|0,0:0|0:0,0:0:0:0:
308,200,145489,1,0,0:0:0:0:
316,160,145612,1,0,0:0:0:0:
444,76,145735,1,6,0:0:0:0:
452,120,145858,1,0,0:0:0:0:
420,228,145981,2,0,L|416:312,1,60
236,300,146226,1,12,0:0:0:0:
196,312,146349,1,0,0:0:0:0:
259,142,146472,2,0,L|363:174,1,60
420,228,146718,6,0,P|329:259|310:192,1,180.000006866455,2|0,0:0|0:0,0:0:0:0:
176,200,147087,1,0,0:0:0:0:
64,124,147210,6,0,P|84:44|152:44,1,143.999995605469,8|0,0:0|0:0,0:0:0:0:
256,48,147579,1,0,0:0:0:0:
364,56,147702,2,0,L|436:40,2,71.9999978027344,2|0|0,0:0|0:0|0:0,0:0:0:0:
268,136,148071,1,2,0:0:0:0:
268,188,148194,1,8,0:0:0:0:
272,240,148317,1,0,0:0:0:0:
476,208,148440,2,0,L|405:223,1,71.9999978027344,2|0,0:0|0:0,0:0:0:0:
176,288,148685,6,0,P|88:276|80:200,1,143.999995605469,2|0,0:0|0:0,0:0:0:0:
100,136,149054,1,0,0:0:0:0:
284,40,149177,2,0,L|204:52,1,71.9999978027344,8|0,0:0|0:0,0:0:0:0:
344,136,149423,1,0,0:0:0:0:
392,144,149546,1,0,0:0:0:0:
380,272,149669,2,0,L|300:296,1,71.9999978027344,2|8,0:0|0:0,0:0:0:0:
176,288,149915,6,0,L|104:304,1,60,2|2,0:0|0:0,0:0:0:0:
100,136,150161,6,0,L|212:152,1,96,8|8,0:0|0:0,0:0:0:0:
344,136,150653,6,0,P|360:64|336:16,1,120,2|0,0:0|0:0,0:0:0:0:
100,136,151145,1,8,0:0:0:0:
320,244,151390,1,0,0:0:0:0:
356,264,151513,1,0,0:0:0:0:
396,276,151636,1,2,0:0:0:0:
344,136,151882,1,0,0:0:0:0:
100,136,152128,1,8,0:0:0:0:
472,204,152374,1,0,0:0:0:0:
52,236,152620,6,0,L|116:244,1,60
232,208,152866,1,0,0:0:0:0:
248,248,152989,1,0,0:0:0:0:
472,204,153112,2,0,L|404:212,1,60
270,107,153358,1,0,0:0:0:0:
290,70,153481,2,0,L|304:42,1,30
324,40,153604,2,0,L|377:38,2,30,0|0|0,0:0|0:0|0:0,0:0:0:0:
397,148,153849,6,0,L|412:81,1,60
376,220,154095,6,0,L|389:152,1,66.0000020141602
356,300,154341,6,0,L|368:228,1,71.9999978027344
184,216,154587,6,0,L|124:228,2,60,0|0|0,0:0|0:0|0:0,0:0:0:0:
324,40,154956,1,0,0:0:0:0:
315,114,155079,1,0,0:0:0:0:
296,184,155202,1,0,0:0:0:0:
132,108,155325,2,0,L|64:80,1,60
32,156,155571,1,0,0:0:0:0:
28,244,155694,2,0,P|64:312|136:336,1,120
368,272,156063,2,0,L|220:284,1,120
296,184,156554,6,0,P|352:176|323:40,1,240
224,56,157169,1,0,0:0:0:0:
84,136,157292,1,0,0:0:0:0:
104,208,157415,1,0,0:0:0:0:
120,292,157538,2,0,L|56:324,1,60
312,268,157784,2,0,L|240:288,1,60
156,156,158030,2,0,P|264:128|304:140,1,120
468,196,158522,6,0,B|440:144|440:144|464:72|464:72|428:16,1,180
328,36,159013,2,0,L|256:56,1,60
140,88,159259,2,0,L|60:108,1,60
184,192,159505,2,0,L|256:212,1,60
372,244,159751,2,0,L|452:264,1,60
356,352,159997,5,0,0:0:0:0:
308,356,160079,1,0,0:0:0:0:
260,352,160161,1,0,0:0:0:0:
212,340,160243,1,0,0:0:0:0:
172,316,160325,1,0,0:0:0:0:
140,284,160407,1,0,0:0:0:0:
116,240,160489,6,0,L|72:112,1,120
140,88,160858,1,0,0:0:0:0:
208,68,160981,2,0,L|312:88,1,60
384,156,161226,2,0,L|476:180,1,60
256,268,161472,2,0,L|268:176,1,60
384,156,161718,2,0,L|376:96,1,60
280,36,161964,1,0,0:0:0:0:
256,268,162210,6,0,P|327:285|383:154,1,240
312,144,162825,1,0,0:0:0:0:
240,136,162948,1,0,0:0:0:0:
168,136,163071,1,0,0:0:0:0:
100,152,163194,1,0,0:0:0:0:
32,180,163317,2,0,L|32:232,1,30
116,284,163440,2,0,L|176:312,1,60,0|0,0:0|0:0,0:0:0:0:
236,336,163685,1,0,0:0:0:0:
308,328,163808,1,0,0:0:0:0:
376,300,163931,1,0,0:0:0:0:
424,244,164054,1,0,0:0:0:0:
436,172,164177,1,0,0:0:0:0:
408,108,164300,1,0,0:0:0:0:
352,64,164423,6,0,P|260:48|240:52,1,90
228,112,164669,2,0,P|183:113|140:128,1,90
104,68,164915,2,0,P|61:82|16:84,1,90
64,172,165161,5,0,0:0:0:0:
88,216,165243,1,0,0:0:0:0:
112,260,165325,1,0,0:0:0:0:
144,296,165407,6,0,L|208:324,1,60
316,292,165653,2,0,L|385:302,1,60
448,196,165899,5,0,0:0:0:0:
416,160,165981,1,0,0:0:0:0:
376,132,166063,1,0,0:0:0:0:
328,120,166145,6,0,L|240:116,1,60
116,88,166390,5,0,0:0:0:0:
148,124,166472,1,0,0:0:0:0:
180,160,166554,1,0,0:0:0:0:
212,196,166636,6,0,L|268:264,1,60,0|0,0:0|0:0,0:0:0:0:
448,196,166882,5,0,0:0:0:0:
412,228,166964,1,0,0:0:0:0:
371,253,167046,1,0,0:0:0:0:
332,281,167128,6,0,L|256:330,1,60,0|0,0:0|0:0,0:0:0:0:
228,163,167374,5,0,0:0:0:0:
180,160,167456,1,0,0:0:0:0:
132,157,167538,1,0,0:0:0:0:
84,154,167620,6,0,L|9:151,1,60
116,88,167866,5,0,0:0:0:0:
164,80,167948,1,0,0:0:0:0:
212,72,168030,1,0,0:0:0:0:
240,32,168112,1,0,0:0:0:0:
288,44,168194,1,0,0:0:0:0:
332,60,168276,1,0,0:0:0:0:
380,72,168358,6,0,L|368:132,1,60
420,180,168604,1,0,0:0:0:0:
456,240,168726,1,0,0:0:0:0:
432,308,168849,1,0,0:0:0:0:
368,336,168972,1,0,0:0:0:0:
296,332,169095,1,0,0:0:0:0:
236,288,169218,1,0,0:0:0:0:
168,264,169341,1,0,0:0:0:0:
96,276,169464,1,0,0:0:0:0:
24,264,169587,1,0,0:0:0:0:
44,196,169710,1,0,0:0:0:0:
180,124,169833,1,0,0:0:0:0:
252,128,169956,1,0,0:0:0:0:
324,120,170079,1,0,0:0:0:0:
380,72,170202,1,0,0:0:0:0:
448,52,170325,6,0,P|460:124|444:180,1,120
372,344,170694,2,0,P|360:272|376:216,1,120
135,129,171063,2,0,P|193:140|251:127,1,120
448,52,171554,1,0,0:0:0:0:
264,260,171800,1,0,0:0:0:0:
32,108,172046,1,0,0:0:0:0:
232,80,172292,6,0,P|300:100|364:64,1,120
488,160,172661,2,0,L|428:288,1,120
264,260,173030,2,0,P|180:280|112:248,1,120
32,108,173522,1,0,0:0:0:0:
312,88,173767,1,0,0:0:0:0:
464,324,174013,1,0,0:0:0:0:
104,328,174259,5,0,0:0:0:0:
120,256,174382,1,0,0:0:0:0:
152,192,174505,1,0,0:0:0:0:
184,128,174628,1,0,0:0:0:0:
240,172,174751,1,0,0:0:0:0:
312,188,174874,1,0,0:0:0:0:
380,160,174997,1,0,0:0:0:0:
420,100,175120,1,0,0:0:0:0:
460,160,175243,1,0,0:0:0:0:
456,232,175366,1,0,0:0:0:0:
392,264,175489,1,0,0:0:0:0:
328,296,175612,1,0,0:0:0:0:
256,304,175735,1,0,0:0:0:0:
184,296,175858,1,0,0:0:0:0:
120,256,175981,1,0,0:0:0:0:
76,200,176104,1,0,0:0:0:0:
48,128,176226,6,0,P|104:88|168:92,1,120
424,132,176718,2,0,P|368:172|304:168,1,120
231,65,177210,2,0,L|259:325,1,240
76,224,177948,1,0,0:0:0:0:
276,224,178194,6,0,P|408:216|424:196,1,120
372,89,178685,1,0,0:0:0:0:
231,65,178931,1,0,0:0:0:0:
95,110,179177,2,0,P|71:182|83:242,1,120
168,304,179669,2,0,P|192:232|180:172,1,120
95,110,180161,6,0,L|339:165,1,240
432,266,180899,1,0,0:0:0:0:
283,300,181145,2,0,P|203:308|156:289,1,120
98,271,181513,1,0,0:0:0:0:
132,207,181636,2,0,L|252:145,1,120
436,60,182128,5,2,0:0:0:0:
416,128,182251,1,0,0:0:0:0:
396,196,182374,1,0,0:0:0:0:
376,264,182497,1,0,0:0:0:0:
356,332,182620,1,8,0:0:0:0:
88,80,182866,1,2,0:0:0:0:
152,112,182989,1,2,0:0:0:0:
216,144,183112,1,8,0:0:0:0:
416,128,183358,1,8,0:0:0:0:
118,265,183604,1,8,0:0:0:0:
376,264,183849,1,8,0:0:0:0:
304,264,183972,1,8,0:0:0:0:
232,264,184095,6,0,P|144:276|92:244,1,120,6|0,0:0|0:0,0:0:0:0:
142,58,184587,1,0,0:0:0:0:
416,128,184833,1,0,0:0:0:0:
304,264,185079,1,0,0:0:0:0:
304,264,185571,2,0,P|316:203|304:130,1,120
103,159,186063,5,6,0:0:0:0:
103,159,186554,2,0,P|171:167|223:151,2,120,0|0|0,0:0|0:0|0:0,0:0:0:0:
232,352,187538,1,0,0:0:0:0:
488,220,188030,6,0,P|392:184|424:68,1,240,6|0,0:0|0:0,0:0:0:0:
276,92,188767,1,0,0:0:0:0:
132,76,189013,2,0,P|184:120|172:184,1,120,6|0,0:0|0:0,0:0:0:0:
220,228,189382,1,0,0:0:0:0:
268,280,189505,2,0,P|324:300|372:244,1,120
448,88,189997,5,6,0:0:0:0:
276,92,190243,1,0,0:0:0:0:
464,172,190489,1,2,0:0:0:0:
276,92,190735,1,0,0:0:0:0:
56,136,190981,1,2,0:0:0:0:
140,308,191226,1,2,0:0:0:0:
332,312,191472,1,2,0:0:0:0:
461,172,191718,1,2,0:0:0:0:
393,192,191841,1,0,0:0:0:0:
321,204,191964,6,0,P|221:208|165:192,1,120,6|0,0:0|0:0,0:0:0:0:
57,136,192456,2,0,P|157:132|213:148,1,120,8|0,0:0|0:0,0:0:0:0:
512,192,192948,2,0,P|412:196|356:180,1,120,2|0,0:0|0:0,0:0:0:0:
248,124,193440,2,0,P|348:120|404:136,1,120,8|0,0:0|0:0,0:0:0:0:
512,192,193931,6,0,L|480:376,1,180,2|0,0:0|0:0,0:0:0:0:
376,328,194423,2,0,P|296:316|264:348,2,120,8|0|2,0:0|0:0|0:0,0:0:0:0:
376,328,195407,2,0,P|376:196|280:120,1,240,8|2,0:0|0:0,0:0:0:0:
72,320,196145,5,0,0:0:0:0:
144,308,196267,1,0,0:0:0:0:
212,280,196390,2,0,P|268:244|284:184,1,120,8|0,0:0|0:0,0:0:0:0:
80,68,196882,1,2,0:0:0:0:
440,96,197128,1,0,0:0:0:0:
420,164,197251,1,0,0:0:0:0:
400,232,197374,1,8,0:0:0:0:
144,308,197620,1,0,0:0:0:0:
80,68,197866,5,6,0:0:0:0:
400,232,198112,1,0,0:0:0:0:
72,220,198358,1,12,0:0:0:0:
304,44,198604,1,0,0:0:0:0:
292,336,198849,1,6,0:0:0:0:
168,128,199095,1,0,0:0:0:0:
448,68,199341,1,12,0:0:0:0:
416,328,199587,1,0,0:0:0:0:
72,220,199833,6,0,B|144:212|144:212|168:256|208:280|208:280|260:208,1,240,2|8,0:0|0:0,0:0:0:0:
308,76,200571,1,0,0:0:0:0:
416,328,200817,2,0,P|420:264|384:204,1,120,2|0,0:0|0:0,0:0:0:0:
88,104,201308,1,8,0:0:0:0:
308,76,201554,1,0,0:0:0:0:
48,256,201800,6,0,P|120:288|192:224,1,180,2|0,0:0|0:0,0:0:0:0:
252,152,202292,2,0,L|264:292,1,120,8|0,0:0|0:0,0:0:0:0:
308,76,202784,2,0,P|376:60|448:72,1,120,2|0,0:0|0:0,0:0:0:0:
135,163,203276,2,0,P|203:147|275:159,1,120,8|0,0:0|0:0,0:0:0:0:
436,173,203767,6,0,P|416:65|288:121,1,240,2|8,0:0|0:0,0:0:0:0:
136,164,204505,1,0,0:0:0:0:
280,328,204751,1,2,0:0:0:0:
308,76,204997,1,0,0:0:0:0:
296,148,205120,1,0,0:0:0:0:
284,220,205243,1,8,0:0:0:0:
28,88,205489,1,0,0:0:0:0:
40,280,205735,6,0,P|132:232|120:136,1,180,6|0,0:0|0:0,0:0:0:0:
472,280,206226,2,0,P|380:232|392:136,1,180,12|0,0:0|0:0,0:0:0:0:
117,353,206718,2,0,P|187:303|228:219,1,180,6|0,0:0|0:0,0:0:0:0:
395,353,207210,2,0,P|325:303|284:219,1,180,12|0,0:0|0:0,0:0:0:0:
172,48,207702,5,0,0:0:0:0:
236,84,207825,1,0,0:0:0:0:
296,120,207948,1,0,0:0:0:0:
395,353,208194,1,0,0:0:0:0:
56,148,208440,1,0,0:0:0:0:
112,196,208563,1,0,0:0:0:0:
184,204,208685,1,0,0:0:0:0:
252,176,208808,1,0,0:0:0:0:
296,120,208931,1,0,0:0:0:0:
395,353,209177,1,0,0:0:0:0:
68,284,209423,1,0,0:0:0:0:
408,64,209669,6,0,P|428:144|412:208,1,120
184,204,210161,1,0,0:0:0:0:
395,353,210407,1,0,0:0:0:0:
422,180,210653,1,0,0:0:0:0:
120,48,210899,1,0,0:0:0:0:
96,116,211022,1,0,0:0:0:0:
84,188,211145,2,0,B|72:244|88:272|88:272|56:284|56:284|92:312|88:312|76:336|88:348,1,180
224,312,211636,5,0,0:0:0:0:
296,316,211759,1,0,0:0:0:0:
364,300,211882,1,0,0:0:0:0:
416,248,212005,1,0,0:0:0:0:
320,56,212128,2,0,L|304:128,1,60
84,188,212374,1,0,0:0:0:0:
148,156,212497,1,0,0:0:0:0:
220,160,212620,1,0,0:0:0:0:
280,189,212743,2,0,B|330:183|330:183|348:192|376:168|376:168|412:198,1,120
364,300,213112,2,0,L|392:368,1,60
201,257,213358,2,0,L|229:325,1,60
84,188,213604,6,0,P|88:108|80:72,1,90,0|0,0:0|0:0,0:0:0:0:
223,71,213849,2,0,P|219:151|227:187,1,90,0|0,0:0|0:0,0:0:0:0:
356,200,214095,2,0,P|360:120|352:84,1,90,0|0,0:0|0:0,0:0:0:0:
484,64,214341,2,0,L|496:140,1,60
452,264,214587,1,0,0:0:0:0:
384,292,214710,1,0,0:0:0:0:
312,284,214833,1,0,0:0:0:0:
252,244,214956,1,0,0:0:0:0:
176,256,215079,1,0,0:0:0:0:
120,116,215202,2,0,L|88:120,2,30,0|0|0,0:0|0:0|0:0,0:0:0:0:
220,92,215448,1,0,0:0:0:0:
292,92,215571,5,0,0:0:0:0:
364,108,215694,1,0,0:0:0:0:
436,124,215817,1,0,0:0:0:0:
456,192,215940,1,0,0:0:0:0:
452,264,216063,1,0,0:0:0:0:
244,280,216308,1,0,0:0:0:0:
176,256,216431,1,0,0:0:0:0:
112,220,216554,1,0,0:0:0:0:
68,164,216677,1,0,0:0:0:0:
120,116,216800,2,0,L|196:80,1,60
204,24,217046,2,0,B|260:32|300:8|300:8|312:56|320:20|320:20|396:8,1,180
464,96,217538,5,0,0:0:0:0:
456,168,217661,1,0,0:0:0:0:
428,236,217784,1,0,0:0:0:0:
364,268,217907,1,0,0:0:0:0:
292,272,218030,1,0,0:0:0:0:
200,176,218276,1,0,0:0:0:0:
212,104,218399,1,0,0:0:0:0:
271,63,218522,1,0,0:0:0:0:
335,95,218645,1,0,0:0:0:0:
405,85,218767,2,0,L|493:101,1,60
456,168,219013,2,0,B|404:152|368:192|368:192|348:172|348:172|328:196|328:196|288:196,1,180
292,272,219505,6,0,B|248:296|208:292|208:292|184:312|184:312|184:292|184:292|148:320,1,180
68,160,219997,1,0,0:0:0:0:
140,176,220120,1,0,0:0:0:0:
208,156,220243,1,0,0:0:0:0:
244,92,220366,1,0,0:0:0:0:
220,20,220489,2,0,B|284:12|308:60|308:60|332:40|332:40|352:60|352:60|380:36|380:36|384:72,1,180
336,216,220981,2,0,L|324:292,1,60
208,156,221226,2,0,L|196:232,1,60
196,288,221472,6,0,P|100:324|40:260,1,180,4|0,0:0|0:0,0:0:0:0:
316,288,221964,2,0,P|412:324|472:260,1,180,4|0,0:0|0:0,0:0:0:0:
152,72,222456,2,0,L|132:254,1,180,4|0,0:0|0:0,0:0:0:0:
368,72,222948,2,0,L|388:254,1,180,4|0,0:0|0:0,0:0:0:0:
224,260,223440,5,0,0:0:0:0:
164,212,223563,1,0,0:0:0:0:
136,144,223685,1,0,0:0:0:0:
152,72,223808,1,0,0:0:0:0:
480,136,224054,5,0,0:0:0:0:
476,208,224177,1,0,0:0:0:0:
416,248,224300,1,0,0:0:0:0:
224,260,224546,5,0,0:0:0:0:
280,300,224669,1,0,0:0:0:0:
352,308,224792,1,0,0:0:0:0:
300,80,225038,5,0,0:0:0:0:
364,108,225161,1,0,0:0:0:0:
424,68,225284,1,0,0:0:0:0:
476,208,225530,5,0,0:0:0:0:
504,276,225653,1,0,0:0:0:0:
448,320,225776,1,0,0:0:0:0:
352,308,225899,2,0,L|352:236,1,60
284,220,226145,2,0,L|288:152,1,60
300,80,226390,5,0,0:0:0:0:
232,56,226513,1,0,0:0:0:0:
160,40,226636,1,0,0:0:0:0:
88,48,226759,1,0,0:0:0:0:
20,152,227005,1,0,0:0:0:0:
60,212,227128,1,0,0:0:0:0:
132,216,227251,1,0,0:0:0:0:
284,220,227497,6,0,L|280:296,2,60,0|0|0,0:0|0:0|0:0,0:0:0:0:
412,132,227989,2,0,B|400:52,2,60,0|0|0,0:0|0:0|0:0,0:0:0:0:
400,260,228481,1,0,0:0:0:0:
376,316,228604,1,0,0:0:0:0:
320,336,228726,1,0,0:0:0:0:
144,288,228972,2,0,L|152:212,1,60
176,172,229218,1,0,0:0:0:0:
276,72,229464,6,0,L|352:88,2,60,0|0|0,0:0|0:0|0:0,0:0:0:0:
176,172,229956,2,0,L|112:168,2,60,0|0|0,0:0|0:0|0:0,0:0:0:0:
264,196,230325,1,0,0:0:0:0:
312,228,230448,1,0,0:0:0:0:
372,240,230571,1,0,0:0:0:0:
432,240,230694,1,0,0:0:0:0:
488,216,230817,2,0,P|492:156|476:96,2,120,0|0|0,0:0|0:0|0:0,0:0:0:0:
