osu file format v12

[General]
AudioFilename: 09.mp3
AudioLeadIn: 0
PreviewTime: 112777
Countdown: 0
SampleSet: Soft
StackLeniency: 0.7
Mode: 0
LetterboxInBreaks: 0
StoryFireInFront: 0
EpilepsyWarning: 1

[Editor]
Bookmarks: 52389,82611,96833,112833,143055,157277,173277,203500,217722,237277,267500,304833
DistanceSpacing: 1.2
BeatDivisor: 4
GridSize: 4

[Metadata]
Title:Kobore Zakura
TitleUnicode:零れ桜
Artist:senya
ArtistUnicode:senya
Creator:Scorpiour
Version:Lunatic
Source:Touhou
Tags:ZUN Azure Perfect Cherry Blossom Saigyouji Yuyuko PCB TH07 Border of Life
BeatmapID:213158
BeatmapSetID:75445

[Difficulty]
HPDrainRate:6
CircleSize:4
OverallDifficulty:6
ApproachRate:8
SliderMultiplier:1.6
SliderTickRate:2

[Events]
//Background and Video events
0,0,"BG.jpg",0,0
//Break Periods
//Storyboard Layer 0 (Background)
//Storyboard Layer 1 (Fail)
//Storyboard Layer 2 (Pass)
//Storyboard Layer 3 (Foreground)
//Storyboard Sound Samples
//Background Colour Transformations
3,100,0,0,0

[TimingPoints]
29286,444.444444444444,4,2,1,100,1,0
52397,-80,4,2,1,100,0,1
82619,-80,4,2,1,100,0,0
111063,-200,4,2,1,100,0,0
111174,-200,4,2,1,93,0,0
111285,-200,4,2,1,86,0,0
111397,-200,4,2,1,79,0,0
111508,-200,4,2,1,72,0,0
111619,-200,4,2,1,65,0,0
111730,-200,4,2,1,58,0,0
111841,-200,4,2,1,51,0,0
111952,-200,4,2,1,44,0,0
112063,-200,4,2,1,37,0,0
112174,-200,4,2,1,30,0,0
112285,-200,4,2,1,23,0,0
112397,-200,4,2,1,14,0,0
112841,-80,4,2,1,100,0,1
116397,-50,4,2,1,100,0,1
118174,-100,4,2,1,100,0,1
119730,-80,4,2,1,100,0,1
141508,-80,4,2,1,100,0,0
173285,-80,4,2,1,100,0,1
203508,-80,4,2,1,100,0,0
237285,-80,4,2,1,100,0,1
267508,-80,4,2,1,100,0,0

[Colours]
Combo1 : 247,51,247
Combo2 : 223,191,255
SliderBorder : 249,241,226

[HitObjects]
56,116,29277,6,0,L|116:100,1,40
140,124,29500,2,0,L|200:108,1,40,0|0,0:0|0:0,0:0:0:0:
456,156,31055,6,0,L|396:140,1,40
372,164,31278,2,0,L|312:148,1,40,0|0,0:0|0:0,0:0:0:0:
60,196,32833,6,0,L|120:180,1,40
144,204,33056,2,0,L|204:188,1,40,0|0,0:0|0:0,0:0:0:0:
456,236,34611,6,0,L|396:220,1,40
372,244,34834,2,0,L|312:228,1,40,0|0,0:0|0:0,0:0:0:0:
184,260,35166,6,0,L|184:304,2,40
248,212,35508,2,0,L|280:212,6,20
176,176,35944,2,0,L|152:132,3,40
248,136,36389,6,0,P|296:116|320:76,1,80
360,12,36833,1,0,0:0:0:0:
444,60,37055,1,0,0:0:0:0:
396,144,37277,2,0,P|392:188|396:224,1,80
396,320,37722,1,0,0:0:0:0:
288,208,37944,6,0,P|240:148|161:136,1,160
72,168,38611,1,0,0:0:0:0:
144,232,38833,1,0,0:0:0:0:
224,180,39055,1,0,0:0:0:0:
312,216,39277,1,0,0:0:0:0:
372,140,39500,1,0,0:0:0:0:
372,140,39611,1,0,0:0:0:0:
372,140,39722,1,0,0:0:0:0:
372,140,39833,1,0,0:0:0:0:
372,140,39944,6,0,P|380:100|372:61,1,80
256,8,40389,2,0,P|248:48|255:86,1,80
284,176,40833,1,0,0:0:0:0:
356,240,41055,1,0,0:0:0:0:
312,324,41277,1,0,0:0:0:0:
168,256,41500,6,0,P|104:260|28:188,1,160
124,172,42166,2,0,P|152:140|192:128,1,80
284,128,42611,1,0,0:0:0:0:
344,204,42833,1,0,0:0:0:0:
436,172,43055,1,0,0:0:0:0:
436,172,43166,1,0,0:0:0:0:
436,172,43277,1,0,0:0:0:0:
436,172,43389,1,0,0:0:0:0:
436,172,43500,6,0,P|424:132|395:108,1,80
300,88,43944,1,0,0:0:0:0:
220,144,44166,1,0,0:0:0:0:
220,144,44277,1,0,0:0:0:0:
220,144,44389,2,0,P|184:160|144:155,1,80
64,100,44833,1,0,0:0:0:0:
216,48,45055,6,0,P|288:76|318:148,1,160
276,236,45722,1,0,0:0:0:0:
364,276,45944,1,0,0:0:0:0:
404,188,46166,1,0,0:0:0:0:
400,180,46277,1,0,0:0:0:0:
395,173,46389,1,0,0:0:0:0:
389,167,46500,1,0,0:0:0:0:
382,161,46611,1,0,0:0:0:0:
375,156,46722,1,0,0:0:0:0:
367,152,46833,1,0,0:0:0:0:
359,149,46944,1,0,0:0:0:0:
351,148,47055,6,0,P|311:144|271:147,1,80
184,188,47500,2,0,P|144:174|122:144,1,80
32,108,47944,1,0,0:0:0:0:
16,204,48166,1,0,0:0:0:0:
52,292,48389,1,0,0:0:0:0:
196,352,48611,6,0,P|276:348|330:294,1,160
240,268,49277,2,0,P|272:240|276:204,1,80
236,116,49722,1,0,0:0:0:0:
176,44,49944,2,0,L|136:44,2,40
272,28,50389,1,0,0:0:0:0:
332,104,50611,5,0,0:0:0:0:
336,108,50722,1,0,0:0:0:0:
340,112,50833,1,0,0:0:0:0:
344,116,50944,1,0,0:0:0:0:
348,120,51055,1,0,0:0:0:0:
352,124,51166,1,0,0:0:0:0:
356,128,51277,1,0,0:0:0:0:
360,132,51389,1,0,0:0:0:0:
364,136,51500,1,0,0:0:0:0:
368,140,51611,1,0,0:0:0:0:
372,144,51722,1,0,0:0:0:0:
376,148,51833,1,0,0:0:0:0:
380,152,51944,1,0,0:0:0:0:
384,156,52055,1,0,0:0:0:0:
388,160,52166,1,0,0:0:0:0:
392,164,52277,1,0,0:0:0:0:
396,168,52389,6,0,P|400:264|288:328,1,200
292,212,53055,2,0,P|224:152|116:164,1,200
64,268,53722,1,0,0:0:0:0:
184,264,53944,1,0,0:0:0:0:
292,212,54166,6,0,P|316:168|361:156,2,100
192,144,54833,2,0,P|120:184|19:139,1,200
108,60,55500,1,0,0:0:0:0:
224,28,55722,1,0,0:0:0:0:
336,68,55944,6,0,P|392:32|463:61,1,150
404,116,56389,2,0,P|364:152|276:129,1,150
252,56,56833,2,0,P|200:108|213:177,1,150
161,235,57277,2,0,P|228:256|284:208,1,150
288,148,57722,5,0,0:0:0:0:
404,116,57945,1,0,0:0:0:0:
468,216,58167,1,0,0:0:0:0:
388,304,58389,2,0,P|288:320|192:304,1,200
152,366,58944,1,0,0:0:0:0:
152,366,59055,2,0,P|120:328|120:280,1,100
128,204,59389,1,0,0:0:0:0:
128,204,59500,5,0,0:0:0:0:
244,236,59722,1,0,0:0:0:0:
328,152,59944,1,0,0:0:0:0:
210,119,60166,2,0,P|152:76|248:36,1,200
348,48,60833,2,0,P|400:48|440:23,1,100
328,152,61277,6,0,P|292:208|217:239,1,150
156,240,61722,1,0,0:0:0:0:
60,168,61944,2,0,P|52:120|62:70,2,100
44,288,62611,1,0,0:0:0:0:
140,360,62833,1,0,0:0:0:0:
140,360,62944,1,0,0:0:0:0:
140,360,63055,6,0,P|136:312|106:271,1,100
252,312,63500,2,0,P|256:264|285:223,1,100
116,196,63944,2,0,P|60:208|35:240,1,100
276,148,64389,2,0,P|332:160|356:192,1,100
176,64,64833,6,0,P|144:156|186:243,1,200
276,148,65500,2,0,P|340:208|446:204,1,200
392,92,66166,1,0,0:0:0:0:
384,88,66277,1,0,0:0:0:0:
376,84,66389,1,0,0:0:0:0:
368,80,66500,1,0,0:0:0:0:
360,76,66611,6,0,P|260:60|164:80,1,200
52,36,67277,2,0,P|44:88|57:132,1,100
160,200,67722,1,0,0:0:0:0:
268,144,67944,2,0,P|320:152|360:188,1,100
264,264,68389,6,0,P|328:300|402:294,1,150
460,276,68833,1,0,0:0:0:0:
400,172,69055,1,0,0:0:0:0:
440,60,69277,1,0,0:0:0:0:
324,24,69500,1,0,0:0:0:0:
284,136,69722,2,0,P|268:176|220:203,1,100
160,308,70166,6,0,P|132:236|160:172,1,150
60,112,70611,2,0,P|132:84|196:112,1,150
256,12,71055,2,0,P|284:84|256:148,1,150
356,208,71500,2,0,P|284:236|220:208,1,150
188,160,71944,5,0,0:0:0:0:
84,104,72166,1,0,0:0:0:0:
28,212,72389,1,0,0:0:0:0:
136,268,72611,2,0,P|192:280|298:199,1,200
236,160,73166,1,0,0:0:0:0:
236,160,73277,2,0,P|276:128|340:136,1,100
372,184,73611,1,0,0:0:0:0:
372,184,73722,6,0,P|396:140|389:92,2,100
484,224,74389,2,0,P|424:292|320:292,1,200
252,192,75055,1,0,0:0:0:0:
132,200,75277,1,0,0:0:0:0:
80,308,75500,6,0,P|128:320|177:311,2,100
132,200,76166,2,0,P|224:180|268:91,1,200
148,80,76833,1,0,0:0:0:0:
132,200,77055,1,0,0:0:0:0:
228,272,77277,6,0,P|268:240|315:242,1,100
384,272,77611,1,0,0:0:0:0:
384,272,77722,2,0,P|388:220|362:181,1,100
288,172,78055,1,0,0:0:0:0:
288,172,78166,2,0,P|316:124|355:108,1,100
424,140,78500,1,0,0:0:0:0:
424,140,78611,2,0,P|428:88|401:50,1,100
328,40,78944,1,0,0:0:0:0:
328,40,79055,6,0,P|256:60|185:38,2,150
220,144,79944,2,0,P|152:120|80:144,2,150
348,224,80833,2,0,P|361:294|418:345,2,150
352,72,81722,1,0,0:0:0:0:
391,77,81833,1,0,0:0:0:0:
427,93,81944,1,0,0:0:0:0:
458,119,82055,1,0,0:0:0:0:
480,152,82166,1,0,0:0:0:0:
456,272,82389,5,0,0:0:0:0:
456,272,82500,1,0,0:0:0:0:
456,272,82611,2,0,P|396:312|312:300,1,150
276,284,83055,1,0,0:0:0:0:
196,196,83277,1,0,0:0:0:0:
76,212,83500,1,0,0:0:0:0:
148,308,83722,2,0,P|200:320|244:308,1,100
316,212,84166,1,0,0:0:0:0:
316,212,84277,1,0,0:0:0:0:
316,212,84389,6,0,P|304:140|232:88,1,150
200,76,84833,1,0,0:0:0:0:
96,132,85055,1,0,0:0:0:0:
88,252,85277,1,0,0:0:0:0:
188,316,85500,1,0,0:0:0:0:
296,264,85722,1,0,0:0:0:0:
304,144,85944,1,0,0:0:0:0:
196,196,86166,6,0,P|184:148|192:99,2,100
304,144,86833,2,0,P|336:64|436:24,1,200,0|0,0:0|0:0,0:0:0:0:
424,144,87500,1,0,0:0:0:0:
364,248,87722,1,0,0:0:0:0:
364,248,87833,1,0,0:0:0:0:
364,248,87944,2,0,P|312:264|267:258,1,100
207,154,88389,2,0,P|252:140|304:144,1,100
304,144,89055,5,0,0:0:0:0:
242,41,89277,1,0,0:0:0:0:
139,102,89500,1,0,0:0:0:0:
201,205,89722,2,0,P|160:260|68:264,1,150
36,248,90166,1,0,0:0:0:0:
20,128,90389,1,0,0:0:0:0:
139,102,90611,1,0,0:0:0:0:
256,128,90833,5,0,0:0:0:0:
256,128,90944,1,0,0:0:0:0:
256,128,91055,1,0,0:0:0:0:
256,128,91166,1,0,0:0:0:0:
256,128,91277,1,0,0:0:0:0:
256,128,91389,1,0,0:0:0:0:
256,128,91500,6,0,P|312:172|412:164,1,150
436,164,91944,1,0,0:0:0:0:
360,72,92166,2,0,L|360:12,2,50
256,128,92611,1,0,0:0:0:0:
332,220,92833,1,0,0:0:0:0:
268,320,93055,6,0,P|168:336|78:300,1,200
184,240,93722,2,0,P|236:232|272:200,1,100
80,180,94174,1,0,0:0:0:0:
136,20,94397,1,0,0:0:0:0:
300,64,94619,1,0,0:0:0:0:
244,224,94841,1,0,0:0:0:0:
188,332,95063,6,0,P|288:340|354:274,1,200
340,156,95730,1,0,0:0:0:0:
335,157,95841,1,0,0:0:0:0:
330,158,95952,1,0,0:0:0:0:
325,159,96063,1,0,0:0:0:0:
320,160,96174,1,0,0:0:0:0:
315,161,96285,1,0,0:0:0:0:
310,162,96397,1,0,0:0:0:0:
305,163,96508,1,0,0:0:0:0:
300,164,96619,1,0,0:0:0:0:
295,165,96730,1,0,0:0:0:0:
290,166,96841,6,0,P|220:160|159:111,1,150
124,64,97285,1,0,0:0:0:0:
112,183,97508,1,0,0:0:0:0:
123,210,97619,1,0,0:0:0:0:
146,228,97730,1,0,0:0:0:0:
256,272,97952,1,0,0:0:0:0:
256,272,98063,1,0,0:0:0:0:
256,272,98174,2,0,P|308:264|355:263,1,100
244,152,98619,6,0,P|320:144|393:143,1,150
452,148,99063,1,0,0:0:0:0:
396,44,99285,1,0,0:0:0:0:
396,44,99397,1,0,0:0:0:0:
396,44,99508,2,0,P|392:96|393:144,1,100
286,29,99952,1,0,0:0:0:0:
246,141,100174,1,0,0:0:0:0:
359,183,100397,6,0,P|307:247|191:249,1,200
106,331,101063,2,0,P|76:253|136:153,1,200
110,36,101730,2,0,P|163:38|204:60,1,100
193,253,102174,1,0,0:0:0:0:
193,253,102397,1,0,0:0:0:0:
304,20,102619,1,0,0:0:0:0:
304,20,102841,1,0,0:0:0:0:
452,232,103063,1,0,0:0:0:0:
452,232,103285,1,0,0:0:0:0:
316,168,103508,1,0,0:0:0:0:
316,168,103619,1,0,0:0:0:0:
316,168,103730,1,0,0:0:0:0:
316,168,103841,1,0,0:0:0:0:
316,168,103952,6,0,P|304:248|252:308,1,150
220,328,104397,1,0,0:0:0:0:
220,168,104619,1,0,0:0:0:0:
220,168,104730,1,0,0:0:0:0:
220,168,104841,2,0,P|180:112|100:88,1,150
56,84,105285,1,0,0:0:0:0:
56,244,105508,1,0,0:0:0:0:
56,244,105619,1,0,0:0:0:0:
56,244,105730,6,0,L|40:352,1,100
148,280,106174,2,0,L|160:388,1,100
248,280,106619,2,0,L|236:172,1,100
340,244,107063,2,0,L|356:136,1,100,0|0,0:0|0:0,0:0:0:0:
368,44,107508,5,0,0:0:0:0:
484,252,107841,1,0,0:0:0:0:
244,252,108174,1,0,0:0:0:0:
364,188,108397,5,0,0:0:0:0:
156,68,108730,1,0,0:0:0:0:
152,306,109063,1,0,0:0:0:0:
228,188,109285,1,0,0:0:0:0:
229,168,109396,1,0,0:0:0:0:
235,148,109507,1,0,0:0:0:0:
244,131,109618,1,0,0:0:0:0:
257,115,109729,1,0,0:0:0:0:
273,103,109840,1,0,0:0:0:0:
290,94,109951,1,0,0:0:0:0:
309,88,110062,1,0,0:0:0:0:
329,86,110173,1,0,0:0:0:0:
349,88,110284,1,0,0:0:0:0:
368,95,110396,1,0,0:0:0:0:
386,104,110507,1,0,0:0:0:0:
401,117,110618,1,0,0:0:0:0:
413,133,110729,1,0,0:0:0:0:
422,151,110840,1,0,0:0:0:0:
427,170,110951,1,0,0:0:0:0:
428,188,111063,2,0,B|431:193|431:193|424:192|424:192|432:196|432:196|424:196|424:196|432:200|432:200|424:200|424:200|432:204|432:204|424:204|424:204|432:208|432:208|424:208|424:208|432:212|432:212|424:212|424:212|432:216|432:216|424:216|424:216|432:220|432:220|424:220|424:220|432:224|432:224|424:224|424:224|432:228|432:228|424:228|424:228|432:232|432:232|424:232|424:232|432:236|432:236|424:236|424:236|432:240|432:240|424:240|424:240|432:244|432:244|424:244|424:244|428:248|428:248|428:264,1,240
284,44,112841,6,0,P|244:88|254:172,1,150
284,212,113285,1,0,0:0:0:0:
400,248,113508,1,0,0:0:0:0:
400,248,113619,1,0,0:0:0:0:
400,248,113730,2,0,P|348:312|286:334,1,150
240,316,114174,2,0,P|200:288|150:289,1,100
40,108,114619,6,0,P|80:164|156:171,1,150
200,148,115063,1,0,0:0:0:0:
232,32,115285,1,0,0:0:0:0:
232,32,115397,1,0,0:0:0:0:
232,32,115508,2,0,P|292:72|316:143,1,150
288,184,115952,2,0,P|260:224|261:273,1,100
357,192,116397,6,0,B|405:167|401:90|401:90|328:56|287:96,1,240
287,95,116841,2,0,B|278:42|203:22|203:22|148:81|174:132,1,240
173,132,117285,2,0,B|120:124|78:189|78:189|117:259|174:251,1,240
173,251,117730,2,0,B|150:299|198:359|198:359|277:344|287:287,1,240
287,288,118174,2,0,B|325:325|397:298|397:298|407:218|356:191,2,240
256,192,119730,1,0,0:0:0:0:
256,192,119841,1,0,0:0:0:0:
256,192,119952,6,0,P|204:180|156:196,2,100
170,276,120619,2,0,P|96:243|101:136,1,200
207,81,121285,1,0,0:0:0:0:
220,74,121397,1,0,0:0:0:0:
234,71,121508,1,0,0:0:0:0:
248,72,121619,1,0,0:0:0:0:
262,76,121730,2,0,P|313:96|360:84,2,100
151,124,122397,2,0,P|223:189|320:181,1,200
382,78,123063,1,0,0:0:0:0:
441,181,123285,1,0,0:0:0:0:
441,181,123397,1,0,0:0:0:0:
441,181,123508,6,0,P|410:246|338:261,1,150
231,234,123952,2,0,P|262:169|333:153,1,150
449,318,124397,2,0,P|384:344|306:334,1,150
231,235,124841,2,0,P|296:209|373:218,1,150
