osu file format v9

[General]
AudioFilename: Senya - Koakuma Apple(EUROBEAT Remix).mp3
AudioLeadIn: 0
PreviewTime: 63519
Countdown: 0
SampleSet: Normal
StackLeniency: 0.7
Mode: 0
LetterboxInBreaks: 1

[Editor]
DistanceSpacing: 0.8
BeatDivisor: 2
GridSize: 4

[Metadata]
Title:Koakuma Apple (EUROBEAT Remix)
Artist:senya
Creator:Chocopikel
Version:Normal
Source:Touhou
Tags:Bad apple gensokyo Lotus Land Story yuuhei satellite

[Difficulty]
HPDrainRate:2
CircleSize:3
OverallDifficulty:2
ApproachRate:3
SliderMultiplier:1.1
SliderTickRate:1

[Events]
//Background and Video events
0,0,"BG.jpg"
//Break Periods
2,124972,135562
2,198348,208938
//Storyboard Layer 0 (Background)
//Storyboard Layer 1 (Fail)
//Storyboard Layer 2 (Pass)
//Storyboard Layer 3 (Foreground)
//Storyboard Sound Samples
//Background Colour Transformations
3,100,163,162,255

[TimingPoints]
2480,382.165605095541,4,1,1,50,1,0
63626,-100,4,1,1,70,0,0
88085,-100,4,1,1,70,0,1
112543,-100,4,2,1,100,0,0
112639,-100,4,2,1,80,0,0
114072,-100,4,2,1,100,0,0
114167,-100,4,2,1,80,0,0
115601,-100,4,2,1,100,0,0
115696,-100,4,2,1,80,0,0
117129,-100,4,2,1,100,0,0
117225,-100,4,2,1,80,0,0
118658,-100,4,2,1,100,0,0
118753,-100,4,2,1,80,0,0
120187,-100,4,2,1,100,0,0
120282,-100,4,2,1,80,0,0
121715,-100,4,2,1,100,0,0
121811,-100,4,2,1,80,0,0
123244,-100,4,2,1,10,0,0
124772,-100,4,1,1,70,0,1
124820,-100,4,1,1,70,0,0
137002,-100,4,1,1,50,0,0
149231,-100,4,1,1,70,0,0
173690,-100,4,1,1,70,0,1
198148,-100,4,1,1,70,0,0
210378,-100,4,1,1,100,0,1
210425,-100,4,2,1,80,0,0
222798,-100,4,1,1,70,0,0
245537,-100,4,2,1,10,0,0
247065,-100,4,1,1,70,0,1
247113,-100,4,1,1,70,0,0

[Colours]
Combo1 : 128,0,255
Combo2 : 0,128,255
Combo3 : 255,128,255

[HitObjects]
100,64,39167,6,0,B|80:120|100:176,1,110,6|2
100,260,39932,1,0
188,256,40314,2,0,B|208:200|188:144,2,110,2|0|2
192,344,41460,2,0,B|248:364|304:344,1,110,2|2
300,256,42225,6,0,B|356:236|412:256,1,110,2|2
476,200,42989,2,0,B|476:140,2,55,2|0|2
392,168,43753,1,2
340,96,44136,1,2
264,140,44518,2,0,B|212:160|212:160|160:140,1,110,2|2
72,140,45282,5,2
28,216,45664,1,2
116,216,46046,1,0
72,292,46429,1,2
160,292,46811,6,0,B|220:296|264:256,1,110,0|2
316,188,47575,2,0,B|353:146|349:86,1,110,0|2
436,88,48339,5,2
436,176,48722,1,2
436,264,49104,2,0,B|436:324,2,55,2|0|2
392,264,49677,6,0,B|280:264,2,110,2|2|2
392,220,50632,2,0,B|412:164|392:108,1,110,2|2
320,64,51397,6,0,B|300:120|320:176,1,110,4|2
232,176,52161,1,0
144,176,52543,2,0,B|88:192|32:176,2,110,2|0|2
144,88,53690,2,0,B|200:68|256:88,1,110,2|2
340,88,54454,6,0,B|340:200,1,110,2|2
428,196,55218,2,0,B|428:136,2,55,2|0|2
384,272,55983,1,2
296,272,56365,1,2
208,272,56747,2,0,B|96:272,1,110,2|2
44,200,57511,5,2
96,128,57894,1,2
176,168,58276,1,0
252,124,58658,1,2
324,176,59040,6,0,B|324:232|357:277,1,110,0|2
448,280,59804,2,0,B|485:238|476:176,1,110,0|2
400,132,60569,5,2
324,176,60951,1,2
288,256,61333,2,0,B|288:312,2,55,2|0|2
244,256,61906,6,0,B|188:272|160:324,2,110,6|6|6
244,212,62862,2,0,B|244:92,1,110,6|6
160,120,63626,6,0,B|100:144|80:204,1,110,4|8
84,284,64390,1,0
172,284,64772,2,0,B|224:300|284:284,2,110,8|0|8
172,196,65919,2,0,B|224:180|284:196,1,110,0|8
356,240,66683,5,0
424,296,67065,1,8
492,240,67448,1,0
424,184,67830,1,8
356,240,68212,6,0,B|324:292|260:300,1,110,0|8
268,212,68976,2,0,B|236:160|172:152,1,110,0|8
92,156,69741,6,0,B|72:216|92:272,2,110,0|8|0
136,80,70887,1,8
224,72,71269,1,0
292,128,71651,2,0,B|328:172|392:176,2,110,8|0|8
224,184,72798,5,0
136,184,73180,1,8
180,260,73562,2,0,B|192:316|252:344,1,110,0|8
336,340,74327,2,0,B|448:340,2,110,0|8|0
292,264,75473,1,8
292,176,75855,6,0,B|352:184|376:240,2,110,4|8|0
336,100,77002,1,8
248,100,77384,2,0,B|192:116|136:100,1,110,0|8
64,52,78148,2,0,B|44:108|64:164,1,110,0|8
60,248,78913,5,0
136,204,79295,1,8
212,248,79677,2,0,B|268:232|328:248,1,110,0|8
324,336,80441,2,0,B|268:352|208:336,2,110,0|8|0
400,288,81588,1,8
400,200,81970,6,0,B|416:148|400:88,2,110,0|8|0
321,246,83116,1,8
244,200,83499,2,0,B|200:152|116:184|96:264|148:308,2,220,0|8|0
272,284,85409,2,0,B|295:303|285:343|243:355|221:335,2,110,8|0|8
288,196,86556,5,4
356,140,86938,1,4
440,160,87320,1,4
476,240,87702,1,4
440,320,88085,6,0,B|328:320,1,110,4|8
244,320,88849,2,0,B|188:320,2,55,0|0|8
288,244,89613,2,0,B|256:200|256:200|200:248|148:200,2,165,0|8|8
376,244,91142,6,0,B|408:200|408:200|464:248|516:200,2,165,0|8|8
332,168,92671,1,0
332,80,93053,2,0,B|276:52|224:80,1,110,8|0
236,168,93817,2,0,B|256:220|236:276,1,110,8|0
60,276,94964,6,0,B|40:224|60:164,2,110,0|8|0
128,332,96110,1,8
196,276,96492,2,0,B|248:260|304:276,2,110,0|8|0
192,188,97639,6,0,B|140:164|128:100,1,110,8|0
204,60,98403,2,0,B|228:72|256:80|284:72|308:60,1,110,8|0
383,103,99167,2,0,B|372:164|320:187,1,110,8|0
256,248,99932,2,0,B|256:360,1,110,8|4
360,216,101078,5,0
344,128,101460,1,8
256,116,101843,2,0,B|212:144|192:88|192:88|144:112|124:64,2,165,0|8|8
256,204,103371,6,0,B|240:264|184:288,1,110,0|8
100,288,104136,1,0
48,216,104518,2,0,B|28:160|48:104,1,110,8|0
136,108,105282,2,0,B|156:164|136:220,2,110,8|0|8
92,32,106429,1,0
256,92,107193,6,0,B|216:56,2,55,0|0|8
344,92,107957,2,0,B|376:148|300:148|336:228|336:228|360:248,2,165,0|8|8
256,192,109486,12,4,111779
168,96,112543,6,0,B|244:172|100:228|176:308,1,220,2|0
344,298,114072,2,0,B|412:228|268:172|344:96,1,220,2|0
272,260,115601,2,0,B|180:248|120:316|120:316|64:264,1,220,2|0
81,103,117129,2,0,B|120:68|120:68|180:136|272:124,2,220,2|0|2
100,276,119422,5,0
256,348,120187,1,2
412,276,120951,1,0
324,124,121715,2,0,B|324:168|304:196|256:212|208:196|188:168|188:120,2,220,2|0|0
256,192,123339,12,4,124772
88,316,137002,6,0,B|144:336|200:316,1,110,6|2
284,316,137766,1,0
284,228,138148,2,0,B|228:208|172:228,2,110,2|0|2
360,272,139295,2,0,B|416:292|472:272,1,110,2|2
468,184,140059,6,0,B|412:164|356:184,1,110,2|2
296,120,140823,2,0,B|296:60,2,55,2|0|2
236,184,141588,1,2
280,260,141970,1,2
236,336,142352,2,0,B|184:316|184:316|132:336,1,110,2|2
88,260,143116,5,2
32,192,143499,1,2
88,124,143881,1,0
144,192,144263,1,2
216,244,144645,6,0,B|212:304|252:348,1,110,0|2
336,344,145409,2,0,B|373:302|369:242,1,110,0|2
368,156,146174,5,2
312,88,146556,1,2
224,88,146938,2,0,B|224:32,2,55,2|0|2
180,88,147511,6,0,B|64:88,2,110,6|6|6
180,132,148467,2,0,B|180:248,1,110,6|6
116,300,149231,6,0,B|56:276|36:216,1,110,4|8
40,136,149995,1,0
116,96,150378,2,0,B|172:76|228:96,2,110,8|0|8
116,184,151524,2,0,B|168:204|228:184,1,110,0|8
312,184,152288,5,0
357,110,152670,1,8
444,124,153052,1,0
459,212,153435,1,8
380,252,153817,6,0,B|324:240|264:252,1,110,0|8
308,332,154581,2,0,B|252:344|192:332,1,110,0|8
124,284,155346,6,0,B|104:224|124:168,2,110,0|8|0
204,248,156492,1,8
292,248,156874,1,0
376,272,157257,2,0,B|428:296|428:296|480:272,2,110,8|0|8
348,188,158403,5,0
264,156,158785,1,8
184,192,159167,2,0,B|128:200|96:252,1,110,0|8
36,188,159932,2,0,B|36:76,2,110,0|8|0
36,276,161078,1,8
124,276,161460,6,0,B|184:284|220:336,2,110,4|8|0
168,200,162607,1,8
256,200,162989,2,0,B|312:212|368:200,1,110,0|8
364,112,163753,2,0,B|308:92|252:112,1,110,0|8
168,112,164518,5,0
100,168,164900,1,8
160,232,165282,2,0,B|120:280|124:344,1,110,0|8
212,332,166046,2,0,B|264:352|320:332,2,110,0|8|0
264,260,167193,1,8
212,188,167575,6,0,B|196:136|212:76,2,110,0|8|0
264,260,168722,1,8
348,232,169104,2,0,B|392:280|476:248|496:168|444:124,2,220,0|8|0
316,152,171015,2,0,B|293:133|303:93|345:81|367:101,2,110,8|0|8
256,216,172161,5,4
200,284,172543,1,4
256,352,172925,1,4
312,284,173308,1,4
256,216,173690,6,0,B|212:176|152:172,1,110,4|8
68,172,174454,2,0,B|12:172,2,55,0|0|8
116,100,175218,2,0,B|168:88|168:88|232:72|272:120,2,165,0|8|8
156,176,176747,6,0,B|168:228|168:228|184:292|136:332,2,165,0|8|8
236,140,178276,1,0
316,176,178658,2,0,B|316:232,2,55,8|0|0
316,88,179422,2,0,B|432:88,1,110,8|0
360,252,180569,6,0,B|340:304|360:364,2,110,0|8|0
288,200,181715,1,8
212,244,182097,2,0,B|160:260|104:244,2,110,0|8|0
212,156,183244,6,0,B|160:132|148:68,1,110,8|0
236,60,184008,2,0,B|288:44|344:60,1,110,8|0
348,148,184772,2,0,B|328:208|348:268,1,110,8|0
432,256,185537,2,0,B|448:200|432:144,1,110,8|4
280,60,186683,5,0
208,112,187065,1,8
252,188,187448,2,0,B|208:236|236:268|236:268|268:304|200:336,2,165,0|8|8
328,144,188976,6,0,B|388:160|412:216,1,110,0|8
324,236,189741,1,0
380,304,190123,2,0,B|324:336|268:304,1,110,8|0
188,308,190887,2,0,B|168:252|188:196,2,110,8|0|8
100,308,192034,1,0
100,132,192798,6,0,B|44:132,2,55,0|0|8
176,84,193562,2,0,B|204:76|204:76|256:108|312:76|312:76|336:84,2,165,0|8|8
256,192,195091,12,4,198148
220,248,210378,6,0,B|276:248,1,55,4|2
364,248,210951,1,2
320,324,211333,1,2
140,324,212097,6,0,B|80:324|40:276,2,110,2|2|2
140,236,213244,2,0,B|140:176,1,55,2|2
228,180,213817,2,0,B|228:235,1,55,2|2
428,328,214964,6,0,B|420:316|420:316|452:300|436:260|436:260|468:236|436:212|436:212|452:172|420:156|420:156|428:144,1,220,2|2
216,84,216683,6,0,B|164:64|108:84,2,110,2|2|2
216,260,218212,2,0,B|164:280|108:260,2,110,2|2|2
304,260,219358,2,0,B|364:260,1,55,2|2
360,172,219932,2,0,B|292:172,1,55,2|2
104,80,221078,6,0,B|120:56|144:56|144:56|160:88|192:104|224:88|240:56|240:56|264:56|280:80,1,220,2|2
168,268,222798,6,0,B|108:260|64:296,2,110,2|0|0
344,268,224327,2,0,B|404:260|448:296,2,110,2|0|0
300,192,225473,2,0,B|336:152,1,55,2|2
336,64,226046,2,0,B|281:64,1,55,2|2
148,64,226811,5,2
68,100,227193,1,0
60,188,227575,2,0,B|68:248|26:288,2,110,4|0|4
152,280,228913,6,0,B|172:336|240:352,2,110,2|0|0
152,104,230441,2,0,B|172:48|240:32,2,110,2|0|0
236,124,231588,2,0,B|236:192,1,55,2|2
324,192,232161,2,0,B|384:192,1,55,2|2
444,76,232925,5,2
364,112,233308,1,0
325,192,233690,2,0,B|317:252|365:300,2,110,4|0|4
236,92,235027,5,2
164,144,235409,1,0
84,104,235792,1,0
84,280,236556,5,2
164,240,236938,1,0
236,292,237320,1,0
320,272,237702,2,0,B|320:328,1,55,2|2
408,328,238276,2,0,B|408:272,1,55,2|2
320,176,239040,6,0,B|332:112|296:64,1,110,2|0
211,70,239804,2,0,B|180:112|192:176,1,110,4|0
256,236,240569,1,4
140,300,241142,6,0,B|92:332|32:324,1,110,2|0
56,240,241906,1,0
140,84,242671,2,0,B|92:52|32:60,1,110,2|0
56,144,243435,1,0
128,192,243817,5,2
172,192,244008,2,2,B|284:192,1,110
324,192,244581,2,0,B|436:192,2,110,2|2|2
256,192,245537,12,4,247065
